  0
SECTION
  2
HEADER
  9
$ACADVER
  1
AC1015
  9
$ACADMAINTVER
 70
     6
  9
$DWGCODEPAGE
  3
ANSI_1252
  9
$INSBASE
 10
0.0
 20
0.0
 30
0.0
  9
$EXTMIN
 10
1.000000000000000E+20
 20
1.000000000000000E+20
 30
1.000000000000000E+20
  9
$EXTMAX
 10
-1.000000000000000E+20
 20
-1.000000000000000E+20
 30
-1.000000000000000E+20
  9
$LIMMIN
 10
0.0
 20
0.0
  9
$LIMMAX
 10
420.0
 20
297.0
  9
$ORTHOMODE
 70
     0
  9
$REGENMODE
 70
     1
  9
$FILLMODE
 70
     1
  9
$QTEXTMODE
 70
     0
  9
$MIRRTEXT
 70
     1
  9
$LTSCALE
 40
1.0
  9
$ATTMODE
 70
     1
  9
$TEXTSIZE
 40
2.5
  9
$TRACEWID
 40
1.0
  9
$TEXTSTYLE
  7
Standard
  9
$CLAYER
  8
RMF
  9
$CELTYPE
  6
ByLayer
  9
$CECOLOR
 62
   256
  9
$CELTSCALE
 40
1.0
  9
$DISPSILH
 70
     0
  9
$DIMSCALE
 40
1.0
  9
$DIMASZ
 40
2.5
  9
$DIMEXO
 40
0.625
  9
$DIMDLI
 40
3.75
  9
$DIMRND
 40
0.0
  9
$DIMDLE
 40
0.0
  9
$DIMEXE
 40
1.25
  9
$DIMTP
 40
0.0
  9
$DIMTM
 40
0.0
  9
$DIMTXT
 40
2.5
  9
$DIMCEN
 40
2.5
  9
$DIMTSZ
 40
0.0
  9
$DIMTOL
 70
     0
  9
$DIMLIM
 70
     0
  9
$DIMTIH
 70
     0
  9
$DIMTOH
 70
     0
  9
$DIMSE1
 70
     0
  9
$DIMSE2
 70
     0
  9
$DIMTAD
 70
     1
  9
$DIMZIN
 70
     8
  9
$DIMBLK
  1

  9
$DIMASO
 70
     1
  9
$DIMSHO
 70
     1
  9
$DIMPOST
  1

  9
$DIMAPOST
  1

  9
$DIMALT
 70
     0
  9
$DIMALTD
 70
     3
  9
$DIMALTF
 40
0.03937007874016
  9
$DIMLFAC
 40
1.0
  9
$DIMTOFL
 70
     1
  9
$DIMTVP
 40
0.0
  9
$DIMTIX
 70
     0
  9
$DIMSOXD
 70
     0
  9
$DIMSAH
 70
     0
  9
$DIMBLK1
  1

  9
$DIMBLK2
  1

  9
$DIMSTYLE
  2
ISO-25
  9
$DIMCLRD
 70
     0
  9
$DIMCLRE
 70
     0
  9
$DIMCLRT
 70
     0
  9
$DIMTFAC
 40
1.0
  9
$DIMGAP
 40
0.625
  9
$DIMJUST
 70
     0
  9
$DIMSD1
 70
     0
  9
$DIMSD2
 70
     0
  9
$DIMTOLJ
 70
     0
  9
$DIMTZIN
 70
     8
  9
$DIMALTZ
 70
     0
  9
$DIMALTTZ
 70
     0
  9
$DIMUPT
 70
     0
  9
$DIMDEC
 70
     2
  9
$DIMTDEC
 70
     2
  9
$DIMALTU
 70
     2
  9
$DIMALTTD
 70
     3
  9
$DIMTXSTY
  7
Standard
  9
$DIMAUNIT
 70
     0
  9
$DIMADEC
 70
     0
  9
$DIMALTRND
 40
0.0
  9
$DIMAZIN
 70
     0
  9
$DIMDSEP
 70
    46
  9
$DIMATFIT
 70
     3
  9
$DIMFRAC
 70
     0
  9
$DIMLDRBLK
  1

  9
$DIMLUNIT
 70
     2
  9
$DIMLWD
 70
    -2
  9
$DIMLWE
 70
    -2
  9
$DIMTMOVE
 70
     0
  9
$LUNITS
 70
     2
  9
$LUPREC
 70
     4
  9
$SKETCHINC
 40
1.0
  9
$FILLETRAD
 40
10.0
  9
$AUNITS
 70
     0
  9
$AUPREC
 70
     0
  9
$MENU
  1
.
  9
$ELEVATION
 40
0.0
  9
$PELEVATION
 40
0.0
  9
$THICKNESS
 40
0.0
  9
$LIMCHECK
 70
     0
  9
$CHAMFERA
 40
0.0
  9
$CHAMFERB
 40
0.0
  9
$CHAMFERC
 40
0.0
  9
$CHAMFERD
 40
0.0
  9
$SKPOLY
 70
     0
  9
$TDCREATE
 40
2459296.583645914
  9
$TDUCREATE
 40
2459296.541979248
  9
$TDUPDATE
 40
2459296.583647165
  9
$TDUUPDATE
 40
2459296.541980498
  9
$TDINDWG
 40
0.0000000116
  9
$TDUSRTIMER
 40
0.0000000116
  9
$USRTIMER
 70
     1
  9
$ANGBASE
 50
0.0
  9
$ANGDIR
 70
     0
  9
$PDMODE
 70
     0
  9
$PDSIZE
 40
0.0
  9
$PLINEWID
 40
0.0
  9
$SPLFRAME
 70
     0
  9
$SPLINETYPE
 70
     6
  9
$SPLINESEGS
 70
     8
  9
$HANDSEED
  5
3D9
  9
$SURFTAB1
 70
     6
  9
$SURFTAB2
 70
     6
  9
$SURFTYPE
 70
     6
  9
$SURFU
 70
     6
  9
$SURFV
 70
     6
  9
$UCSBASE
  2

  9
$UCSNAME
  2

  9
$UCSORG
 10
0.0
 20
0.0
 30
0.0
  9
$UCSXDIR
 10
1.0
 20
0.0
 30
0.0
  9
$UCSYDIR
 10
0.0
 20
1.0
 30
0.0
  9
$UCSORTHOREF
  2

  9
$UCSORTHOVIEW
 70
     0
  9
$UCSORGTOP
 10
0.0
 20
0.0
 30
0.0
  9
$UCSORGBOTTOM
 10
0.0
 20
0.0
 30
0.0
  9
$UCSORGLEFT
 10
0.0
 20
0.0
 30
0.0
  9
$UCSORGRIGHT
 10
0.0
 20
0.0
 30
0.0
  9
$UCSORGFRONT
 10
0.0
 20
0.0
 30
0.0
  9
$UCSORGBACK
 10
0.0
 20
0.0
 30
0.0
  9
$PUCSBASE
  2

  9
$PUCSNAME
  2

  9
$PUCSORG
 10
0.0
 20
0.0
 30
0.0
  9
$PUCSXDIR
 10
1.0
 20
0.0
 30
0.0
  9
$PUCSYDIR
 10
0.0
 20
1.0
 30
0.0
  9
$PUCSORTHOREF
  2

  9
$PUCSORTHOVIEW
 70
     0
  9
$PUCSORGTOP
 10
0.0
 20
0.0
 30
0.0
  9
$PUCSORGBOTTOM
 10
0.0
 20
0.0
 30
0.0
  9
$PUCSORGLEFT
 10
0.0
 20
0.0
 30
0.0
  9
$PUCSORGRIGHT
 10
0.0
 20
0.0
 30
0.0
  9
$PUCSORGFRONT
 10
0.0
 20
0.0
 30
0.0
  9
$PUCSORGBACK
 10
0.0
 20
0.0
 30
0.0
  9
$USERI1
 70
     0
  9
$USERI2
 70
     0
  9
$USERI3
 70
     0
  9
$USERI4
 70
     0
  9
$USERI5
 70
     0
  9
$USERR1
 40
0.0
  9
$USERR2
 40
0.0
  9
$USERR3
 40
0.0
  9
$USERR4
 40
0.0
  9
$USERR5
 40
0.0
  9
$WORLDVIEW
 70
     1
  9
$SHADEDGE
 70
     3
  9
$SHADEDIF
 70
    70
  9
$TILEMODE
 70
     0
  9
$MAXACTVP
 70
    64
  9
$PINSBASE
 10
0.0
 20
0.0
 30
0.0
  9
$PLIMCHECK
 70
     0
  9
$PEXTMIN
 10
0.0
 20
0.0
 30
0.0
  9
$PEXTMAX
 10
419.9999999999999
 20
297.0000000000001
 30
0.0
  9
$PLIMMIN
 10
-20.0
 20
-7.5
  9
$PLIMMAX
 10
277.0
 20
202.5
  9
$UNITMODE
 70
     0
  9
$VISRETAIN
 70
     1
  9
$PLINEGEN
 70
     1
  9
$PSLTSCALE
 70
     1
  9
$TREEDEPTH
 70
  3020
  9
$CMLSTYLE
  2
Standard
  9
$CMLJUST
 70
     0
  9
$CMLSCALE
 40
20.0
  9
$PROXYGRAPHICS
 70
     1
  9
$MEASUREMENT
 70
     1
  9
$CELWEIGHT
370
    -1
  9
$ENDCAPS
280
     0
  9
$JOINSTYLE
280
     0
  9
$LWDISPLAY
290
     0
  9
$INSUNITS
 70
     4
  9
$HYPERLINKBASE
  1

  9
$STYLESHEET
  1

  9
$XEDIT
290
     1
  9
$CEPSNTYPE
380
     0
  9
$PSTYLEMODE
290
     0
  9
$FINGERPRINTGUID
  2
{0d140d45-3a9b-41df-a816-c014fee6252a}
  9
$VERSIONGUID
  2
{FAEB1C32-E019-11D5-929B-00C0DF256EC4}
  9
$EXTNAMES
290
     1
  9
$PSVPSCALE
 40
0.0
  9
$OLESTARTUP
290
     0
  0
ENDSEC
  0
SECTION
  2
CLASSES
  0
CLASS
  1
ACDBDICTIONARYWDFLT
  2
AcDbDictionaryWithDefault
  3
ObjectDBX Classes
 90
        0
280
     0
281
     0
  0
CLASS
  1
VISUALSTYLE
  2
AcDbVisualStyle
  3
ObjectDBX Classes
 90
     4095
280
     0
281
     0
  0
CLASS
  1
MATERIAL
  2
AcDbMaterial
  3
ObjectDBX Classes
 90
     1153
280
     0
281
     0
  0
CLASS
  1
SCALE
  2
AcDbScale
  3
ObjectDBX Classes
 90
     1153
280
     0
281
     0
  0
CLASS
  1
TABLESTYLE
  2
AcDbTableStyle
  3
ObjectDBX Classes
 90
     4095
280
     0
281
     0
  0
CLASS
  1
MLEADERSTYLE
  2
AcDbMLeaderStyle
  3
ACDB_MLEADERSTYLE_CLASS
 90
     4095
280
     0
281
     0
  0
CLASS
  1
SUN
  2
AcDbSun
  3
SCENEOE
 90
     1153
280
     0
281
     0
  0
CLASS
  1
DICTIONARYVAR
  2
AcDbDictionaryVar
  3
ObjectDBX Classes
 90
        0
280
     0
281
     0
  0
CLASS
  1
ACDBPLACEHOLDER
  2
AcDbPlaceHolder
  3
ObjectDBX Classes
 90
        0
280
     0
281
     0
  0
CLASS
  1
LAYOUT
  2
AcDbLayout
  3
ObjectDBX Classes
 90
        0
280
     0
281
     0
  0
ENDSEC
  0
SECTION
  2
TABLES
  0
TABLE
  2
VPORT
  5
8
102
{ACAD_XDICTIONARY
360
39A
102
}
330
0
100
AcDbSymbolTable
 70
     1
  0
VPORT
  5
29
330
8
100
AcDbSymbolTableRecord
100
AcDbViewportTableRecord
  2
*Active
 70
     0
 10
0.0
 20
0.0
 11
1.0
 21
1.0
 12
344.1869158878504
 22
148.5
 13
0.0
 23
0.0
 14
10.0
 24
10.0
 15
10.0
 25
10.0
 16
0.0
 26
0.0
 36
1.0
 17
0.0
 27
0.0
 37
0.0
 40
297.0
 41
1.972972972850329
 42
50.0
 43
0.0
 44
0.0
 50
0.0
 51
0.0
 71
     0
 72
   100
 73
     1
 74
     3
 75
     0
 76
     0
 77
     0
 78
     0
281
     0
 65
     1
110
0.0
120
0.0
130
0.0
111
1.0
121
0.0
131
0.0
112
0.0
122
1.0
132
0.0
 79
     0
146
0.0
  0
ENDTAB
  0
TABLE
  2
LTYPE
  5
5
330
0
100
AcDbSymbolTable
 70
     6
  0
LTYPE
  5
14
330
5
100
AcDbSymbolTableRecord
100
AcDbLinetypeTableRecord
  2
ByBlock
 70
     0
  3

 72
    65
 73
     0
 40
0.0
  0
LTYPE
  5
15
330
5
100
AcDbSymbolTableRecord
100
AcDbLinetypeTableRecord
  2
ByLayer
 70
     0
  3

 72
    65
 73
     0
 40
0.0
  0
LTYPE
  5
16
330
5
100
AcDbSymbolTableRecord
100
AcDbLinetypeTableRecord
  2
Continuous
 70
     0
  3
Solid line
 72
    65
 73
     0
 40
0.0
  0
LTYPE
  5
74
330
5
100
AcDbSymbolTableRecord
100
AcDbLinetypeTableRecord
  2
HIDDEN
 70
     0
  3
____  ____   ____  ____
 72
    65
 73
     2
 40
10.0
 49
6.667
 74
     0
 49
-3.333
 74
     0
  0
LTYPE
  5
75
330
5
100
AcDbSymbolTableRecord
100
AcDbLinetypeTableRecord
  2
HIDDEN2
 70
     0
  3
__ __ __ __
 72
    65
 73
     4
 40
10.0
 49
3.333
 74
     0
 49
-1.666
 74
     0
 49
3.333
 74
     0
 49
-1.666
 74
     0
  0
LTYPE
  5
76
330
5
100
AcDbSymbolTableRecord
100
AcDbLinetypeTableRecord
  2
CENTER
 70
     0
  3
_____ _ _____ _ _____ _
 72
    65
 73
     4
 40
10.0
 49
6.25
 74
     0
 49
-1.25
 74
     0
 49
1.25
 74
     0
 49
-1.25
 74
     0
  0
LTYPE
  5
77
330
5
100
AcDbSymbolTableRecord
100
AcDbLinetypeTableRecord
  2
PHANTOM
 70
     0
  3
____ _ _ _____ _ _
 72
    65
 73
     6
 40
10.0
 49
5.0
 74
     0
 49
-1.0
 74
     0
 49
1.0
 74
     0
 49
-1.0
 74
     0
 49
1.0
 74
     0
 49
-1.0
 74
     0
  0
LTYPE
  5
78
330
5
100
AcDbSymbolTableRecord
100
AcDbLinetypeTableRecord
  2
DIVIDE
 70
     0
  3
_ . _ . _ .
 72
    65
 73
     4
 40
10.0
 49
5.0
 74
     0
 49
-2.5
 74
     0
 49
0.0
 74
     0
 49
-2.5
 74
     0
  0
ENDTAB
  0
TABLE
  2
LAYER
  5
2
330
0
100
AcDbSymbolTable
 70
     4
  0
LAYER
  5
10
330
2
100
AcDbSymbolTableRecord
100
AcDbLayerTableRecord
  2
0
 70
     0
 62
     7
  6
Continuous
370
    -3
390
F
  0
LAYER
  5
6E
330
2
100
AcDbSymbolTableRecord
100
AcDbLayerTableRecord
  2
LAYER0
 70
     0
 62
     7
  6
Continuous
370
    -3
390
F
  0
LAYER
  5
6F
330
2
100
AcDbSymbolTableRecord
100
AcDbLayerTableRecord
  2
LAYER1
 70
     0
 62
     7
  6
Continuous
370
    -3
390
F
  0
LAYER
  5
70
330
2
100
AcDbSymbolTableRecord
100
AcDbLayerTableRecord
  2
RMF
 70
     0
 62
     7
  6
Continuous
370
    -3
390
F
  0
ENDTAB
  0
TABLE
  2
STYLE
  5
3
330
0
100
AcDbSymbolTable
 70
     4
  0
STYLE
  5
11
330
3
100
AcDbSymbolTableRecord
100
AcDbTextStyleTableRecord
  2
Standard
 70
     0
 40
0.0
 41
1.0
 50
0.0
 71
     0
 42
2.5
  3
txt
  4

  0
STYLE
  5
71
330
3
100
AcDbSymbolTableRecord
100
AcDbTextStyleTableRecord
  2
VERO0-courier new
 70
     0
 40
0.0
 41
1.0
 50
0.0
 71
     0
 42
2.5
  3

  4

1001
ACAD
1000
courier new
1071
      274
  0
STYLE
  5
72
330
3
100
AcDbSymbolTableRecord
100
AcDbTextStyleTableRecord
  2
VERO1-osifont
 70
     0
 40
0.0
 41
1.0
 50
0.0
 71
     0
 42
2.5
  3
osifont-2014-11-14.ttf
  4

1001
ACAD
1000
osifont
1071
      274
  0
STYLE
  5
73
330
3
100
AcDbSymbolTableRecord
100
AcDbTextStyleTableRecord
  2
VERO2-TXT
 70
     0
 40
0.0
 41
1.0
 50
0.0
 71
     0
 42
2.5
  3

  4

1001
ACAD
1000
TXT
1071
      274
  0
ENDTAB
  0
TABLE
  2
VIEW
  5
6
330
0
100
AcDbSymbolTable
 70
     0
  0
ENDTAB
  0
TABLE
  2
UCS
  5
7
330
0
100
AcDbSymbolTable
 70
     0
  0
ENDTAB
  0
TABLE
  2
APPID
  5
9
330
0
100
AcDbSymbolTable
 70
     2
  0
APPID
  5
12
330
9
100
AcDbSymbolTableRecord
100
AcDbRegAppTableRecord
  2
ACAD
 70
     0
  0
APPID
  5
3D4
330
9
100
AcDbSymbolTableRecord
100
AcDbRegAppTableRecord
  2
ACAD_MLEADERVER
 70
     0
  0
ENDTAB
  0
TABLE
  2
DIMSTYLE
  5
A
330
0
100
AcDbSymbolTable
 70
     2
100
AcDbDimStyleTable
  0
DIMSTYLE
105
27
330
A
100
AcDbSymbolTableRecord
100
AcDbDimStyleTableRecord
  2
ISO-25
 70
     0
 41
2.5
 42
0.625
 43
3.75
 44
1.25
 73
     0
 74
     0
 77
     1
 78
     8
140
2.5
141
2.5
143
0.03937007874016
147
0.625
171
     3
172
     1
178
     0
271
     2
272
     2
274
     3
278
    44
283
     0
284
     8
340
11
  0
DIMSTYLE
105
D2
102
{ACAD_REACTORS
330
F1
330
FB
330
105
330
10F
102
}
330
A
100
AcDbSymbolTableRecord
100
AcDbDimStyleTableRecord
  2
Vero Software
 70
     0
 41
2.83564090980885
 42
3.0
 43
3.75
 44
1.25
 73
     0
 74
     0
 77
     1
 78
     8
 79
     2
140
4.0
141
0.0
143
0.0393700787401575
146
0.8
147
1.5
171
     3
172
     1
173
     1
271
     2
178
     7
179
     3
271
     2
272
     3
274
     3
275
     1
284
     8
285
     8
286
     8
340
71
343
7F
344
7F
  0
ENDTAB
  0
TABLE
  2
BLOCK_RECORD
  5
1
330
0
100
AcDbSymbolTable
 70
    27
  0
BLOCK_RECORD
  5
1F
330
1
100
AcDbSymbolTableRecord
100
AcDbBlockTableRecord
  2
*Model_Space
340
22
  0
BLOCK_RECORD
  5
1B
330
1
100
AcDbSymbolTableRecord
100
AcDbBlockTableRecord
  2
*Paper_Space
340
1E
  0
BLOCK_RECORD
  5
23
330
1
100
AcDbSymbolTableRecord
100
AcDbBlockTableRecord
  2
*Paper_Space0
340
26
  0
BLOCK_RECORD
  5
79
330
1
100
AcDbSymbolTableRecord
100
AcDbBlockTableRecord
  2
ArrowheadOpen
340
0
  0
BLOCK_RECORD
  5
7F
330
1
100
AcDbSymbolTableRecord
100
AcDbBlockTableRecord
  2
ArrowheadClosed
340
0
102
{BLKREFS
331
F6
331
F7
331
100
331
101
331
10A
331
10B
331
114
331
115
102
}
  0
BLOCK_RECORD
  5
83
330
1
100
AcDbSymbolTableRecord
100
AcDbBlockTableRecord
  2
ArrowheadOpen2
340
0
  0
BLOCK_RECORD
  5
8B
330
1
100
AcDbSymbolTableRecord
100
AcDbBlockTableRecord
  2
ArrowheadClosed2
340
0
  0
BLOCK_RECORD
  5
90
330
1
100
AcDbSymbolTableRecord
100
AcDbBlockTableRecord
  2
ArrowheadBox
340
0
  0
BLOCK_RECORD
  5
94
330
1
100
AcDbSymbolTableRecord
100
AcDbBlockTableRecord
  2
ArrowheadCircle
340
0
  0
BLOCK_RECORD
  5
9A
330
1
100
AcDbSymbolTableRecord
100
AcDbBlockTableRecord
  2
ArrowheadArchitect
340
0
  0
BLOCK_RECORD
  5
9F
330
1
100
AcDbSymbolTableRecord
100
AcDbBlockTableRecord
  2
ArrowheadArchitect2
340
0
  0
BLOCK_RECORD
  5
A5
330
1
100
AcDbSymbolTableRecord
100
AcDbBlockTableRecord
  2
ArrowheadSection
340
0
  0
BLOCK_RECORD
  5
AD
330
1
100
AcDbSymbolTableRecord
100
AcDbBlockTableRecord
  2
ArrowheadTriangle
340
0
  0
BLOCK_RECORD
  5
B1
330
1
100
AcDbSymbolTableRecord
100
AcDbBlockTableRecord
  2
ArrowheadSectionOpen
340
0
  0
BLOCK_RECORD
  5
BC
330
1
100
AcDbSymbolTableRecord
100
AcDbBlockTableRecord
  2
ArrowheadSectionClosed
340
0
  0
BLOCK_RECORD
  5
C8
330
1
100
AcDbSymbolTableRecord
100
AcDbBlockTableRecord
  2
ArrowheadSectionFilled
340
0
  0
BLOCK_RECORD
  5
D3
330
1
100
AcDbSymbolTableRecord
100
AcDbBlockTableRecord
  2
BalloonBlockOneText
340
0
  0
BLOCK_RECORD
  5
D8
330
1
100
AcDbSymbolTableRecord
100
AcDbBlockTableRecord
  2
BalloonBlockTwoText
340
0
  0
BLOCK_RECORD
  5
DF
330
1
100
AcDbSymbolTableRecord
100
AcDbBlockTableRecord
  2
BalloonBlockThreeText
340
0
  0
BLOCK_RECORD
  5
E8
330
1
100
AcDbSymbolTableRecord
100
AcDbBlockTableRecord
  2
BalloonBlockRect
340
0
  0
BLOCK_RECORD
  5
F2
330
1
100
AcDbSymbolTableRecord
100
AcDbBlockTableRecord
  2
*D18
340
0
  0
BLOCK_RECORD
  5
FC
330
1
100
AcDbSymbolTableRecord
100
AcDbBlockTableRecord
  2
*D19
340
0
  0
BLOCK_RECORD
  5
106
330
1
100
AcDbSymbolTableRecord
100
AcDbBlockTableRecord
  2
*D20
340
0
  0
BLOCK_RECORD
  5
110
330
1
100
AcDbSymbolTableRecord
100
AcDbBlockTableRecord
  2
*D21
340
0
  0
BLOCK_RECORD
  5
119
330
1
100
AcDbSymbolTableRecord
100
AcDbBlockTableRecord
  2
Entity set 0
340
0
102
{BLKREFS
331
158
102
}
  0
BLOCK_RECORD
  5
159
330
1
100
AcDbSymbolTableRecord
100
AcDbBlockTableRecord
  2
Entity set 1
340
0
102
{BLKREFS
331
29C
102
}
  0
BLOCK_RECORD
  5
29D
330
1
100
AcDbSymbolTableRecord
100
AcDbBlockTableRecord
  2
View  0
340
0
102
{BLKREFS
331
2F3
102
}
  0
BLOCK_RECORD
  5
2F4
330
1
100
AcDbSymbolTableRecord
100
AcDbBlockTableRecord
  2
View  1
340
0
102
{BLKREFS
331
36A
102
}
  0
BLOCK_RECORD
  5
36B
330
1
100
AcDbSymbolTableRecord
100
AcDbBlockTableRecord
  2
View  2
340
0
102
{BLKREFS
331
389
102
}
  0
ENDTAB
  0
ENDSEC
  0
SECTION
  2
BLOCKS
  0
BLOCK
  5
20
330
1F
100
AcDbEntity
  8
0
100
AcDbBlockBegin
  2
*Model_Space
 70
     0
 10
0.0
 20
0.0
 30
0.0
  3
*Model_Space
  1

  0
ENDBLK
  5
21
330
1F
100
AcDbEntity
  8
0
100
AcDbBlockEnd
  0
BLOCK
  5
1C
330
1B
100
AcDbEntity
 67
     1
  8
0
100
AcDbBlockBegin
  2
*Paper_Space
 70
     0
 10
0.0
 20
0.0
 30
0.0
  3
*Paper_Space
  1

  0
ENDBLK
  5
1D
330
1B
100
AcDbEntity
 67
     1
  8
0
100
AcDbBlockEnd
  0
BLOCK
  5
24
330
23
100
AcDbEntity
  8
0
100
AcDbBlockBegin
  2
*Paper_Space0
 70
     0
 10
0.0
 20
0.0
 30
0.0
  3
*Paper_Space0
  1

  0
ENDBLK
  5
25
330
23
100
AcDbEntity
  8
0
100
AcDbBlockEnd
  0
BLOCK
  5
7A
330
79
100
AcDbEntity
  8
0
100
AcDbBlockBegin
  2
ArrowheadOpen
 70
     0
 10
0.0
 20
0.0
 30
0.0
  3
ArrowheadOpen
  1

  0
LINE
  5
7C
330
79
100
AcDbEntity
  8
0
 62
     0
100
AcDbLine
 10
0.0
 20
0.0
 30
0.0
 11
-1.0
 21
0.176326980708465
 31
0.0
  0
LINE
  5
7D
330
79
100
AcDbEntity
  8
0
 62
     0
100
AcDbLine
 10
0.0
 20
0.0
 30
0.0
 11
-1.0
 21
-0.176326980708465
 31
0.0
  0
LINE
  5
7E
330
79
100
AcDbEntity
  8
0
 62
     0
100
AcDbLine
 10
0.0
 20
0.0
 30
0.0
 11
-1.0
 21
0.0
 31
0.0
  0
ENDBLK
  5
7B
330
79
100
AcDbEntity
  8
0
100
AcDbBlockEnd
  0
BLOCK
  5
80
330
7F
100
AcDbEntity
  8
0
100
AcDbBlockBegin
  2
ArrowheadClosed
 70
     0
 10
0.0
 20
0.0
 30
0.0
  3
ArrowheadClosed
  1

  0
SOLID
  5
82
330
7F
100
AcDbEntity
  8
0
 62
     0
100
AcDbTrace
 10
0.0
 20
0.0
 30
0.0
 11
-1.0
 21
0.176326980708465
 31
0.0
 12
-1.0
 22
-0.176326980708465
 32
0.0
 13
-1.0
 23
-0.176326980708465
 33
0.0
  0
ENDBLK
  5
81
330
7F
100
AcDbEntity
  8
0
100
AcDbBlockEnd
  0
BLOCK
  5
84
330
83
100
AcDbEntity
  8
0
100
AcDbBlockBegin
  2
ArrowheadOpen2
 70
     0
 10
0.0
 20
0.0
 30
0.0
  3
ArrowheadOpen2
  1

  0
LINE
  5
86
330
83
100
AcDbEntity
  8
0
 62
     0
100
AcDbLine
 10
0.0
 20
0.0
 30
0.0
 11
-0.5
 21
0.0881634903542325
 31
0.0
  0
LINE
  5
87
330
83
100
AcDbEntity
  8
0
 62
     0
100
AcDbLine
 10
0.0
 20
0.0
 30
0.0
 11
-0.5
 21
-0.0881634903542325
 31
0.0
  0
LINE
  5
88
330
83
100
AcDbEntity
  8
0
 62
     0
100
AcDbLine
 10
-0.5
 20
0.0
 30
0.0
 11
-1.0
 21
0.0881634903542325
 31
0.0
  0
LINE
  5
89
330
83
100
AcDbEntity
  8
0
 62
     0
100
AcDbLine
 10
-0.5
 20
0.0
 30
0.0
 11
-1.0
 21
-0.0881634903542325
 31
0.0
  0
LINE
  5
8A
330
83
100
AcDbEntity
  8
0
 62
     0
100
AcDbLine
 10
0.0
 20
0.0
 30
0.0
 11
-1.0
 21
0.0
 31
0.0
  0
ENDBLK
  5
85
330
83
100
AcDbEntity
  8
0
100
AcDbBlockEnd
  0
BLOCK
  5
8C
330
8B
100
AcDbEntity
  8
0
100
AcDbBlockBegin
  2
ArrowheadClosed2
 70
     0
 10
0.0
 20
0.0
 30
0.0
  3
ArrowheadClosed2
  1

  0
SOLID
  5
8E
330
8B
100
AcDbEntity
  8
0
 62
     0
100
AcDbTrace
 10
0.0
 20
0.0
 30
0.0
 11
-0.5
 21
0.0881634903542325
 31
0.0
 12
-0.5
 22
-0.0881634903542325
 32
0.0
 13
-0.5
 23
-0.0881634903542325
 33
0.0
  0
SOLID
  5
8F
330
8B
100
AcDbEntity
  8
0
 62
     0
100
AcDbTrace
 10
-0.5
 20
0.0
 30
0.0
 11
-1.0
 21
0.0881634903542325
 31
0.0
 12
-1.0
 22
-0.0881634903542325
 32
0.0
 13
-1.0
 23
-0.0881634903542325
 33
0.0
  0
ENDBLK
  5
8D
330
8B
100
AcDbEntity
  8
0
100
AcDbBlockEnd
  0
BLOCK
  5
91
330
90
100
AcDbEntity
  8
0
100
AcDbBlockBegin
  2
ArrowheadBox
 70
     0
 10
0.0
 20
0.0
 30
0.0
  3
ArrowheadBox
  1

  0
SOLID
  5
93
330
90
100
AcDbEntity
  8
0
 62
     0
100
AcDbTrace
 10
-0.5
 20
-0.5
 30
0.0
 11
0.5
 21
-0.5
 31
0.0
 12
-0.5
 22
0.5
 32
0.0
 13
0.5
 23
0.5
 33
0.0
  0
ENDBLK
  5
92
330
90
100
AcDbEntity
  8
0
100
AcDbBlockEnd
  0
BLOCK
  5
95
330
94
100
AcDbEntity
  8
0
100
AcDbBlockBegin
  2
ArrowheadCircle
 70
     0
 10
0.0
 20
0.0
 30
0.0
  3
ArrowheadCircle
  1

  0
LINE
  5
97
330
94
100
AcDbEntity
  8
0
 62
     0
100
AcDbLine
 10
-0.5
 20
0.0
 30
0.0
 11
-1.0
 21
0.0
 31
0.0
  0
CIRCLE
  5
98
330
94
100
AcDbEntity
  8
0
 62
     0
100
AcDbCircle
 10
0.0
 20
0.0
 30
0.0
 40
0.5
  0
HATCH
  5
99
330
94
100
AcDbEntity
  8
0
 62
     0
100
AcDbHatch
 10
0.0
 20
0.0
 30
0.0
210
0.0
220
0.0
230
1.0
  2
SOLID
 70
     1
 71
     0
 91
        1
 92
       17
 93
        1
 72
     2
 10
0.0
 20
0.0
 40
0.5
 50
0.0
 51
360.0
 73
     1
 97
        0
 75
     0
 76
     1
 98
        0
  0
ENDBLK
  5
96
330
94
100
AcDbEntity
  8
0
100
AcDbBlockEnd
  0
BLOCK
  5
9B
330
9A
100
AcDbEntity
  8
0
100
AcDbBlockBegin
  2
ArrowheadArchitect
 70
     0
 10
0.0
 20
0.0
 30
0.0
  3
ArrowheadArchitect
  1

  0
LINE
  5
9D
330
9A
100
AcDbEntity
  8
0
 62
     0
100
AcDbLine
 10
-0.5
 20
0.5
 30
0.0
 11
0.5
 21
-0.5
 31
0.0
  0
LINE
  5
9E
330
9A
100
AcDbEntity
  8
0
 62
     0
100
AcDbLine
 10
0.0
 20
0.0
 30
0.0
 11
-1.0
 21
0.0
 31
0.0
  0
ENDBLK
  5
9C
330
9A
100
AcDbEntity
  8
0
100
AcDbBlockEnd
  0
BLOCK
  5
A0
330
9F
100
AcDbEntity
  8
0
100
AcDbBlockBegin
  2
ArrowheadArchitect2
 70
     0
 10
0.0
 20
0.0
 30
0.0
  3
ArrowheadArchitect2
  1

  0
LINE
  5
A2
330
9F
100
AcDbEntity
  8
0
 62
     0
100
AcDbLine
 10
-0.5
 20
0.5
 30
0.0
 11
0.5
 21
-0.5
 31
0.0
  0
LINE
  5
A3
330
9F
100
AcDbEntity
  8
0
 62
     0
100
AcDbLine
 10
0.5
 20
0.5
 30
0.0
 11
-0.5
 21
-0.5
 31
0.0
  0
LINE
  5
A4
330
9F
100
AcDbEntity
  8
0
 62
     0
100
AcDbLine
 10
0.0
 20
0.0
 30
0.0
 11
-1.0
 21
0.0
 31
0.0
  0
ENDBLK
  5
A1
330
9F
100
AcDbEntity
  8
0
100
AcDbBlockEnd
  0
BLOCK
  5
A6
330
A5
100
AcDbEntity
  8
0
100
AcDbBlockBegin
  2
ArrowheadSection
 70
     0
 10
0.0
 20
0.0
 30
0.0
  3
ArrowheadSection
  1

  0
LINE
  5
A8
330
A5
100
AcDbEntity
  8
0
 62
     0
100
AcDbLine
 10
0.0
 20
0.0
 30
0.0
 11
-1.0
 21
0.0
 31
0.0
  0
LINE
  5
A9
330
A5
100
AcDbEntity
  8
0
 62
     0
100
AcDbLine
 10
0.0
 20
0.5
 30
0.0
 11
-1.0
 21
0.5
 31
0.0
  0
LINE
  5
AA
330
A5
100
AcDbEntity
  8
0
 62
     0
100
AcDbLine
 10
0.0
 20
1.0
 30
0.0
 11
-1.0
 21
1.0
 31
0.0
  0
LINE
  5
AB
330
A5
100
AcDbEntity
  8
0
 62
     0
100
AcDbLine
 10
0.0
 20
-0.5
 30
0.0
 11
-1.0
 21
-0.5
 31
0.0
  0
LINE
  5
AC
330
A5
100
AcDbEntity
  8
0
 62
     0
100
AcDbLine
 10
0.0
 20
-1.0
 30
0.0
 11
-1.0
 21
-1.0
 31
0.0
  0
ENDBLK
  5
A7
330
A5
100
AcDbEntity
  8
0
100
AcDbBlockEnd
  0
BLOCK
  5
AE
330
AD
100
AcDbEntity
  8
0
100
AcDbBlockBegin
  2
ArrowheadTriangle
 70
     0
 10
0.0
 20
0.0
 30
0.0
  3
ArrowheadTriangle
  1

  0
SOLID
  5
B0
330
AD
100
AcDbEntity
  8
0
 62
     0
100
AcDbTrace
 10
0.0
 20
0.5
 30
0.0
 11
0.0
 21
-0.5
 31
0.0
 12
-1.0
 22
0.0
 32
0.0
 13
-1.0
 23
0.0
 33
0.0
  0
ENDBLK
  5
AF
330
AD
100
AcDbEntity
  8
0
100
AcDbBlockEnd
  0
BLOCK
  5
B2
330
B1
100
AcDbEntity
  8
0
100
AcDbBlockBegin
  2
ArrowheadSectionOpen
 70
     0
 10
0.0
 20
0.0
 30
0.0
  3
ArrowheadSectionOpen
  1

  0
LINE
  5
B4
330
B1
100
AcDbEntity
  8
0
 62
     0
100
AcDbLine
 10
0.0
 20
0.0
 30
0.0
 11
-1.0
 21
0.0
 31
0.0
  0
LINE
  5
B5
330
B1
100
AcDbEntity
  8
0
 62
     0
100
AcDbLine
 10
0.0
 20
0.0098039215686275
 30
0.0
 11
-1.0
 21
0.0098039215686275
 31
0.0
  0
LINE
  5
B6
330
B1
100
AcDbEntity
  8
0
 62
     0
100
AcDbLine
 10
0.0
 20
0.0196078431372549
 30
0.0
 11
-1.0
 21
0.0196078431372549
 31
0.0
  0
LINE
  5
B7
330
B1
100
AcDbEntity
  8
0
 62
     0
100
AcDbLine
 10
0.0
 20
-0.0098039215686275
 30
0.0
 11
-1.0
 21
-0.0098039215686275
 31
0.0
  0
LINE
  5
B8
330
B1
100
AcDbEntity
  8
0
 62
     0
100
AcDbLine
 10
0.0
 20
-0.0196078431372549
 30
0.0
 11
-1.0
 21
-0.0196078431372549
 31
0.0
  0
LINE
  5
B9
330
B1
100
AcDbEntity
  8
0
 62
     0
100
AcDbLine
 10
-0.5
 20
-0.0196078431372549
 30
0.0
 11
-0.5
 21
-1.0
 31
0.0
  0
LINE
  5
BA
330
B1
100
AcDbEntity
  8
0
 62
     0
100
AcDbLine
 10
-0.5
 20
-0.0196078431372549
 30
0.0
 11
-0.7000000000000001
 21
-0.297611853902829
 31
0.0
  0
LINE
  5
BB
330
B1
100
AcDbEntity
  8
0
 62
     0
100
AcDbLine
 10
-0.5
 20
-0.0196078431372549
 30
0.0
 11
-0.2999999999999999
 21
-0.297611853902829
 31
0.0
  0
ENDBLK
  5
B3
330
B1
100
AcDbEntity
  8
0
100
AcDbBlockEnd
  0
BLOCK
  5
BD
330
BC
100
AcDbEntity
  8
0
100
AcDbBlockBegin
  2
ArrowheadSectionClosed
 70
     0
 10
0.0
 20
0.0
 30
0.0
  3
ArrowheadSectionClosed
  1

  0
LINE
  5
BF
330
BC
100
AcDbEntity
  8
0
 62
     0
100
AcDbLine
 10
0.0
 20
0.0
 30
0.0
 11
-1.0
 21
0.0
 31
0.0
  0
LINE
  5
C0
330
BC
100
AcDbEntity
  8
0
 62
     0
100
AcDbLine
 10
0.0
 20
0.0098039215686275
 30
0.0
 11
-1.0
 21
0.0098039215686275
 31
0.0
  0
LINE
  5
C1
330
BC
100
AcDbEntity
  8
0
 62
     0
100
AcDbLine
 10
0.0
 20
0.0196078431372549
 30
0.0
 11
-1.0
 21
0.0196078431372549
 31
0.0
  0
LINE
  5
C2
330
BC
100
AcDbEntity
  8
0
 62
     0
100
AcDbLine
 10
0.0
 20
-0.0098039215686275
 30
0.0
 11
-1.0
 21
-0.0098039215686275
 31
0.0
  0
LINE
  5
C3
330
BC
100
AcDbEntity
  8
0
 62
     0
100
AcDbLine
 10
0.0
 20
-0.0196078431372549
 30
0.0
 11
-1.0
 21
-0.0196078431372549
 31
0.0
  0
LINE
  5
C4
330
BC
100
AcDbEntity
  8
0
 62
     0
100
AcDbLine
 10
-0.5
 20
-0.297611853902829
 30
0.0
 11
-0.5
 21
-1.0
 31
0.0
  0
LINE
  5
C5
330
BC
100
AcDbEntity
  8
0
 62
     0
100
AcDbLine
 10
-0.5
 20
-0.0196078431372549
 30
0.0
 11
-0.7000000000000001
 21
-0.297611853902829
 31
0.0
  0
LINE
  5
C6
330
BC
100
AcDbEntity
  8
0
 62
     0
100
AcDbLine
 10
-0.5
 20
-0.0196078431372549
 30
0.0
 11
-0.2999999999999999
 21
-0.297611853902829
 31
0.0
  0
LINE
  5
C7
330
BC
100
AcDbEntity
  8
0
 62
     0
100
AcDbLine
 10
-0.7000000000000001
 20
-0.297611853902829
 30
0.0
 11
-0.2999999999999999
 21
-0.297611853902829
 31
0.0
  0
ENDBLK
  5
BE
330
BC
100
AcDbEntity
  8
0
100
AcDbBlockEnd
  0
BLOCK
  5
C9
330
C8
100
AcDbEntity
  8
0
100
AcDbBlockBegin
  2
ArrowheadSectionFilled
 70
     0
 10
0.0
 20
0.0
 30
0.0
  3
ArrowheadSectionFilled
  1

  0
SOLID
  5
CB
330
C8
100
AcDbEntity
  8
0
 62
     0
100
AcDbTrace
 10
-0.5
 20
-0.0196078431372549
 30
0.0
 11
-0.7000000000000001
 21
-0.297611853902829
 31
0.0
 12
-0.2999999999999999
 22
-0.297611853902829
 32
0.0
 13
-0.2999999999999999
 23
-0.297611853902829
 33
0.0
  0
LINE
  5
CC
330
C8
100
AcDbEntity
  8
0
 62
     0
100
AcDbLine
 10
0.0
 20
0.0
 30
0.0
 11
-1.0
 21
0.0
 31
0.0
  0
LINE
  5
CD
330
C8
100
AcDbEntity
  8
0
 62
     0
100
AcDbLine
 10
0.0
 20
0.0098039215686275
 30
0.0
 11
-1.0
 21
0.0098039215686275
 31
0.0
  0
LINE
  5
CE
330
C8
100
AcDbEntity
  8
0
 62
     0
100
AcDbLine
 10
0.0
 20
0.0196078431372549
 30
0.0
 11
-1.0
 21
0.0196078431372549
 31
0.0
  0
LINE
  5
CF
330
C8
100
AcDbEntity
  8
0
 62
     0
100
AcDbLine
 10
0.0
 20
-0.0098039215686275
 30
0.0
 11
-1.0
 21
-0.0098039215686275
 31
0.0
  0
LINE
  5
D0
330
C8
100
AcDbEntity
  8
0
 62
     0
100
AcDbLine
 10
0.0
 20
-0.0196078431372549
 30
0.0
 11
-1.0
 21
-0.0196078431372549
 31
0.0
  0
LINE
  5
D1
330
C8
100
AcDbEntity
  8
0
 62
     0
100
AcDbLine
 10
-0.5
 20
-0.297611853902829
 30
0.0
 11
-0.5
 21
-1.0
 31
0.0
  0
ENDBLK
  5
CA
330
C8
100
AcDbEntity
  8
0
100
AcDbBlockEnd
  0
BLOCK
  5
D4
330
D3
100
AcDbEntity
  8
0
100
AcDbBlockBegin
  2
BalloonBlockOneText
 70
     2
 10
0.0
 20
0.0
 30
0.0
  3
BalloonBlockOneText
  1

  0
CIRCLE
  5
D6
330
D3
100
AcDbEntity
  8
0
 62
     0
100
AcDbCircle
 10
0.0
 20
0.0
 30
0.0
 40
6.0
  0
ATTDEF
  5
D7
330
D3
100
AcDbEntity
  8
0
 62
     7
100
AcDbText
 10
0.0
 20
-2.0
 30
0.0
 40
4.0
  1

  7
VERO0-courier new
 72
     1
 11
0.0
 21
0.0
 31
0.0
100
AcDbAttributeDefinition
  3
Enter Attr: 
  2
Balloon_One
 70
     0
 74
     2
  0
ENDBLK
  5
D5
330
D3
100
AcDbEntity
  8
0
100
AcDbBlockEnd
  0
BLOCK
  5
D9
330
D8
100
AcDbEntity
  8
0
100
AcDbBlockBegin
  2
BalloonBlockTwoText
 70
     2
 10
0.0
 20
0.0
 30
0.0
  3
BalloonBlockTwoText
  1

  0
CIRCLE
  5
DB
330
D8
100
AcDbEntity
  8
0
 62
     0
100
AcDbCircle
 10
0.0
 20
0.0
 30
0.0
 40
6.0
  0
LINE
  5
DC
330
D8
100
AcDbEntity
  8
0
 62
     0
100
AcDbLine
 10
-6.0
 20
0.0
 30
0.0
 11
6.0
 21
0.0
 31
0.0
  0
ATTDEF
  5
DD
330
D8
100
AcDbEntity
  8
0
 62
     7
100
AcDbText
 10
0.0
 20
1.666666666666667
 30
0.0
 40
2.666666666666667
  1

  7
VERO0-courier new
 72
     1
 11
0.0
 21
3.0
 31
0.0
100
AcDbAttributeDefinition
  3
Enter Attr: 
  2
Balloon_Two
 70
     0
 74
     2
  0
ATTDEF
  5
DE
330
D8
100
AcDbEntity
  8
0
 62
     7
100
AcDbText
 10
-1.4
 20
-4.333333333333333
 30
0.0
 40
2.666666666666667
  1
2
  7
VERO0-courier new
 72
     1
 11
0.0
 21
-3.0
 31
0.0
100
AcDbAttributeDefinition
  3
Enter Attr: 
  2
Balloon_Two1
 70
     0
 74
     2
  0
ENDBLK
  5
DA
330
D8
100
AcDbEntity
  8
0
100
AcDbBlockEnd
  0
BLOCK
  5
E0
330
DF
100
AcDbEntity
  8
0
100
AcDbBlockBegin
  2
BalloonBlockThreeText
 70
     2
 10
0.0
 20
0.0
 30
0.0
  3
BalloonBlockThreeText
  1

  0
CIRCLE
  5
E2
330
DF
100
AcDbEntity
  8
0
 62
     0
100
AcDbCircle
 10
0.0
 20
0.0
 30
0.0
 40
6.0
  0
LINE
  5
E3
330
DF
100
AcDbEntity
  8
0
 62
     0
100
AcDbLine
 10
-6.0
 20
0.0
 30
0.0
 11
6.0
 21
0.0
 31
0.0
  0
LINE
  5
E4
330
DF
100
AcDbEntity
  8
0
 62
     0
100
AcDbLine
 10
0.0
 20
0.0
 30
0.0
 11
0.0
 21
-6.0
 31
0.0
  0
ATTDEF
  5
E5
330
DF
100
AcDbEntity
  8
0
 62
     7
100
AcDbText
 10
0.0
 20
2.090909090909091
 30
0.0
 40
1.818181818181818
  1

  7
VERO0-courier new
 72
     1
 11
0.0
 21
3.0
 31
0.0
100
AcDbAttributeDefinition
  3
Enter Attr: 
  2
Balloon_Three
 70
     0
 74
     2
  0
ATTDEF
  5
E6
330
DF
100
AcDbEntity
  8
0
 62
     7
100
AcDbText
 10
-3.954545454545455
 20
-2.909090909090909
 30
0.0
 40
1.818181818181818
  1
2
  7
VERO0-courier new
 72
     1
 11
-3.0
 21
-2.0
 31
0.0
100
AcDbAttributeDefinition
  3
Enter Attr: 
  2
Balloon_Three1
 70
     0
 74
     2
  0
ATTDEF
  5
E7
330
DF
100
AcDbEntity
  8
0
 62
     7
100
AcDbText
 10
3.0
 20
-2.909090909090909
 30
0.0
 40
1.818181818181818
  1

  7
VERO0-courier new
 72
     1
 11
3.0
 21
-2.0
 31
0.0
100
AcDbAttributeDefinition
  3
Enter Attr: 
  2
Balloon_Three2
 70
     0
 74
     2
  0
ENDBLK
  5
E1
330
DF
100
AcDbEntity
  8
0
100
AcDbBlockEnd
  0
BLOCK
  5
E9
330
E8
100
AcDbEntity
  8
0
100
AcDbBlockBegin
  2
BalloonBlockRect
 70
     2
 10
0.0
 20
0.0
 30
0.0
  3
BalloonBlockRect
  1

  0
LINE
  5
EB
330
E8
100
AcDbEntity
  8
0
 62
     0
100
AcDbLine
 10
-12.0
 20
-6.0
 30
0.0
 11
12.0
 21
-6.0
 31
0.0
  0
LINE
  5
EC
330
E8
100
AcDbEntity
  8
0
 62
     0
100
AcDbLine
 10
12.0
 20
-6.0
 30
0.0
 11
12.0
 21
6.0
 31
0.0
  0
LINE
  5
ED
330
E8
100
AcDbEntity
  8
0
 62
     0
100
AcDbLine
 10
12.0
 20
6.0
 30
0.0
 11
-12.0
 21
6.0
 31
0.0
  0
LINE
  5
EE
330
E8
100
AcDbEntity
  8
0
 62
     0
100
AcDbLine
 10
-12.0
 20
6.0
 30
0.0
 11
-12.0
 21
-6.0
 31
0.0
  0
ATTDEF
  5
EF
330
E8
100
AcDbEntity
  8
0
 62
     7
100
AcDbText
 10
0.0
 20
-2.0
 30
0.0
 40
4.0
  1

  7
VERO0-courier new
 72
     1
 11
0.0
 21
0.0
 31
0.0
100
AcDbAttributeDefinition
  3
Enter Attr: 
  2
Balloon_Rect
 70
     0
 74
     2
  0
ENDBLK
  5
EA
330
E8
100
AcDbEntity
  8
0
100
AcDbBlockEnd
  0
BLOCK
  5
F3
330
F2
100
AcDbEntity
  8
0
100
AcDbBlockBegin
  2
*D18
 70
     1
 10
0.0
 20
0.0
 30
0.0
  3
*D18
  1

  0
LINE
  5
F5
330
F2
100
AcDbEntity
  8
RMF
  6
Continuous
 62
    56
100
AcDbLine
 10
72.76386650645755
 20
120.5867239593222
 30
0.0
 11
72.76386650645755
 21
156.5867239593223
 31
0.0
  0
INSERT
  5
F6
330
F2
100
AcDbEntity
  8
RMF
  6
Continuous
 62
    56
100
AcDbBlockReference
  2
ArrowheadClosed
 10
-72.76386650645756
 20
120.5867239593222
 30
0.0
 41
2.83564090980885
 42
2.83564090980885
 43
2.83564090980885
 50
270.0
210
0.0
220
0.0
230
-1.0
  0
INSERT
  5
F7
330
F2
100
AcDbEntity
  8
RMF
  6
Continuous
 62
    56
100
AcDbBlockReference
  2
ArrowheadClosed
 10
72.76386650645756
 20
156.5867239593223
 30
0.0
 41
2.83564090980885
 42
2.83564090980885
 43
2.83564090980885
 50
90.0
  0
LINE
  5
F8
330
F2
100
AcDbEntity
  8
RMF
  6
Continuous
 62
    56
100
AcDbLine
 10
86.40639612787413
 20
120.5867239593222
 30
0.0
 11
69.76386650645755
 21
120.5867239593222
 31
0.0
  0
LINE
  5
F9
330
F2
100
AcDbEntity
  8
RMF
  6
Continuous
 62
    56
100
AcDbLine
 10
86.40639612787413
 20
156.5867239593223
 30
0.0
 11
69.76386650645755
 21
156.5867239593223
 31
0.0
  0
TEXT
  5
FA
330
F2
100
AcDbEntity
  8
RMF
  6
Continuous
 62
     7
100
AcDbText
 10
71.26386650645755
 20
134.6733037140962
 30
0.0
 40
4.0
  1
36
 50
90.0
 41
0.9317667250538112
  7
VERO0-courier new
 72
     5
 11
71.26386650645755
 21
142.5001442045482
 31
0.0
100
AcDbText
  0
ENDBLK
  5
F4
330
F2
100
AcDbEntity
  8
0
100
AcDbBlockEnd
  0
BLOCK
  5
FD
330
FC
100
AcDbEntity
  8
0
100
AcDbBlockBegin
  2
*D19
 70
     1
 10
0.0
 20
0.0
 30
0.0
  3
*D19
  1

  0
LINE
  5
FF
330
FC
100
AcDbEntity
  8
RMF
  6
Continuous
 62
    56
100
AcDbLine
 10
86.40639612787413
 20
168.0421185484149
 30
0.0
 11
176.4063961278741
 21
168.0421185484149
 31
0.0
  0
INSERT
  5
100
330
FC
100
AcDbEntity
  8
RMF
  6
Continuous
 62
    56
100
AcDbBlockReference
  2
ArrowheadClosed
 10
-86.40639612787413
 20
168.0421185484149
 30
0.0
 41
2.83564090980885
 42
2.83564090980885
 43
2.83564090980885
210
0.0
220
0.0
230
-1.0
  0
INSERT
  5
101
330
FC
100
AcDbEntity
  8
RMF
  6
Continuous
 62
    56
100
AcDbBlockReference
  2
ArrowheadClosed
 10
176.4063961278741
 20
168.0421185484149
 30
0.0
 41
2.83564090980885
 42
2.83564090980885
 43
2.83564090980885
  0
LINE
  5
102
330
FC
100
AcDbEntity
  8
RMF
  6
Continuous
 62
    56
100
AcDbLine
 10
86.40639612787413
 20
156.5867239593223
 30
0.0
 11
86.40639612787413
 21
171.0421185484149
 31
0.0
  0
LINE
  5
103
330
FC
100
AcDbEntity
  8
RMF
  6
Continuous
 62
    56
100
AcDbLine
 10
176.4063961278741
 20
156.5867239593223
 30
0.0
 11
176.4063961278741
 21
171.0421185484149
 31
0.0
  0
TEXT
  5
104
330
FC
100
AcDbEntity
  8
RMF
  6
Continuous
 62
     7
100
AcDbText
 10
127.4929758826481
 20
169.5421185484149
 30
0.0
 40
4.0
  1
90
 41
0.9317667250538112
  7
VERO0-courier new
 72
     5
 11
135.3198163731001
 21
169.5421185484149
 31
0.0
100
AcDbText
  0
ENDBLK
  5
FE
330
FC
100
AcDbEntity
  8
0
100
AcDbBlockEnd
  0
BLOCK
  5
107
330
106
100
AcDbEntity
  8
0
100
AcDbBlockBegin
  2
*D20
 70
     1
 10
0.0
 20
0.0
 30
0.0
  3
*D20
  1

  0
LINE
  5
109
330
106
100
AcDbEntity
  8
RMF
  6
Continuous
 62
    56
100
AcDbLine
 10
73.42234246700758
 20
195.7649639352552
 30
0.0
 11
73.42234246700758
 21
253.7649639352552
 31
0.0
  0
INSERT
  5
10A
330
106
100
AcDbEntity
  8
RMF
  6
Continuous
 62
    56
100
AcDbBlockReference
  2
ArrowheadClosed
 10
-73.42234246700758
 20
195.7649639352552
 30
0.0
 41
2.83564090980885
 42
2.83564090980885
 43
2.83564090980885
 50
270.0
210
0.0
220
0.0
230
-1.0
  0
INSERT
  5
10B
330
106
100
AcDbEntity
  8
RMF
  6
Continuous
 62
    56
100
AcDbBlockReference
  2
ArrowheadClosed
 10
73.42234246700758
 20
253.7649639352552
 30
0.0
 41
2.83564090980885
 42
2.83564090980885
 43
2.83564090980885
 50
90.0
  0
LINE
  5
10C
330
106
100
AcDbEntity
  8
RMF
  6
Continuous
 62
    56
100
AcDbLine
 10
86.40639612787413
 20
195.7649639352552
 30
0.0
 11
70.42234246700758
 21
195.7649639352552
 31
0.0
  0
LINE
  5
10D
330
106
100
AcDbEntity
  8
RMF
  6
Continuous
 62
    56
100
AcDbLine
 10
108.7563961278741
 20
253.7649639352552
 30
0.0
 11
70.42234246700758
 21
253.7649639352552
 31
0.0
  0
TEXT
  5
10E
330
106
100
AcDbEntity
  8
RMF
  6
Continuous
 62
     7
100
AcDbText
 10
71.92234246700758
 20
220.8515436900292
 30
0.0
 40
4.0
  1
58
 50
90.0
 41
0.9317667250538112
  7
VERO0-courier new
 72
     5
 11
71.92234246700758
 21
228.6783841804812
 31
0.0
100
AcDbText
  0
ENDBLK
  5
108
330
106
100
AcDbEntity
  8
0
100
AcDbBlockEnd
  0
BLOCK
  5
111
330
110
100
AcDbEntity
  8
0
100
AcDbBlockBegin
  2
*D21
 70
     1
 10
0.0
 20
0.0
 30
0.0
  3
*D21
  1

  0
LINE
  5
113
330
110
100
AcDbEntity
  8
RMF
  6
Continuous
 62
    56
100
AcDbLine
 10
86.40639612787413
 20
108.8542606713309
 30
0.0
 11
180.2063961278741
 21
108.8542606713309
 31
0.0
  0
INSERT
  5
114
330
110
100
AcDbEntity
  8
RMF
  6
Continuous
 62
    56
100
AcDbBlockReference
  2
ArrowheadClosed
 10
-86.40639612787413
 20
108.854260671331
 30
0.0
 41
2.83564090980885
 42
2.83564090980885
 43
2.83564090980885
210
0.0
220
0.0
230
-1.0
  0
INSERT
  5
115
330
110
100
AcDbEntity
  8
RMF
  6
Continuous
 62
    56
100
AcDbBlockReference
  2
ArrowheadClosed
 10
180.2063961278741
 20
108.854260671331
 30
0.0
 41
2.83564090980885
 42
2.83564090980885
 43
2.83564090980885
  0
LINE
  5
116
330
110
100
AcDbEntity
  8
RMF
  6
Continuous
 62
    56
100
AcDbLine
 10
86.40639612787413
 20
120.5867239593222
 30
0.0
 11
86.40639612787413
 21
105.8542606713309
 31
0.0
  0
LINE
  5
117
330
110
100
AcDbEntity
  8
RMF
  6
Continuous
 62
    56
100
AcDbLine
 10
180.2063961278741
 20
132.5867239593222
 30
0.0
 11
180.2063961278741
 21
105.8542606713309
 31
0.0
  0
TEXT
  5
118
330
110
100
AcDbEntity
  8
RMF
  6
Continuous
 62
     7
100
AcDbText
 10
125.4795556374221
 20
110.3542606713309
 30
0.0
 40
4.0
  1
93.8
 41
0.9317667250538103
  7
VERO0-courier new
 72
     5
 11
141.1332366183262
 21
110.3542606713309
 31
0.0
100
AcDbText
  0
ENDBLK
  5
112
330
110
100
AcDbEntity
  8
0
100
AcDbBlockEnd
  0
BLOCK
  5
11A
330
119
100
AcDbEntity
  8
0
100
AcDbBlockBegin
  2
Entity set 0
 70
     0
 10
0.0
 20
0.0
 30
0.0
  3
Entity set 0
  1

  0
LINE
  5
11C
330
119
100
AcDbEntity
  8
RMF
  6
Continuous
 62
   252
100
AcDbLine
 10
125.0
 20
297.0000000000001
 30
0.0
 11
125.0
 21
292.0000000000001
 31
0.0
  0
LINE
  5
11D
330
119
100
AcDbEntity
  8
RMF
  6
Continuous
 62
   252
100
AcDbLine
 10
18.00000000000001
 20
148.5000000000001
 30
0.0
 11
2.000000000000004
 21
148.5000000000001
 31
0.0
  0
LINE
  5
11E
330
119
100
AcDbEntity
  8
RMF
  6
Continuous
 62
   252
100
AcDbLine
 10
224.7750000000002
 20
10.00000000000001
 30
0.0
 11
224.7750000000002
 21
5.000000000000004
 31
0.0
  0
LINE
  5
11F
330
119
100
AcDbEntity
  8
RMF
  6
Continuous
 62
   252
100
AcDbLine
 10
169.3562499999999
 20
10.00000000000001
 30
0.0
 11
169.3562499999999
 21
5.000000000000004
 31
0.0
  0
LINE
  5
120
330
119
100
AcDbEntity
  8
RMF
  6
Continuous
 62
   252
100
AcDbLine
 10
121.1374999999998
 20
10.00000000000001
 30
0.0
 11
121.1374999999998
 21
5.000000000000004
 31
0.0
  0
LINE
  5
121
330
119
100
AcDbEntity
  8
RMF
  6
Continuous
 62
   252
100
AcDbLine
 10
72.91874999999976
 20
10.00000000000001
 30
0.0
 11
72.91874999999976
 21
5.000000000000004
 31
0.0
  0
LINE
  5
122
330
119
100
AcDbEntity
  8
RMF
  6
Continuous
 62
   252
100
AcDbLine
 10
121.1374999999998
 20
292.0000000000001
 30
0.0
 11
121.1374999999998
 21
287.0000000000001
 31
0.0
  0
LINE
  5
123
330
119
100
AcDbEntity
  8
RMF
  6
Continuous
 62
   252
100
AcDbLine
 10
72.91874999999976
 20
292.0000000000001
 30
0.0
 11
72.91874999999976
 21
287.0000000000001
 31
0.0
  0
LINE
  5
124
330
119
100
AcDbEntity
  8
RMF
  6
Continuous
 62
   252
100
AcDbLine
 10
169.3562499999999
 20
292.0000000000001
 30
0.0
 11
169.3562499999999
 21
287.0000000000001
 31
0.0
  0
LINE
  5
125
330
119
100
AcDbEntity
  8
RMF
  6
Continuous
 62
   252
100
AcDbLine
 10
217.575
 20
292.0000000000001
 30
0.0
 11
217.575
 21
287.0000000000001
 31
0.0
  0
LINE
  5
126
330
119
100
AcDbEntity
  8
RMF
  6
Continuous
 62
   252
100
AcDbLine
 10
265.79375
 20
292.0000000000001
 30
0.0
 11
265.79375
 21
287.0000000000001
 31
0.0
  0
LINE
  5
127
330
119
100
AcDbEntity
  8
RMF
  6
Continuous
 62
   252
100
AcDbLine
 10
314.0124999999999
 20
292.0000000000001
 30
0.0
 11
314.0124999999999
 21
287.0000000000001
 31
0.0
  0
LINE
  5
128
330
119
100
AcDbEntity
  8
RMF
  6
Continuous
 62
   252
100
AcDbLine
 10
362.23125
 20
292.0000000000001
 30
0.0
 11
362.23125
 21
287.0000000000001
 31
0.0
  0
LINE
  5
129
330
119
100
AcDbEntity
  8
RMF
  6
Continuous
 62
   252
100
AcDbLine
 10
414.9999999999999
 20
241.1333333333331
 30
0.0
 11
409.9999999999999
 21
241.1333333333331
 31
0.0
  0
LINE
  5
12A
330
119
100
AcDbEntity
  8
RMF
  6
Continuous
 62
   252
100
AcDbLine
 10
414.9999999999999
 20
194.8166666666671
 30
0.0
 11
409.9999999999999
 21
194.8166666666671
 31
0.0
  0
LINE
  5
12B
330
119
100
AcDbEntity
  8
RMF
  6
Continuous
 62
   252
100
AcDbLine
 10
414.9999999999999
 20
148.5000000000001
 30
0.0
 11
409.9999999999999
 21
148.5000000000001
 31
0.0
  0
LINE
  5
12C
330
119
100
AcDbEntity
  8
RMF
  6
Continuous
 62
   252
100
AcDbLine
 10
414.9999999999999
 20
102.1833333333342
 30
0.0
 11
409.9999999999999
 21
102.1833333333342
 31
0.0
  0
LINE
  5
12D
330
119
100
AcDbEntity
  8
RMF
  6
Continuous
 62
   252
100
AcDbLine
 10
414.9999999999999
 20
55.86666666666595
 30
0.0
 11
409.9999999999999
 21
55.86666666666595
 31
0.0
  0
LINE
  5
12E
330
119
100
AcDbEntity
  8
RMF
  6
Continuous
 62
   252
100
AcDbLine
 10
20.00000000000001
 20
55.86666666666595
 30
0.0
 11
25.00000000000001
 21
55.86666666666595
 31
0.0
  0
LINE
  5
12F
330
119
100
AcDbEntity
  8
RMF
  6
Continuous
 62
   252
100
AcDbLine
 10
20.00000000000001
 20
102.1833333333342
 30
0.0
 11
25.00000000000001
 21
102.1833333333342
 31
0.0
  0
LINE
  5
130
330
119
100
AcDbEntity
  8
RMF
  6
Continuous
 62
   252
100
AcDbLine
 10
20.00000000000001
 20
148.5000000000001
 30
0.0
 11
25.00000000000001
 21
148.5000000000001
 31
0.0
  0
LINE
  5
131
330
119
100
AcDbEntity
  8
RMF
  6
Continuous
 62
   252
100
AcDbLine
 10
20.00000000000001
 20
194.8166666666671
 30
0.0
 11
25.00000000000001
 21
194.8166666666671
 31
0.0
  0
LINE
  5
132
330
119
100
AcDbEntity
  8
RMF
  6
Continuous
 62
   252
100
AcDbLine
 10
20.00000000000001
 20
241.1333333333331
 30
0.0
 11
25.00000000000001
 21
241.1333333333331
 31
0.0
  0
LINE
  5
133
330
119
100
AcDbEntity
  8
RMF
  6
Continuous
 62
   252
100
AcDbLine
 10
414.9999999999999
 20
292.0000000000001
 30
0.0
 11
414.9999999999999
 21
5.000000000000004
 31
0.0
  0
LINE
  5
134
330
119
100
AcDbEntity
  8
RMF
  6
Continuous
 62
   252
100
AcDbLine
 10
20.00000000000001
 20
292.0000000000001
 30
0.0
 11
414.9999999999999
 21
292.0000000000001
 31
0.0
  0
LINE
  5
135
330
119
100
AcDbEntity
  8
RMF
  6
Continuous
 62
   252
100
AcDbLine
 10
20.00000000000001
 20
5.000000000000004
 30
0.0
 11
20.00000000000001
 21
292.0000000000001
 31
0.0
  0
LINE
  5
136
330
119
100
AcDbEntity
  8
RMF
  6
Continuous
 62
     4
100
AcDbLine
 10
25.00000000000001
 20
287.0000000000001
 30
0.0
 11
25.00000000000001
 21
10.00000000000001
 31
0.0
  0
LINE
  5
137
330
119
100
AcDbEntity
  8
RMF
  6
Continuous
 62
     4
100
AcDbLine
 10
409.9999999999999
 20
287.0000000000001
 30
0.0
 11
25.00000000000001
 21
287.0000000000001
 31
0.0
  0
LINE
  5
138
330
119
100
AcDbEntity
  8
RMF
  6
Continuous
 62
   252
100
AcDbLine
 10
20.00000000000001
 20
5.000000000000004
 30
0.0
 11
414.9999999999999
 21
5.000000000000004
 31
0.0
  0
LINE
  5
139
330
119
100
AcDbEntity
  8
RMF
  6
Continuous
 62
   252
100
AcDbLine
 10
0.0
 20
0.0
 30
0.0
 11
0.0
 21
297.0000000000001
 31
0.0
  0
LINE
  5
13A
330
119
100
AcDbEntity
  8
RMF
  6
Continuous
 62
   252
100
AcDbLine
 10
419.9999999999999
 20
0.0
 30
0.0
 11
0.0
 21
0.0
 31
0.0
  0
LINE
  5
13B
330
119
100
AcDbEntity
  8
RMF
  6
Continuous
 62
   252
100
AcDbLine
 10
419.9999999999999
 20
297.0000000000001
 30
0.0
 11
419.9999999999999
 21
0.0
 31
0.0
  0
LINE
  5
13C
330
119
100
AcDbEntity
  8
RMF
  6
Continuous
 62
   252
100
AcDbLine
 10
230.0
 20
297.0000000000001
 30
0.0
 11
230.0
 21
292.0000000000001
 31
0.0
  0
LINE
  5
13D
330
119
100
AcDbEntity
  8
RMF
  6
Continuous
 62
   252
100
AcDbLine
 10
419.9999999999999
 20
297.0000000000001
 30
0.0
 11
0.0
 21
297.0000000000001
 31
0.0
  0
LINE
  5
13E
330
119
100
AcDbEntity
  8
RMF
  6
Continuous
 62
     4
100
AcDbLine
 10
25.00000000000001
 20
10.00000000000001
 30
0.0
 11
409.9999999999999
 21
10.00000000000001
 31
0.0
  0
LINE
  5
13F
330
119
100
AcDbEntity
  8
RMF
  6
Continuous
 62
     4
100
AcDbLine
 10
409.9999999999999
 20
287.0000000000001
 30
0.0
 11
409.9999999999999
 21
10.00000000000002
 31
0.0
  0
TEXT
  5
140
330
119
100
AcDbEntity
  8
RMF
  6
Continuous
 62
     7
100
AcDbText
 10
192.4779488967499
 20
6.007311380230529
 30
0.0
 40
3.0
  1
5
 41
0.9767161712191271
  7
VERO1-osifont
 72
     5
 11
194.4533011032501
 21
6.007311380230529
 31
0.0
100
AcDbText
  0
TEXT
  5
141
330
119
100
AcDbEntity
  8
RMF
  6
Continuous
 62
     7
100
AcDbText
 10
144.2644805871413
 20
6.007311380230529
 30
0.0
 40
3.0
  1
6
 41
0.9758365763344251
  7
VERO1-osifont
 72
     5
 11
146.2292694128582
 21
6.007311380230529
 31
0.0
100
AcDbText
  0
TEXT
  5
142
330
119
100
AcDbEntity
  8
RMF
  6
Continuous
 62
     7
100
AcDbText
 10
96.07742072949166
 20
6.007311380230529
 30
0.0
 40
3.0
  1
7
 41
0.9778768559145747
  7
VERO1-osifont
 72
     5
 11
97.97882927050794
 21
6.007311380230529
 31
0.0
100
AcDbText
  0
TEXT
  5
143
330
119
100
AcDbEntity
  8
RMF
  6
Continuous
 62
     7
100
AcDbText
 10
47.93472706400691
 20
6.007311380230529
 30
0.0
 40
3.0
  1
8
 41
0.9770374766391117
  7
VERO1-osifont
 72
     5
 11
49.98402293599113
 21
6.007311380230529
 31
0.0
100
AcDbText
  0
TEXT
  5
144
330
119
100
AcDbEntity
  8
RMF
  6
Continuous
 62
     7
100
AcDbText
 10
47.93472706400691
 20
288.0073113802306
 30
0.0
 40
3.0
  1
8
 41
0.9770374766391117
  7
VERO1-osifont
 72
     5
 11
49.98402293599113
 21
288.0073113802306
 31
0.0
100
AcDbText
  0
TEXT
  5
145
330
119
100
AcDbEntity
  8
RMF
  6
Continuous
 62
     7
100
AcDbText
 10
98.47341192491166
 20
288.0073113802306
 30
0.0
 40
3.0
  1
7
 41
0.9778768559145747
  7
VERO1-osifont
 72
     5
 11
100.3748204659279
 21
288.0073113802306
 31
0.0
100
AcDbText
  0
TEXT
  5
146
330
119
100
AcDbEntity
  8
RMF
  6
Continuous
 62
     7
100
AcDbText
 10
146.5104717825616
 20
288.0073113802306
 30
0.0
 40
3.0
  1
6
 41
0.9758365763344251
  7
VERO1-osifont
 72
     5
 11
148.4752606082784
 21
288.0073113802306
 31
0.0
100
AcDbText
  0
TEXT
  5
147
330
119
100
AcDbEntity
  8
RMF
  6
Continuous
 62
     7
100
AcDbText
 10
193.005161388267
 20
288.0073113802306
 30
0.0
 40
3.0
  1
5
 41
0.9767161712191271
  7
VERO1-osifont
 72
     5
 11
194.9805135947672
 21
288.0073113802306
 31
0.0
100
AcDbText
  0
TEXT
  5
148
330
119
100
AcDbEntity
  8
RMF
  6
Continuous
 62
     7
100
AcDbText
 10
240.6650087543997
 20
288.0073113802306
 30
0.0
 40
3.0
  1
4
 41
0.9761908613354118
  7
VERO1-osifont
 72
     5
 11
242.7037412456005
 21
288.0073113802306
 31
0.0
100
AcDbText
  0
TEXT
  5
149
330
119
100
AcDbEntity
  8
RMF
  6
Continuous
 62
     7
100
AcDbText
 10
288.9471390391002
 20
288.0073113802306
 30
0.0
 40
3.0
  1
3
 41
0.9772769314630935
  7
VERO1-osifont
 72
     5
 11
290.8591109608999
 21
288.0073113802306
 31
0.0
100
AcDbText
  0
TEXT
  5
14A
330
119
100
AcDbEntity
  8
RMF
  6
Continuous
 62
     7
100
AcDbText
 10
337.1922974910587
 20
288.0073113802306
 30
0.0
 40
3.0
  1
2
 41
0.9803524935244852
  7
VERO1-osifont
 72
     5
 11
339.0514525089413
 21
288.0073113802306
 31
0.0
100
AcDbText
  0
TEXT
  5
14B
330
119
100
AcDbEntity
  8
RMF
  6
Continuous
 62
     7
100
AcDbText
 10
385.4342869394681
 20
288.0073113802306
 30
0.0
 40
3.0
  1
1
 41
0.9808337189778155
  7
VERO1-osifont
 72
     5
 11
386.7969630605297
 21
288.0073113802306
 31
0.0
100
AcDbText
  0
TEXT
  5
14C
330
119
100
AcDbEntity
  8
RMF
  6
Continuous
 62
     7
100
AcDbText
 10
21.27464782912286
 20
29.48401270628941
 30
0.0
 40
3.0
  1
A
 41
0.9804594838653696
  7
VERO1-osifont
 72
     5
 11
23.72535217087717
 21
29.48401270628941
 31
0.0
100
AcDbText
  0
TEXT
  5
14D
330
119
100
AcDbEntity
  8
RMF
  6
Continuous
 62
     7
100
AcDbText
 10
21.34330980421511
 20
78.24538433032357
 30
0.0
 40
3.0
  1
B
 41
0.9771332233245257
  7
VERO1-osifont
 72
     5
 11
23.65669019578492
 21
78.24538433032357
 31
0.0
100
AcDbText
  0
TEXT
  5
14E
330
119
100
AcDbEntity
  8
RMF
  6
Continuous
 62
     7
100
AcDbText
 10
21.52288727753331
 20
122.9606296190675
 30
0.0
 40
3.0
  1
C
 41
0.9793473474272283
  7
VERO1-osifont
 72
     5
 11
23.47711272246671
 21
122.9606296190675
 31
0.0
100
AcDbText
  0
TEXT
  5
14F
330
119
100
AcDbEntity
  8
RMF
  6
Continuous
 62
     7
100
AcDbText
 10
21.32746473303997
 20
169.2772962857346
 30
0.0
 40
3.0
  1
D
 41
0.9793473474272282
  7
VERO1-osifont
 72
     5
 11
23.67253526696005
 21
169.2772962857346
 31
0.0
100
AcDbText
  0
TEXT
  5
150
330
119
100
AcDbEntity
  8
RMF
  6
Continuous
 62
     7
100
AcDbText
 10
21.52288727753331
 20
215.5939629524014
 30
0.0
 40
3.0
  1
E
 41
0.9808222681311849
  7
VERO1-osifont
 72
     5
 11
23.47711272246671
 21
215.5939629524014
 31
0.0
100
AcDbText
  0
TEXT
  5
151
330
119
100
AcDbEntity
  8
RMF
  6
Continuous
 62
     7
100
AcDbText
 10
21.52288727753331
 20
263.3395704950325
 30
0.0
 40
3.0
  1
F
 41
0.9808222681311849
  7
VERO1-osifont
 72
     5
 11
23.47711272246671
 21
263.3395704950325
 31
0.0
100
AcDbText
  0
TEXT
  5
152
330
119
100
AcDbEntity
  8
RMF
  6
Continuous
 62
     7
100
AcDbText
 10
411.5228872775332
 20
261.6856296190687
 30
0.0
 40
3.0
  1
F
 41
0.9808222681311849
  7
VERO1-osifont
 72
     5
 11
413.4771127224666
 21
261.6856296190687
 31
0.0
100
AcDbText
  0
TEXT
  5
153
330
119
100
AcDbEntity
  8
RMF
  6
Continuous
 62
     7
100
AcDbText
 10
411.5228872775332
 20
215.5939629524014
 30
0.0
 40
3.0
  1
E
 41
0.9808222681311849
  7
VERO1-osifont
 72
     5
 11
413.4771127224666
 21
215.5939629524014
 31
0.0
100
AcDbText
  0
TEXT
  5
154
330
119
100
AcDbEntity
  8
RMF
  6
Continuous
 62
     7
100
AcDbText
 10
411.3274647330399
 20
169.2772962857346
 30
0.0
 40
3.0
  1
D
 41
0.9793473474272282
  7
VERO1-osifont
 72
     5
 11
413.67253526696
 21
169.2772962857346
 31
0.0
100
AcDbText
  0
TEXT
  5
155
330
119
100
AcDbEntity
  8
RMF
  6
Continuous
 62
     7
100
AcDbText
 10
411.5228872775332
 20
122.9606296190675
 30
0.0
 40
3.0
  1
C
 41
0.9793473474272283
  7
VERO1-osifont
 72
     5
 11
413.4771127224666
 21
122.9606296190675
 31
0.0
100
AcDbText
  0
TEXT
  5
156
330
119
100
AcDbEntity
  8
RMF
  6
Continuous
 62
     7
100
AcDbText
 10
411.343309804215
 20
76.6439629524014
 30
0.0
 40
3.0
  1
B
 41
0.9771332233245257
  7
VERO1-osifont
 72
     5
 11
413.6566901957848
 21
76.6439629524014
 31
0.0
100
AcDbText
  0
TEXT
  5
157
330
119
100
AcDbEntity
  8
RMF
  6
Continuous
 62
     7
100
AcDbText
 10
411.2746478291228
 20
28.05229628573557
 30
0.0
 40
3.0
  1
A
 41
0.9804594838653696
  7
VERO1-osifont
 72
     5
 11
413.7253521708771
 21
28.05229628573557
 31
0.0
100
AcDbText
  0
ENDBLK
  5
11B
330
119
100
AcDbEntity
  8
0
100
AcDbBlockEnd
  0
BLOCK
  5
15A
330
159
100
AcDbEntity
  8
0
100
AcDbBlockBegin
  2
Entity set 1
 70
     0
 10
0.0
 20
0.0
 30
0.0
  3
Entity set 1
  1

  0
TEXT
  5
15C
330
159
100
AcDbEntity
  8
RMF
  6
Continuous
 62
     7
100
AcDbText
 10
259.5149636710368
 20
26.05371921824558
 30
0.0
 40
5.0
  1
-
 41
0.9320283012295311
  7
VERO2-TXT
 72
     5
 11
264.3970166774772
 21
26.05371921824558
 31
0.0
100
AcDbText
  0
LINE
  5
15D
330
159
100
AcDbEntity
  8
RMF
  6
Continuous
 62
   136
100
AcDbLine
 10
232.9799999999998
 20
85.26
 30
0.0
 11
409.9999999999998
 21
85.26
 31
0.0
  0
LINE
  5
15E
330
159
100
AcDbEntity
  8
RMF
  6
Continuous
 62
   136
100
AcDbLine
 10
155.5999999999998
 20
15.30000000000001
 30
0.0
 11
409.9999999999998
 21
15.30000000000001
 31
0.0
  0
LINE
  5
15F
330
159
100
AcDbEntity
  8
RMF
  6
Continuous
 62
   136
100
AcDbLine
 10
155.5999999999998
 20
42.86000000000001
 30
0.0
 11
232.9799999999998
 21
42.86000000000001
 31
0.0
  0
LINE
  5
160
330
159
100
AcDbEntity
  8
RMF
  6
Continuous
 62
   136
100
AcDbLine
 10
322.0199999999998
 20
53.46000000000001
 30
0.0
 11
322.0199999999998
 21
85.26
 31
0.0
  0
LINE
  5
161
330
159
100
AcDbEntity
  8
RMF
  6
Continuous
 62
   136
100
AcDbLine
 10
232.9799999999998
 20
15.30000000000001
 30
0.0
 11
232.9799999999998
 21
95.86
 31
0.0
  0
LINE
  5
162
330
159
100
AcDbEntity
  8
RMF
  6
Continuous
 62
   136
100
AcDbLine
 10
155.5999999999998
 20
95.86
 30
0.0
 11
409.9999999999998
 21
95.86
 31
0.0
  0
LINE
  5
163
330
159
100
AcDbEntity
  8
RMF
  6
Continuous
 62
   136
100
AcDbLine
 10
155.5999999999998
 20
10.00000000000001
 30
0.0
 11
155.5999999999998
 21
95.86
 31
0.0
  0
LINE
  5
164
330
159
100
AcDbEntity
  8
RMF
  6
Continuous
 62
   136
100
AcDbLine
 10
160.8999999999998
 20
67.24000000000002
 30
0.0
 11
169.3799999999998
 21
66.18000000000002
 31
0.0
  0
LINE
  5
165
330
159
100
AcDbEntity
  8
RMF
  6
Continuous
 62
   136
100
AcDbLine
 10
160.8999999999998
 20
71.48000000000002
 30
0.0
 11
169.3799999999998
 21
72.54000000000002
 31
0.0
  0
CIRCLE
  5
166
330
159
100
AcDbEntity
  8
RMF
  6
Continuous
 62
     7
100
AcDbCircle
 10
175.7399999999998
 20
69.36
 30
0.0
 40
2.120000000000011
  0
LINE
  5
167
330
159
100
AcDbEntity
  8
RMF
  6
Continuous
 62
   136
100
AcDbLine
 10
169.3799999999998
 20
66.18000000000002
 30
0.0
 11
169.3799999999998
 21
72.54000000000002
 31
0.0
  0
CIRCLE
  5
168
330
159
100
AcDbEntity
  8
RMF
  6
Continuous
 62
     7
100
AcDbCircle
 10
175.7399999999998
 20
69.36
 30
0.0
 40
3.179999999999961
  0
LINE
  5
169
330
159
100
AcDbEntity
  8
RMF
  6
Continuous
 62
   136
100
AcDbLine
 10
160.8999999999998
 20
67.24000000000002
 30
0.0
 11
160.8999999999998
 21
71.48000000000002
 31
0.0
  0
LINE
  5
16A
330
159
100
AcDbEntity
  8
RMF
  6
Continuous
 62
   136
100
AcDbLine
 10
171.4999999999998
 20
69.36
 30
0.0
 11
179.9799999999998
 21
69.36
 31
0.0
  0
LINE
  5
16B
330
159
100
AcDbEntity
  8
RMF
  6
Continuous
 62
   136
100
AcDbLine
 10
175.7399999999998
 20
65.12
 30
0.0
 11
175.7399999999998
 21
73.60000000000002
 31
0.0
  0
LINE
  5
16C
330
159
100
AcDbEntity
  8
RMF
  6
Continuous
 62
   136
100
AcDbLine
 10
159.8399999999998
 20
69.36
 30
0.0
 11
170.4399999999998
 21
69.36
 31
0.0
  0
LINE
  5
16D
330
159
100
AcDbEntity
  8
RMF
  6
Continuous
 62
   136
100
AcDbLine
 10
184.2199999999998
 20
53.46000000000001
 30
0.0
 11
184.2199999999998
 21
74.66000000000001
 31
0.0
  0
LINE
  5
16E
330
159
100
AcDbEntity
  8
RMF
  6
Continuous
 62
   136
100
AcDbLine
 10
271.1399999999998
 20
85.26
 30
0.0
 11
271.1399999999998
 21
95.86
 31
0.0
  0
LINE
  5
16F
330
159
100
AcDbEntity
  8
RMF
  6
Continuous
 62
   136
100
AcDbLine
 10
249.9399999999998
 20
85.26
 30
0.0
 11
249.9399999999998
 21
95.86
 31
0.0
  0
LINE
  5
170
330
159
100
AcDbEntity
  8
RMF
  6
Continuous
 62
   136
100
AcDbLine
 10
243.5799999999998
 20
85.26
 30
0.0
 11
243.5799999999998
 21
95.86
 31
0.0
  0
LINE
  5
171
330
159
100
AcDbEntity
  8
RMF
  6
Continuous
 62
   136
100
AcDbLine
 10
319.8999999999999
 20
85.26
 30
0.0
 11
319.8999999999999
 21
95.86
 31
0.0
  0
LINE
  5
172
330
159
100
AcDbEntity
  8
RMF
  6
Continuous
 62
   136
100
AcDbLine
 10
347.4599999999999
 20
85.26
 30
0.0
 11
347.4599999999999
 21
95.86
 31
0.0
  0
LINE
  5
173
330
159
100
AcDbEntity
  8
RMF
  6
Continuous
 62
   136
100
AcDbLine
 10
383.4999999999998
 20
85.26
 30
0.0
 11
383.4999999999998
 21
90.56
 31
0.0
  0
LINE
  5
174
330
159
100
AcDbEntity
  8
RMF
  6
Continuous
 62
   136
100
AcDbLine
 10
389.8599999999999
 20
15.30000000000001
 30
0.0
 11
389.8599999999999
 21
33.85000000000001
 31
0.0
  0
LINE
  5
175
330
159
100
AcDbEntity
  8
RMF
  6
Continuous
 62
   136
100
AcDbLine
 10
232.9799999999998
 20
33.85000000000001
 30
0.0
 11
409.9999999999998
 21
33.85000000000001
 31
0.0
  0
LINE
  5
176
330
159
100
AcDbEntity
  8
RMF
  6
Continuous
 62
   136
100
AcDbLine
 10
232.9799999999998
 20
69.36
 30
0.0
 11
322.0199999999998
 21
69.36
 31
0.0
  0
LINE
  5
177
330
159
100
AcDbEntity
  8
RMF
  6
Continuous
 62
   136
100
AcDbLine
 10
232.9799999999998
 20
58.76000000000001
 30
0.0
 11
322.0199999999998
 21
58.76000000000001
 31
0.0
  0
LINE
  5
178
330
159
100
AcDbEntity
  8
RMF
  6
Continuous
 62
   136
100
AcDbLine
 10
155.5999999999998
 20
53.46000000000001
 30
0.0
 11
409.9999999999998
 21
53.46000000000001
 31
0.0
  0
LINE
  5
179
330
159
100
AcDbEntity
  8
RMF
  6
Continuous
 62
   136
100
AcDbLine
 10
155.5999999999998
 20
64.06
 30
0.0
 11
409.9999999999998
 21
64.06
 31
0.0
  0
LINE
  5
17A
330
159
100
AcDbEntity
  8
RMF
  6
Continuous
 62
   136
100
AcDbLine
 10
155.5999999999998
 20
74.66000000000001
 30
0.0
 11
322.0199999999998
 21
74.66000000000001
 31
0.0
  0
LINE
  5
17B
330
159
100
AcDbEntity
  8
RMF
  6
Continuous
 62
   136
100
AcDbLine
 10
232.9799999999998
 20
90.56
 30
0.0
 11
409.9999999999998
 21
90.56
 31
0.0
  0
LINE
  5
17C
330
159
100
AcDbEntity
  8
RMF
  6
Continuous
 62
   136
100
AcDbLine
 10
155.5999999999998
 20
95.86
 30
0.0
 11
409.9999999999998
 21
95.86
 31
0.0
  0
TEXT
  5
17D
330
159
100
AcDbEntity
  8
RMF
  6
Continuous
 62
     7
100
AcDbText
 10
234.3534129065927
 20
60.18876437102755
 30
0.0
 40
2.5
  1
Bemerkung
 41
0.6421433871283251
  7
VERO2-TXT
 72
     5
 11
247.3491719318088
 21
60.18876437102755
 31
0.0
100
AcDbText
  0
TEXT
  5
17E
330
159
100
AcDbEntity
  8
RMF
  6
Continuous
 62
     7
100
AcDbText
 10
234.2668383794675
 20
65.96495484721804
 30
0.0
 40
2.5
  1
Gewicht
 41
0.618057087834539
  7
VERO2-TXT
 72
     5
 11
242.8019124495635
 21
65.96495484721804
 31
0.0
100
AcDbText
  0
TEXT
  5
17F
330
159
100
AcDbEntity
  8
RMF
  6
Continuous
 62
     7
100
AcDbText
 10
159.7795778542813
 20
55.28815338292272
 30
0.0
 40
3.5
  1
A3
 41
1.040485793990748
  7
VERO2-TXT
 72
     5
 11
165.8490783192273
 21
55.28815338292272
 31
0.0
100
AcDbText
  0
TEXT
  5
180
330
159
100
AcDbEntity
  8
RMF
  6
Continuous
 62
     7
100
AcDbText
 10
209.8075541408956
 20
66.40444321824558
 30
0.0
 40
5.0
  1
1:1
 41
0.96876199652509
  7
VERO2-TXT
 72
     5
 11
219.2645164879262
 21
66.40444321824558
 31
0.0
100
AcDbText
  0
TEXT
  5
181
330
159
100
AcDbEntity
  8
RMF
  6
Continuous
 62
     7
100
AcDbText
 10
276.740083307318
 20
45.66653536110272
 30
0.0
 40
5.0
  1
RMF
 41
0.6709396598800537
  7
VERO2-TXT
 72
     5
 11
286.6444306674521
 21
45.66653536110272
 31
0.0
100
AcDbText
  0
TEXT
  5
182
330
159
100
AcDbEntity
  8
RMF
  6
Continuous
 62
     7
100
AcDbText
 10
383.9949969363939
 20
11.99087003769422
 30
0.0
 40
2.5
  1
 GmbH verboten
 41
0.5913693034513429
  7
VERO2-TXT
 72
     5
 11
402.580889330579
 21
11.99087003769422
 31
0.0
100
AcDbText
  0
TEXT
  5
183
330
159
100
AcDbEntity
  8
RMF
  6
Continuous
 62
     7
100
AcDbText
 10
286.0568092228515
 20
11.88582425451949
 30
0.0
 40
2.5
  1
Vervielfaeltigung ohne vorherige schriftliche Zustimmung der Fa.BST Solutions
 41
0.6500443689665706
  7
VERO2-TXT
 72
     5
 11
384.4920993806464
 21
11.88582425451949
 31
0.0
100
AcDbText
  0
TEXT
  5
184
330
159
100
AcDbEntity
  8
RMF
  6
Continuous
 62
     7
100
AcDbText
 10
234.9775106228099
 20
70.70959103769422
 30
0.0
 40
2.5
  1
Oberflaechenschutz
 41
0.685911031057503
  7
VERO2-TXT
 72
     5
 11
259.6376453108297
 21
70.70959103769422
 31
0.0
100
AcDbText
  0
TEXT
  5
185
330
159
100
AcDbEntity
  8
RMF
  6
Continuous
 62
     7
100
AcDbText
 10
277.9595050965254
 20
70.8213806091228
 30
0.0
 40
2.5
  1
-
 41
0.6560999794270503
  7
VERO2-TXT
 72
     5
 11
279.6778621855011
 21
70.8213806091228
 31
0.0
100
AcDbText
  0
TEXT
  5
186
330
159
100
AcDbEntity
  8
RMF
  6
Continuous
 62
     7
100
AcDbText
 10
277.9595050965254
 20
54.92138060912279
 30
0.0
 40
2.5
  1
-
 41
0.6560999794270503
  7
VERO2-TXT
 72
     5
 11
279.6778621855011
 21
54.92138060912279
 31
0.0
100
AcDbText
  0
TEXT
  5
187
330
159
100
AcDbEntity
  8
RMF
  6
Continuous
 62
     7
100
AcDbText
 10
277.9595050965254
 20
65.5213806091228
 30
0.0
 40
2.5
  1
-
 41
0.6560999794270503
  7
VERO2-TXT
 72
     5
 11
279.6778621855011
 21
65.5213806091228
 31
0.0
100
AcDbText
  0
TEXT
  5
188
330
159
100
AcDbEntity
  8
RMF
  6
Continuous
 62
     7
100
AcDbText
 10
277.9595050965254
 20
60.22138060912279
 30
0.0
 40
2.5
  1
-
 41
0.6560999794270503
  7
VERO2-TXT
 72
     5
 11
279.6778621855011
 21
60.22138060912279
 31
0.0
100
AcDbText
  0
TEXT
  5
189
330
159
100
AcDbEntity
  8
RMF
  6
Continuous
 62
     7
100
AcDbText
 10
259.5149636710368
 20
16.77871921824558
 30
0.0
 40
5.0
  1
-
 41
0.9320283012295311
  7
VERO2-TXT
 72
     5
 11
264.3970166774772
 21
16.77871921824558
 31
0.0
100
AcDbText
  0
TEXT
  5
18A
330
159
100
AcDbEntity
  8
RMF
  6
Continuous
 62
     7
100
AcDbText
 10
372.0445565626378
 20
26.55293103769423
 30
0.0
 40
2.5
  1
Status:
 41
0.5564212799072265
  7
VERO2-TXT
 72
     5
 11
378.9998225614781
 21
26.55293103769423
 31
0.0
100
AcDbText
  0
LINE
  5
18B
330
159
100
AcDbEntity
  8
RMF
  6
Continuous
 62
   136
100
AcDbLine
 10
367.5999999999998
 20
15.30000000000001
 30
0.0
 11
367.5999999999998
 21
33.85000000000001
 31
0.0
  0
TEXT
  5
18C
330
159
100
AcDbEntity
  8
RMF
  6
Continuous
 62
     7
100
AcDbText
 10
349.6481978805409
 20
26.55293103769423
 30
0.0
 40
2.5
  1
Aend.-Index
 41
0.5697374747313082
  7
VERO2-TXT
 72
     5
 11
362.3994651721464
 21
26.55293103769423
 31
0.0
100
AcDbText
  0
TEXT
  5
18D
330
159
100
AcDbEntity
  8
RMF
  6
Continuous
 62
     7
100
AcDbText
 10
393.313003989023
 20
26.55293103769423
 30
0.0
 40
2.5
  1
Blatt:
 41
0.5433577900895704
  7
VERO2-TXT
 72
     5
 11
398.3584691827119
 21
26.55293103769423
 31
0.0
100
AcDbText
  0
LINE
  5
18E
330
159
100
AcDbEntity
  8
RMF
  6
Continuous
 62
   136
100
AcDbLine
 10
345.3399999999999
 20
15.30000000000001
 30
0.0
 11
345.3399999999999
 21
33.85000000000001
 31
0.0
  0
LINE
  5
18F
330
159
100
AcDbEntity
  8
RMF
  6
Continuous
 62
   136
100
AcDbLine
 10
232.9799999999998
 20
24.57500000000001
 30
0.0
 11
345.3399999999999
 21
24.57500000000001
 31
0.0
  0
TEXT
  5
190
330
159
100
AcDbEntity
  8
RMF
  6
Continuous
 62
     7
100
AcDbText
 10
234.2578232329936
 20
26.02293103769422
 30
0.0
 40
2.5
  1
Sach-Nr.:LI
 41
0.6001636553346439
  7
VERO2-TXT
 72
     5
 11
246.9755768817516
 21
26.02293103769422
 31
0.0
100
AcDbText
  0
TEXT
  5
191
330
159
100
AcDbEntity
  8
RMF
  6
Continuous
 62
     7
100
AcDbText
 10
234.2575102854396
 20
16.74793103769422
 30
0.0
 40
2.5
  1
Sach-Nr.:RE
 41
0.6010859803511545
  7
VERO2-TXT
 72
     5
 11
248.2112919721629
 21
16.74793103769422
 31
0.0
100
AcDbText
  0
TEXT
  5
192
330
159
100
AcDbEntity
  8
RMF
  6
Continuous
 62
     7
100
AcDbText
 10
328.242688179339
 20
54.79830452512658
 30
0.0
 40
3.0
  1
-
 41
0.9320283160460267
  7
VERO2-TXT
 72
     5
 11
331.1719200297694
 21
54.79830452512658
 31
0.0
100
AcDbText
  0
TEXT
  5
193
330
159
100
AcDbEntity
  8
RMF
  6
Continuous
 62
     7
100
AcDbText
 10
171.395579179339
 20
46.82465852512659
 30
0.0
 40
3.0
  1
-
 41
0.9320283160460267
  7
VERO2-TXT
 72
     5
 11
174.3248110297693
 21
46.82465852512659
 31
0.0
100
AcDbText
  0
LINE
  5
194
330
159
100
AcDbEntity
  8
RMF
  6
Continuous
 62
     4
100
AcDbLine
 10
178.0879149999998
 20
83.228668
 30
0.0
 11
219.5204529999998
 21
83.228668
 31
0.0
  0
LINE
  5
195
330
159
100
AcDbEntity
  8
RMF
  6
Continuous
 62
     4
100
AcDbLine
 10
177.7699149999998
 20
83.54666800000003
 30
0.0
 11
219.5204529999998
 21
83.54666800000003
 31
0.0
  0
LINE
  5
196
330
159
100
AcDbEntity
  8
RMF
  6
Continuous
 62
     9
100
AcDbLine
 10
195.4103079999998
 20
86.104976
 30
0.0
 11
195.4197079999999
 21
85.988262
 31
0.0
  0
LINE
  5
197
330
159
100
AcDbEntity
  8
RMF
  6
Continuous
 62
     4
100
AcDbLine
 10
164.2011729999998
 20
78.83995000000002
 30
0.0
 11
177.7699149999998
 21
78.83995000000002
 31
0.0
  0
LINE
  5
198
330
159
100
AcDbEntity
  8
RMF
  6
Continuous
 62
     4
100
AcDbLine
 10
177.7699149999998
 20
78.83995000000002
 30
0.0
 11
177.7699149999998
 21
83.54666800000003
 31
0.0
  0
LINE
  5
199
330
159
100
AcDbEntity
  8
RMF
  6
Continuous
 62
     4
100
AcDbLine
 10
178.0879149999998
 20
78.52195
 30
0.0
 11
178.0879149999998
 21
83.228668
 31
0.0
  0
LINE
  5
19A
330
159
100
AcDbEntity
  8
RMF
  6
Continuous
 62
     4
100
AcDbLine
 10
164.2011729999998
 20
78.52195
 30
0.0
 11
178.0879149999998
 21
78.52195
 31
0.0
  0
LINE
  5
19B
330
159
100
AcDbEntity
  8
RMF
  6
Continuous
 62
     4
100
AcDbLine
 10
219.5204529999998
 20
82.16368600000001
 30
0.0
 11
219.5204529999998
 21
83.228668
 31
0.0
  0
LINE
  5
19C
330
159
100
AcDbEntity
  8
RMF
  6
Continuous
 62
     4
100
AcDbLine
 10
164.2011729999998
 20
78.52195
 30
0.0
 11
164.2011729999998
 21
78.83995000000002
 31
0.0
  0
LINE
  5
19D
330
159
100
AcDbEntity
  8
RMF
  6
Continuous
 62
     4
100
AcDbLine
 10
219.5204529999998
 20
82.16368600000001
 30
0.0
 11
221.6404529999998
 21
83.387668
 31
0.0
  0
LINE
  5
19E
330
159
100
AcDbEntity
  8
RMF
  6
Continuous
 62
     4
100
AcDbLine
 10
219.5204529999998
 20
84.61165100000001
 30
0.0
 11
221.6404529999998
 21
83.387668
 31
0.0
  0
LINE
  5
19F
330
159
100
AcDbEntity
  8
RMF
  6
Continuous
 62
     4
100
AcDbLine
 10
219.5204529999998
 20
83.54666800000003
 30
0.0
 11
219.5204529999998
 21
84.61165100000001
 31
0.0
  0
LINE
  5
1A0
330
159
100
AcDbEntity
  8
RMF
  6
Continuous
 62
     4
100
AcDbLine
 10
173.0983889999998
 20
87.187238
 30
0.0
 11
174.2546369999998
 21
87.187238
 31
0.0
  0
LINE
  5
1A1
330
159
100
AcDbEntity
  8
RMF
  6
Continuous
 62
     4
100
AcDbLine
 10
173.0983889999998
 20
87.187238
 30
0.0
 11
173.0983889999998
 21
87.22204600000002
 31
0.0
  0
LINE
  5
1A2
330
159
100
AcDbEntity
  8
RMF
  6
Continuous
 62
     4
100
AcDbLine
 10
173.0983889999998
 20
87.86712200000002
 30
0.0
 11
176.1398469999999
 21
87.86712200000002
 31
0.0
  0
LINE
  5
1A3
330
159
100
AcDbEntity
  8
RMF
  6
Continuous
 62
     4
100
AcDbLine
 10
176.1398469999999
 20
87.187238
 30
0.0
 11
176.1398469999999
 21
87.86712200000002
 31
0.0
  0
LINE
  5
1A4
330
159
100
AcDbEntity
  8
RMF
  6
Continuous
 62
     4
100
AcDbLine
 10
174.9835989999998
 20
87.187238
 30
0.0
 11
176.1398469999999
 21
87.187238
 31
0.0
  0
LINE
  5
1A5
330
159
100
AcDbEntity
  8
RMF
  6
Continuous
 62
     4
100
AcDbLine
 10
174.9835989999998
 20
83.98572000000001
 30
0.0
 11
174.9835989999998
 21
87.187238
 31
0.0
  0
LINE
  5
1A6
330
159
100
AcDbEntity
  8
RMF
  6
Continuous
 62
     4
100
AcDbLine
 10
174.2546369999998
 20
83.98572000000001
 30
0.0
 11
174.9835989999998
 21
83.98572000000001
 31
0.0
  0
LINE
  5
1A7
330
159
100
AcDbEntity
  8
RMF
  6
Continuous
 62
     4
100
AcDbLine
 10
174.2546369999998
 20
83.98572000000001
 30
0.0
 11
174.2546369999998
 21
87.187238
 31
0.0
  0
LINE
  5
1A8
330
159
100
AcDbEntity
  8
RMF
  6
Continuous
 62
     4
100
AcDbLine
 10
172.0868309999998
 20
86.87824799999999
 30
0.0
 11
172.4772699999998
 21
87.22204600000002
 31
0.0
  0
LINE
  5
1A9
330
159
100
AcDbEntity
  8
RMF
  6
Continuous
 62
     4
100
AcDbLine
 10
169.3029529999998
 20
84.62225000000001
 30
0.0
 11
169.8560609999998
 21
85.11059200000001
 31
0.0
  0
LINE
  5
1AA
330
159
100
AcDbEntity
  8
RMF
  6
Continuous
 62
     4
100
AcDbLine
 10
165.0488549999998
 20
85.635928
 30
0.0
 11
165.5201309999999
 21
85.635928
 31
0.0
  0
LINE
  5
1AB
330
159
100
AcDbEntity
  8
RMF
  6
Continuous
 62
     4
100
AcDbLine
 10
165.0488549999998
 20
85.635928
 30
0.0
 11
165.0488549999998
 21
86.00005900000002
 31
0.0
  0
LINE
  5
1AC
330
159
100
AcDbEntity
  8
RMF
  6
Continuous
 62
     4
100
AcDbLine
 10
165.0488549999998
 20
86.31581200000002
 30
0.0
 11
165.5201309999999
 21
86.31581200000002
 31
0.0
  0
LINE
  5
1AD
330
159
100
AcDbEntity
  8
RMF
  6
Continuous
 62
     4
100
AcDbLine
 10
165.5201309999999
 20
86.31581200000002
 30
0.0
 11
165.5201309999999
 21
87.86712200000002
 31
0.0
  0
LINE
  5
1AE
330
159
100
AcDbEntity
  8
RMF
  6
Continuous
 62
     4
100
AcDbLine
 10
165.5201309999999
 20
87.86712200000002
 30
0.0
 11
167.6251849999998
 21
87.86712200000002
 31
0.0
  0
LINE
  5
1AF
330
159
100
AcDbEntity
  8
RMF
  6
Continuous
 62
     4
100
AcDbLine
 10
168.7625649999998
 20
86.82874600000001
 30
0.0
 11
168.7594409999998
 21
86.750139
 31
0.0
  0
LINE
  5
1B0
330
159
100
AcDbEntity
  8
RMF
  6
Continuous
 62
     4
100
AcDbLine
 10
165.5201309999999
 20
83.98572000000001
 30
0.0
 11
167.7697689999999
 21
83.98572000000001
 31
0.0
  0
LINE
  5
1B1
330
159
100
AcDbEntity
  8
RMF
  6
Continuous
 62
     4
100
AcDbLine
 10
165.5201309999999
 20
83.98572000000001
 30
0.0
 11
165.5201309999999
 21
85.635928
 31
0.0
  0
LINE
  5
1B2
330
159
100
AcDbEntity
  8
RMF
  6
Continuous
 62
     9
100
AcDbLine
 10
195.4210349999998
 20
85.92212800000001
 30
0.0
 11
195.4197079999999
 21
85.988262
 31
0.0
  0
LINE
  5
1B3
330
159
100
AcDbEntity
  8
RMF
  6
Continuous
 62
     9
100
AcDbLine
 10
184.2130189999998
 20
85.92212800000001
 30
0.0
 11
184.2122719999998
 21
85.971934
 31
0.0
  0
LINE
  5
1B4
330
159
100
AcDbEntity
  8
RMF
  6
Continuous
 62
     4
100
AcDbLine
 10
172.4772699999998
 20
87.22204600000002
 30
0.0
 11
173.0983889999998
 21
87.22204600000002
 31
0.0
  0
LINE
  5
1B5
330
159
100
AcDbEntity
  8
RMF
  6
Continuous
 62
     4
100
AcDbLine
 10
172.4893079999998
 20
87.232646
 30
0.0
 11
173.0983889999998
 21
87.232646
 31
0.0
  0
LINE
  5
1B6
330
159
100
AcDbEntity
  8
RMF
  6
Continuous
 62
     4
100
AcDbLine
 10
173.0983889999998
 20
87.232646
 30
0.0
 11
173.0983889999998
 21
87.86712200000002
 31
0.0
  0
LINE
  5
1B7
330
159
100
AcDbEntity
  8
RMF
  6
Continuous
 62
     4
100
AcDbLine
 10
172.4893079999998
 20
87.232646
 30
0.0
 11
172.6272189999998
 21
87.354082
 31
0.0
  0
LINE
  5
1B8
330
159
100
AcDbEntity
  8
RMF
  6
Continuous
 62
     4
100
AcDbLine
 10
168.7594409999998
 20
86.750084
 30
0.0
 11
169.4226459999998
 21
86.750084
 31
0.0
  0
LINE
  5
1B9
330
159
100
AcDbEntity
  8
RMF
  6
Continuous
 62
     4
100
AcDbLine
 10
168.7585209999998
 20
86.739484
 30
0.0
 11
169.4227459999998
 21
86.739484
 31
0.0
  0
LINE
  5
1BA
330
159
100
AcDbEntity
  8
RMF
  6
Continuous
 62
     4
100
AcDbLine
 10
169.4224149999998
 20
86.779244
 30
0.0
 11
169.4226459999998
 21
86.750084
 31
0.0
  0
LINE
  5
1BB
330
159
100
AcDbEntity
  8
RMF
  6
Continuous
 62
     4
100
AcDbLine
 10
164.2066899999998
 20
86.00005900000002
 30
0.0
 11
165.0488549999998
 21
86.00005900000002
 31
0.0
  0
LINE
  5
1BC
330
159
100
AcDbEntity
  8
RMF
  6
Continuous
 62
     4
100
AcDbLine
 10
164.2068399999999
 20
86.01065900000002
 30
0.0
 11
165.0488549999998
 21
86.01065900000002
 31
0.0
  0
LINE
  5
1BD
330
159
100
AcDbEntity
  8
RMF
  6
Continuous
 62
     4
100
AcDbLine
 10
165.0488549999998
 20
86.01065900000002
 30
0.0
 11
165.0488549999998
 21
86.31581200000002
 31
0.0
  0
LINE
  5
1BE
330
159
100
AcDbEntity
  8
RMF
  6
Continuous
 62
     9
100
AcDbLine
 10
184.2122719999998
 20
85.97201500000001
 30
0.0
 11
184.5115829999998
 21
85.97201500000001
 31
0.0
  0
LINE
  5
1BF
330
159
100
AcDbEntity
  8
RMF
  6
Continuous
 62
     9
100
AcDbLine
 10
184.5115829999998
 20
85.971991
 30
0.0
 11
184.5122569999998
 21
85.92212800000001
 31
0.0
  0
LINE
  5
1C0
330
159
100
AcDbEntity
  8
RMF
  6
Continuous
 62
     9
100
AcDbLine
 10
195.7190799999998
 20
85.988276
 30
0.0
 11
195.7202729999998
 21
85.92212800000001
 31
0.0
  0
LINE
  5
1C1
330
159
100
AcDbEntity
  8
RMF
  6
Continuous
 62
     9
100
AcDbLine
 10
195.4103079999998
 20
86.10501300000001
 30
0.0
 11
195.7107709999998
 21
86.10501300000001
 31
0.0
  0
LINE
  5
1C2
330
159
100
AcDbEntity
  8
RMF
  6
Continuous
 62
     9
100
AcDbLine
 10
195.4197079999999
 20
85.988262
 30
0.0
 11
195.7190799999998
 21
85.988276
 31
0.0
  0
LINE
  5
1C3
330
159
100
AcDbEntity
  8
RMF
  6
Continuous
 62
     9
100
AcDbLine
 10
195.7107709999998
 20
86.105012
 30
0.0
 11
195.7190799999998
 21
85.988276
 31
0.0
  0
LINE
  5
1C4
330
159
100
AcDbEntity
  8
RMF
  6
Continuous
 62
     9
100
AcDbLine
 10
184.2042049999998
 20
86.088615
 30
0.0
 11
184.5044359999998
 21
86.088615
 31
0.0
  0
LINE
  5
1C5
330
159
100
AcDbEntity
  8
RMF
  6
Continuous
 62
     9
100
AcDbLine
 10
184.5044359999998
 20
86.08855300000002
 30
0.0
 11
184.5115829999998
 21
85.971991
 31
0.0
  0
LINE
  5
1C6
330
159
100
AcDbEntity
  8
RMF
  6
Continuous
 62
     9
100
AcDbLine
 10
184.2042049999998
 20
86.08854900000001
 30
0.0
 11
184.2122719999998
 21
85.971934
 31
0.0
  0
LINE
  5
1C7
330
159
100
AcDbEntity
  8
RMF
  6
Continuous
 62
     9
100
AcDbLine
 10
192.2591609999998
 20
87.92258000000002
 30
0.0
 11
192.5324289999998
 21
87.92258000000002
 31
0.0
  0
LINE
  5
1C8
330
159
100
AcDbEntity
  8
RMF
  6
Continuous
 62
     4
100
AcDbLine
 10
164.2011729999998
 20
78.82195
 30
0.0
 11
178.0879149999998
 21
78.82195
 31
0.0
  0
LINE
  5
1C9
330
159
100
AcDbEntity
  8
RMF
  6
Continuous
 62
     4
100
AcDbLine
 10
177.7699149999998
 20
79.12195
 30
0.0
 11
178.0879149999998
 21
79.12195
 31
0.0
  0
LINE
  5
1CA
330
159
100
AcDbEntity
  8
RMF
  6
Continuous
 62
     4
100
AcDbLine
 10
177.7699149999998
 20
79.42195000000002
 30
0.0
 11
178.0879149999998
 21
79.42195000000002
 31
0.0
  0
LINE
  5
1CB
330
159
100
AcDbEntity
  8
RMF
  6
Continuous
 62
     4
100
AcDbLine
 10
177.7699149999998
 20
79.72195
 30
0.0
 11
178.0879149999998
 21
79.72195
 31
0.0
  0
LINE
  5
1CC
330
159
100
AcDbEntity
  8
RMF
  6
Continuous
 62
     4
100
AcDbLine
 10
177.7699149999998
 20
80.02195
 30
0.0
 11
178.0879149999998
 21
80.02195
 31
0.0
  0
LINE
  5
1CD
330
159
100
AcDbEntity
  8
RMF
  6
Continuous
 62
     4
100
AcDbLine
 10
177.7699149999998
 20
80.32195
 30
0.0
 11
178.0879149999998
 21
80.32195
 31
0.0
  0
LINE
  5
1CE
330
159
100
AcDbEntity
  8
RMF
  6
Continuous
 62
     4
100
AcDbLine
 10
177.7699149999998
 20
80.62195
 30
0.0
 11
178.0879149999998
 21
80.62195
 31
0.0
  0
LINE
  5
1CF
330
159
100
AcDbEntity
  8
RMF
  6
Continuous
 62
     4
100
AcDbLine
 10
177.7699149999998
 20
80.92195000000002
 30
0.0
 11
178.0879149999998
 21
80.92195000000002
 31
0.0
  0
LINE
  5
1D0
330
159
100
AcDbEntity
  8
RMF
  6
Continuous
 62
     4
100
AcDbLine
 10
177.7699149999998
 20
81.22195000000002
 30
0.0
 11
178.0879149999998
 21
81.22195000000002
 31
0.0
  0
LINE
  5
1D1
330
159
100
AcDbEntity
  8
RMF
  6
Continuous
 62
     4
100
AcDbLine
 10
177.7699149999998
 20
81.52195
 30
0.0
 11
178.0879149999998
 21
81.52195
 31
0.0
  0
LINE
  5
1D2
330
159
100
AcDbEntity
  8
RMF
  6
Continuous
 62
     4
100
AcDbLine
 10
177.7699149999998
 20
81.82195
 30
0.0
 11
178.0879149999998
 21
81.82195
 31
0.0
  0
LINE
  5
1D3
330
159
100
AcDbEntity
  8
RMF
  6
Continuous
 62
     4
100
AcDbLine
 10
177.7699149999998
 20
82.12195
 30
0.0
 11
178.0879149999998
 21
82.12195
 31
0.0
  0
LINE
  5
1D4
330
159
100
AcDbEntity
  8
RMF
  6
Continuous
 62
     4
100
AcDbLine
 10
177.7699149999998
 20
82.42195000000002
 30
0.0
 11
178.0879149999998
 21
82.42195000000002
 31
0.0
  0
LINE
  5
1D5
330
159
100
AcDbEntity
  8
RMF
  6
Continuous
 62
     4
100
AcDbLine
 10
219.5204529999998
 20
82.42195000000002
 30
0.0
 11
219.9677799999998
 21
82.42195000000002
 31
0.0
  0
LINE
  5
1D6
330
159
100
AcDbEntity
  8
RMF
  6
Continuous
 62
     4
100
AcDbLine
 10
177.7699149999998
 20
82.72195000000002
 30
0.0
 11
178.0879149999998
 21
82.72195000000002
 31
0.0
  0
LINE
  5
1D7
330
159
100
AcDbEntity
  8
RMF
  6
Continuous
 62
     4
100
AcDbLine
 10
219.5204529999998
 20
82.72195000000002
 30
0.0
 11
220.4873959999998
 21
82.72195000000002
 31
0.0
  0
LINE
  5
1D8
330
159
100
AcDbEntity
  8
RMF
  6
Continuous
 62
     4
100
AcDbLine
 10
177.7699149999998
 20
83.02195
 30
0.0
 11
178.0879149999998
 21
83.02195
 31
0.0
  0
LINE
  5
1D9
330
159
100
AcDbEntity
  8
RMF
  6
Continuous
 62
     4
100
AcDbLine
 10
219.5204529999998
 20
83.02195
 30
0.0
 11
221.0070109999999
 21
83.02195
 31
0.0
  0
LINE
  5
1DA
330
159
100
AcDbEntity
  8
RMF
  6
Continuous
 62
     4
100
AcDbLine
 10
177.7699149999998
 20
83.32195
 30
0.0
 11
221.5266259999999
 21
83.32195
 31
0.0
  0
LINE
  5
1DB
330
159
100
AcDbEntity
  8
RMF
  6
Continuous
 62
     4
100
AcDbLine
 10
219.5204529999998
 20
83.62195
 30
0.0
 11
221.2346649999998
 21
83.62195
 31
0.0
  0
LINE
  5
1DC
330
159
100
AcDbEntity
  8
RMF
  6
Continuous
 62
     4
100
AcDbLine
 10
219.5204529999998
 20
83.92195000000002
 30
0.0
 11
220.7150489999998
 21
83.92195000000002
 31
0.0
  0
LINE
  5
1DD
330
159
100
AcDbEntity
  8
RMF
  6
Continuous
 62
     4
100
AcDbLine
 10
219.5204529999998
 20
84.22195000000002
 30
0.0
 11
220.1954339999999
 21
84.22195000000002
 31
0.0
  0
LINE
  5
1DE
330
159
100
AcDbEntity
  8
RMF
  6
Continuous
 62
     4
100
AcDbLine
 10
219.5204529999998
 20
84.52195000000002
 30
0.0
 11
219.6758189999998
 21
84.52195000000002
 31
0.0
  0
LINE
  5
1DF
330
159
100
AcDbEntity
  8
RMF
  6
Continuous
 62
     9
100
AcDbLine
 10
179.7756969999998
 20
85.06089800000002
 30
0.0
 11
180.1231519999998
 21
85.06089800000002
 31
0.0
  0
LINE
  5
1E0
330
159
100
AcDbEntity
  8
RMF
  6
Continuous
 62
     9
100
AcDbLine
 10
180.7329989999998
 20
85.06089800000002
 30
0.0
 11
181.2316199999998
 21
85.06089800000002
 31
0.0
  0
LINE
  5
1E1
330
159
100
AcDbEntity
  8
RMF
  6
Continuous
 62
     9
100
AcDbLine
 10
181.0877429999998
 20
85.36089800000002
 30
0.0
 11
181.4037119999998
 21
85.36089800000002
 31
0.0
  0
LINE
  5
1E2
330
159
100
AcDbEntity
  8
RMF
  6
Continuous
 62
     9
100
AcDbLine
 10
181.1390649999998
 20
85.66089800000002
 30
0.0
 11
181.4361089999998
 21
85.66089800000002
 31
0.0
  0
LINE
  5
1E3
330
159
100
AcDbEntity
  8
RMF
  6
Continuous
 62
     9
100
AcDbLine
 10
180.9722899999998
 20
85.96089800000001
 30
0.0
 11
181.3546659999998
 21
85.96089800000001
 31
0.0
  0
LINE
  5
1E4
330
159
100
AcDbEntity
  8
RMF
  6
Continuous
 62
     9
100
AcDbLine
 10
180.5190669999998
 20
86.260898
 30
0.0
 11
181.0869939999998
 21
86.260898
 31
0.0
  0
LINE
  5
1E5
330
159
100
AcDbEntity
  8
RMF
  6
Continuous
 62
     9
100
AcDbLine
 10
180.0499919999998
 20
86.56089800000002
 30
0.0
 11
180.5815399999998
 21
86.56089800000002
 31
0.0
  0
LINE
  5
1E6
330
159
100
AcDbEntity
  8
RMF
  6
Continuous
 62
     9
100
AcDbLine
 10
179.8130209999998
 20
86.86089800000002
 30
0.0
 11
180.1628299999998
 21
86.86089800000002
 31
0.0
  0
LINE
  5
1E7
330
159
100
AcDbEntity
  8
RMF
  6
Continuous
 62
     9
100
AcDbLine
 10
179.7595209999998
 20
87.16089800000002
 30
0.0
 11
180.0576789999998
 21
87.16089800000002
 31
0.0
  0
LINE
  5
1E8
330
159
100
AcDbEntity
  8
RMF
  6
Continuous
 62
     9
100
AcDbLine
 10
179.8413949999998
 20
87.46089800000001
 30
0.0
 11
180.1844749999998
 21
87.46089800000001
 31
0.0
  0
LINE
  5
1E9
330
159
100
AcDbEntity
  8
RMF
  6
Continuous
 62
     9
100
AcDbLine
 10
180.1457319999998
 20
87.760898
 30
0.0
 11
181.3000539999998
 21
87.760898
 31
0.0
  0
LINE
  5
1EA
330
159
100
AcDbEntity
  8
RMF
  6
Continuous
 62
     9
100
AcDbLine
 10
185.6315109999998
 20
85.11315599999999
 30
0.0
 11
185.9047789999998
 21
85.11315599999999
 31
0.0
  0
LINE
  5
1EB
330
159
100
AcDbEntity
  8
RMF
  6
Continuous
 62
     9
100
AcDbLine
 10
185.6315109999998
 20
85.41315600000001
 30
0.0
 11
185.9047789999998
 21
85.41315600000001
 31
0.0
  0
LINE
  5
1EC
330
159
100
AcDbEntity
  8
RMF
  6
Continuous
 62
     9
100
AcDbLine
 10
185.6315109999998
 20
85.71315600000001
 30
0.0
 11
185.9047789999998
 21
85.71315600000001
 31
0.0
  0
LINE
  5
1ED
330
159
100
AcDbEntity
  8
RMF
  6
Continuous
 62
     9
100
AcDbLine
 10
185.6315109999998
 20
86.01315600000001
 30
0.0
 11
185.9047789999998
 21
86.01315600000001
 31
0.0
  0
LINE
  5
1EE
330
159
100
AcDbEntity
  8
RMF
  6
Continuous
 62
     9
100
AcDbLine
 10
185.6315109999998
 20
86.313156
 30
0.0
 11
185.9047789999998
 21
86.313156
 31
0.0
  0
LINE
  5
1EF
330
159
100
AcDbEntity
  8
RMF
  6
Continuous
 62
     9
100
AcDbLine
 10
185.6315109999998
 20
86.613156
 30
0.0
 11
185.9047789999998
 21
86.613156
 31
0.0
  0
LINE
  5
1F0
330
159
100
AcDbEntity
  8
RMF
  6
Continuous
 62
     9
100
AcDbLine
 10
185.6315109999998
 20
86.91315600000001
 30
0.0
 11
185.9047789999998
 21
86.91315600000001
 31
0.0
  0
LINE
  5
1F1
330
159
100
AcDbEntity
  8
RMF
  6
Continuous
 62
     9
100
AcDbLine
 10
185.6315109999998
 20
87.21315600000001
 30
0.0
 11
185.9047789999998
 21
87.21315600000001
 31
0.0
  0
LINE
  5
1F2
330
159
100
AcDbEntity
  8
RMF
  6
Continuous
 62
     9
100
AcDbLine
 10
185.6315109999998
 20
87.51315600000001
 30
0.0
 11
185.9047789999998
 21
87.51315600000001
 31
0.0
  0
LINE
  5
1F3
330
159
100
AcDbEntity
  8
RMF
  6
Continuous
 62
     9
100
AcDbLine
 10
185.6315109999998
 20
87.813156
 30
0.0
 11
185.9047789999998
 21
87.813156
 31
0.0
  0
LINE
  5
1F4
330
159
100
AcDbEntity
  8
RMF
  6
Continuous
 62
     9
100
AcDbLine
 10
187.3369499999998
 20
85.06089800000002
 30
0.0
 11
187.7215329999998
 21
85.06089800000002
 31
0.0
  0
LINE
  5
1F5
330
159
100
AcDbEntity
  8
RMF
  6
Continuous
 62
     9
100
AcDbLine
 10
188.2949199999998
 20
85.06089800000002
 30
0.0
 11
188.5857639999998
 21
85.06089800000002
 31
0.0
  0
LINE
  5
1F6
330
159
100
AcDbEntity
  8
RMF
  6
Continuous
 62
     9
100
AcDbLine
 10
188.6763609999998
 20
85.06089800000002
 30
0.0
 11
188.9263129999999
 21
85.06089800000002
 31
0.0
  0
LINE
  5
1F7
330
159
100
AcDbEntity
  8
RMF
  6
Continuous
 62
     9
100
AcDbLine
 10
187.2227899999999
 20
85.36089800000002
 30
0.0
 11
187.5102679999998
 21
85.36089800000002
 31
0.0
  0
LINE
  5
1F8
330
159
100
AcDbEntity
  8
RMF
  6
Continuous
 62
     9
100
AcDbLine
 10
188.5584929999998
 20
85.36089800000002
 30
0.0
 11
188.9235529999999
 21
85.36089800000002
 31
0.0
  0
LINE
  5
1F9
330
159
100
AcDbEntity
  8
RMF
  6
Continuous
 62
     9
100
AcDbLine
 10
187.1973429999998
 20
85.66089800000002
 30
0.0
 11
187.4716879999998
 21
85.66089800000002
 31
0.0
  0
LINE
  5
1FA
330
159
100
AcDbEntity
  8
RMF
  6
Continuous
 62
     9
100
AcDbLine
 10
188.6411729999998
 20
85.66089800000002
 30
0.0
 11
188.9235529999999
 21
85.66089800000002
 31
0.0
  0
LINE
  5
1FB
330
159
100
AcDbEntity
  8
RMF
  6
Continuous
 62
     9
100
AcDbLine
 10
187.1973429999998
 20
85.96089800000001
 30
0.0
 11
187.4706109999998
 21
85.96089800000001
 31
0.0
  0
LINE
  5
1FC
330
159
100
AcDbEntity
  8
RMF
  6
Continuous
 62
     9
100
AcDbLine
 10
188.6502849999998
 20
85.96089800000001
 30
0.0
 11
188.9235529999999
 21
85.96089800000001
 31
0.0
  0
LINE
  5
1FD
330
159
100
AcDbEntity
  8
RMF
  6
Continuous
 62
     9
100
AcDbLine
 10
187.1973429999998
 20
86.260898
 30
0.0
 11
187.4706109999998
 21
86.260898
 31
0.0
  0
LINE
  5
1FE
330
159
100
AcDbEntity
  8
RMF
  6
Continuous
 62
     9
100
AcDbLine
 10
188.6502849999998
 20
86.260898
 30
0.0
 11
188.9235529999999
 21
86.260898
 31
0.0
  0
LINE
  5
1FF
330
159
100
AcDbEntity
  8
RMF
  6
Continuous
 62
     9
100
AcDbLine
 10
187.1973429999998
 20
86.56089800000002
 30
0.0
 11
187.4706109999998
 21
86.56089800000002
 31
0.0
  0
LINE
  5
200
330
159
100
AcDbEntity
  8
RMF
  6
Continuous
 62
     9
100
AcDbLine
 10
188.6502849999998
 20
86.56089800000002
 30
0.0
 11
188.9235529999999
 21
86.56089800000002
 31
0.0
  0
LINE
  5
201
330
159
100
AcDbEntity
  8
RMF
  6
Continuous
 62
     9
100
AcDbLine
 10
187.1973429999998
 20
86.86089800000002
 30
0.0
 11
187.4706109999998
 21
86.86089800000002
 31
0.0
  0
LINE
  5
202
330
159
100
AcDbEntity
  8
RMF
  6
Continuous
 62
     9
100
AcDbLine
 10
188.6502849999998
 20
86.86089800000002
 30
0.0
 11
188.9235529999999
 21
86.86089800000002
 31
0.0
  0
LINE
  5
203
330
159
100
AcDbEntity
  8
RMF
  6
Continuous
 62
     9
100
AcDbLine
 10
190.4348989999998
 20
85.06089800000002
 30
0.0
 11
190.7602929999998
 21
85.06089800000002
 31
0.0
  0
LINE
  5
204
330
159
100
AcDbEntity
  8
RMF
  6
Continuous
 62
     9
100
AcDbLine
 10
190.3940089999998
 20
85.36089800000002
 30
0.0
 11
190.6629159999999
 21
85.36089800000002
 31
0.0
  0
LINE
  5
205
330
159
100
AcDbEntity
  8
RMF
  6
Continuous
 62
     9
100
AcDbLine
 10
190.3897449999998
 20
85.66089800000002
 30
0.0
 11
190.6629069999998
 21
85.66089800000002
 31
0.0
  0
LINE
  5
206
330
159
100
AcDbEntity
  8
RMF
  6
Continuous
 62
     9
100
AcDbLine
 10
190.3897449999998
 20
85.96089800000001
 30
0.0
 11
190.6629069999998
 21
85.96089800000001
 31
0.0
  0
LINE
  5
207
330
159
100
AcDbEntity
  8
RMF
  6
Continuous
 62
     9
100
AcDbLine
 10
190.3897449999998
 20
86.260898
 30
0.0
 11
190.6629069999998
 21
86.260898
 31
0.0
  0
LINE
  5
208
330
159
100
AcDbEntity
  8
RMF
  6
Continuous
 62
     9
100
AcDbLine
 10
190.3897449999998
 20
86.56089800000002
 30
0.0
 11
190.6629069999998
 21
86.56089800000002
 31
0.0
  0
LINE
  5
209
330
159
100
AcDbEntity
  8
RMF
  6
Continuous
 62
     9
100
AcDbLine
 10
189.9558869999998
 20
86.86089800000002
 30
0.0
 11
191.1659829999998
 21
86.86089800000002
 31
0.0
  0
LINE
  5
20A
330
159
100
AcDbEntity
  8
RMF
  6
Continuous
 62
     9
100
AcDbLine
 10
190.3897449999998
 20
87.16089800000002
 30
0.0
 11
190.6629069999998
 21
87.16089800000002
 31
0.0
  0
LINE
  5
20B
330
159
100
AcDbEntity
  8
RMF
  6
Continuous
 62
     9
100
AcDbLine
 10
190.3897449999998
 20
87.46089800000001
 30
0.0
 11
190.6629069999998
 21
87.46089800000001
 31
0.0
  0
LINE
  5
20C
330
159
100
AcDbEntity
  8
RMF
  6
Continuous
 62
     9
100
AcDbLine
 10
192.2591609999998
 20
85.11315599999999
 30
0.0
 11
192.5324289999998
 21
85.11315599999999
 31
0.0
  0
LINE
  5
20D
330
159
100
AcDbEntity
  8
RMF
  6
Continuous
 62
     9
100
AcDbLine
 10
192.2591609999998
 20
85.41315600000001
 30
0.0
 11
192.5324289999998
 21
85.41315600000001
 31
0.0
  0
LINE
  5
20E
330
159
100
AcDbEntity
  8
RMF
  6
Continuous
 62
     9
100
AcDbLine
 10
192.2591609999998
 20
85.71315600000001
 30
0.0
 11
192.5324289999998
 21
85.71315600000001
 31
0.0
  0
LINE
  5
20F
330
159
100
AcDbEntity
  8
RMF
  6
Continuous
 62
     9
100
AcDbLine
 10
192.2591609999998
 20
86.01315600000001
 30
0.0
 11
192.5324289999998
 21
86.01315600000001
 31
0.0
  0
LINE
  5
210
330
159
100
AcDbEntity
  8
RMF
  6
Continuous
 62
     9
100
AcDbLine
 10
192.2591609999998
 20
86.313156
 30
0.0
 11
192.5324289999998
 21
86.313156
 31
0.0
  0
LINE
  5
211
330
159
100
AcDbEntity
  8
RMF
  6
Continuous
 62
     9
100
AcDbLine
 10
192.2591609999998
 20
86.613156
 30
0.0
 11
192.5324289999998
 21
86.613156
 31
0.0
  0
LINE
  5
212
330
159
100
AcDbEntity
  8
RMF
  6
Continuous
 62
     9
100
AcDbLine
 10
192.2591609999998
 20
86.91315600000001
 30
0.0
 11
192.5324289999998
 21
86.91315600000001
 31
0.0
  0
LINE
  5
213
330
159
100
AcDbEntity
  8
RMF
  6
Continuous
 62
     9
100
AcDbLine
 10
196.8395269999999
 20
85.11315599999999
 30
0.0
 11
197.1127949999998
 21
85.11315599999999
 31
0.0
  0
LINE
  5
214
330
159
100
AcDbEntity
  8
RMF
  6
Continuous
 62
     9
100
AcDbLine
 10
198.2924689999999
 20
85.11315599999999
 30
0.0
 11
198.5657369999998
 21
85.11315599999999
 31
0.0
  0
LINE
  5
215
330
159
100
AcDbEntity
  8
RMF
  6
Continuous
 62
     9
100
AcDbLine
 10
196.8395269999999
 20
85.41315600000001
 30
0.0
 11
197.1127949999998
 21
85.41315600000001
 31
0.0
  0
LINE
  5
216
330
159
100
AcDbEntity
  8
RMF
  6
Continuous
 62
     9
100
AcDbLine
 10
198.2924689999999
 20
85.41315600000001
 30
0.0
 11
198.5657369999998
 21
85.41315600000001
 31
0.0
  0
LINE
  5
217
330
159
100
AcDbEntity
  8
RMF
  6
Continuous
 62
     9
100
AcDbLine
 10
196.8395269999999
 20
85.71315600000001
 30
0.0
 11
197.1127949999998
 21
85.71315600000001
 31
0.0
  0
LINE
  5
218
330
159
100
AcDbEntity
  8
RMF
  6
Continuous
 62
     9
100
AcDbLine
 10
198.2924689999999
 20
85.71315600000001
 30
0.0
 11
198.5657369999998
 21
85.71315600000001
 31
0.0
  0
LINE
  5
219
330
159
100
AcDbEntity
  8
RMF
  6
Continuous
 62
     9
100
AcDbLine
 10
196.8395269999999
 20
86.01315600000001
 30
0.0
 11
197.1127949999998
 21
86.01315600000001
 31
0.0
  0
LINE
  5
21A
330
159
100
AcDbEntity
  8
RMF
  6
Continuous
 62
     9
100
AcDbLine
 10
198.2924689999999
 20
86.01315600000001
 30
0.0
 11
198.5657369999998
 21
86.01315600000001
 31
0.0
  0
LINE
  5
21B
330
159
100
AcDbEntity
  8
RMF
  6
Continuous
 62
     9
100
AcDbLine
 10
196.8395269999999
 20
86.313156
 30
0.0
 11
197.1465229999998
 21
86.313156
 31
0.0
  0
LINE
  5
21C
330
159
100
AcDbEntity
  8
RMF
  6
Continuous
 62
     9
100
AcDbLine
 10
198.2850339999998
 20
86.313156
 30
0.0
 11
198.5606309999998
 21
86.313156
 31
0.0
  0
LINE
  5
21D
330
159
100
AcDbEntity
  8
RMF
  6
Continuous
 62
     9
100
AcDbLine
 10
196.8395269999999
 20
86.613156
 30
0.0
 11
197.2780809999998
 21
86.613156
 31
0.0
  0
LINE
  5
21E
330
159
100
AcDbEntity
  8
RMF
  6
Continuous
 62
     9
100
AcDbLine
 10
198.2015379999999
 20
86.613156
 30
0.0
 11
198.5073309999999
 21
86.613156
 31
0.0
  0
LINE
  5
21F
330
159
100
AcDbEntity
  8
RMF
  6
Continuous
 62
     9
100
AcDbLine
 10
196.8353729999998
 20
86.91315600000001
 30
0.0
 11
197.0867189999998
 21
86.91315600000001
 31
0.0
  0
LINE
  5
220
330
159
100
AcDbEntity
  8
RMF
  6
Continuous
 62
     9
100
AcDbLine
 10
197.2909139999999
 20
86.91315600000001
 30
0.0
 11
198.3186979999998
 21
86.91315600000001
 31
0.0
  0
LINE
  5
221
330
159
100
AcDbEntity
  8
RMF
  6
Continuous
 62
     9
100
AcDbLine
 10
199.6808739999998
 20
85.06089800000002
 30
0.0
 11
199.8689699999998
 21
85.06089800000002
 31
0.0
  0
LINE
  5
222
330
159
100
AcDbEntity
  8
RMF
  6
Continuous
 62
     9
100
AcDbLine
 10
200.5474859999998
 20
85.06089800000002
 30
0.0
 11
200.9575269999998
 21
85.06089800000002
 31
0.0
  0
LINE
  5
223
330
159
100
AcDbEntity
  8
RMF
  6
Continuous
 62
     9
100
AcDbLine
 10
200.7488289999998
 20
85.36089800000002
 30
0.0
 11
201.0481119999998
 21
85.36089800000002
 31
0.0
  0
LINE
  5
224
330
159
100
AcDbEntity
  8
RMF
  6
Continuous
 62
     9
100
AcDbLine
 10
200.6159309999998
 20
85.66089800000002
 30
0.0
 11
201.0070949999998
 21
85.66089800000002
 31
0.0
  0
LINE
  5
225
330
159
100
AcDbEntity
  8
RMF
  6
Continuous
 62
     9
100
AcDbLine
 10
200.0923249999998
 20
85.96089800000001
 30
0.0
 11
200.6555779999998
 21
85.96089800000001
 31
0.0
  0
LINE
  5
226
330
159
100
AcDbEntity
  8
RMF
  6
Continuous
 62
     9
100
AcDbLine
 10
199.7454309999998
 20
86.260898
 30
0.0
 11
200.1235729999998
 21
86.260898
 31
0.0
  0
LINE
  5
227
330
159
100
AcDbEntity
  8
RMF
  6
Continuous
 62
     9
100
AcDbLine
 10
199.6966289999999
 20
86.56089800000002
 30
0.0
 11
199.9693549999998
 21
86.56089800000002
 31
0.0
  0
LINE
  5
228
330
159
100
AcDbEntity
  8
RMF
  6
Continuous
 62
     9
100
AcDbLine
 10
199.8165049999998
 20
86.86089800000002
 30
0.0
 11
200.9424329999998
 21
86.86089800000002
 31
0.0
  0
LINE
  5
229
330
159
100
AcDbEntity
  8
RMF
  6
Continuous
 62
     4
100
AcDbLine
 10
168.6496739999998
 20
80.03331400000002
 30
0.0
 11
172.3661279999998
 21
80.03331400000002
 31
0.0
  0
LINE
  5
22A
330
159
100
AcDbEntity
  8
RMF
  6
Continuous
 62
     4
100
AcDbLine
 10
167.9360249999998
 20
80.33331400000002
 30
0.0
 11
173.1342879999998
 21
80.33331400000002
 31
0.0
  0
LINE
  5
22B
330
159
100
AcDbEntity
  8
RMF
  6
Continuous
 62
     4
100
AcDbLine
 10
167.2558899999998
 20
80.63331400000001
 30
0.0
 11
173.7695719999998
 21
80.63331400000001
 31
0.0
  0
LINE
  5
22C
330
159
100
AcDbEntity
  8
RMF
  6
Continuous
 62
     4
100
AcDbLine
 10
166.8669819999998
 20
80.93331400000001
 30
0.0
 11
174.1800059999998
 21
80.93331400000001
 31
0.0
  0
LINE
  5
22D
330
159
100
AcDbEntity
  8
RMF
  6
Continuous
 62
     4
100
AcDbLine
 10
166.4780749999998
 20
81.23331400000001
 30
0.0
 11
174.5904399999998
 21
81.23331400000001
 31
0.0
  0
LINE
  5
22E
330
159
100
AcDbEntity
  8
RMF
  6
Continuous
 62
     4
100
AcDbLine
 10
166.0891669999998
 20
81.53331400000002
 30
0.0
 11
174.9755589999998
 21
81.53331400000002
 31
0.0
  0
LINE
  5
22F
330
159
100
AcDbEntity
  8
RMF
  6
Continuous
 62
     4
100
AcDbLine
 10
165.8235289999998
 20
81.83331400000002
 30
0.0
 11
175.2171729999998
 21
81.83331400000002
 31
0.0
  0
LINE
  5
230
330
159
100
AcDbEntity
  8
RMF
  6
Continuous
 62
     4
100
AcDbLine
 10
165.5945869999998
 20
82.13331400000001
 30
0.0
 11
175.4587869999998
 21
82.13331400000001
 31
0.0
  0
LINE
  5
231
330
159
100
AcDbEntity
  8
RMF
  6
Continuous
 62
     4
100
AcDbLine
 10
165.3656439999998
 20
82.43331400000001
 30
0.0
 11
175.7004019999998
 21
82.43331400000001
 31
0.0
  0
LINE
  5
232
330
159
100
AcDbEntity
  8
RMF
  6
Continuous
 62
     4
100
AcDbLine
 10
165.1367019999998
 20
82.73331400000001
 30
0.0
 11
175.9420159999998
 21
82.73331400000001
 31
0.0
  0
LINE
  5
233
330
159
100
AcDbEntity
  8
RMF
  6
Continuous
 62
     4
100
AcDbLine
 10
164.9565099999998
 20
83.03331399999999
 30
0.0
 11
176.0822769999998
 21
83.03331399999999
 31
0.0
  0
LINE
  5
234
330
159
100
AcDbEntity
  8
RMF
  6
Continuous
 62
     4
100
AcDbLine
 10
164.8341839999998
 20
83.33331400000002
 30
0.0
 11
176.2139459999999
 21
83.33331400000002
 31
0.0
  0
LINE
  5
235
330
159
100
AcDbEntity
  8
RMF
  6
Continuous
 62
     4
100
AcDbLine
 10
164.7118579999998
 20
83.63331400000001
 30
0.0
 11
176.3456149999998
 21
83.63331400000001
 31
0.0
  0
LINE
  5
236
330
159
100
AcDbEntity
  8
RMF
  6
Continuous
 62
     4
100
AcDbLine
 10
164.5895329999998
 20
83.93331400000001
 30
0.0
 11
170.6428959999998
 21
83.93331400000001
 31
0.0
  0
LINE
  5
237
330
159
100
AcDbEntity
  8
RMF
  6
Continuous
 62
     4
100
AcDbLine
 10
171.3667609999998
 20
83.93331400000001
 30
0.0
 11
176.4772849999998
 21
83.93331400000001
 31
0.0
  0
LINE
  5
238
330
159
100
AcDbEntity
  8
RMF
  6
Continuous
 62
     4
100
AcDbLine
 10
164.4672069999998
 20
84.23331400000001
 30
0.0
 11
165.5201309999999
 21
84.23331400000001
 31
0.0
  0
LINE
  5
239
330
159
100
AcDbEntity
  8
RMF
  6
Continuous
 62
     4
100
AcDbLine
 10
168.5603839999998
 20
84.23331400000001
 30
0.0
 11
169.7896569999998
 21
84.23331400000001
 31
0.0
  0
LINE
  5
23A
330
159
100
AcDbEntity
  8
RMF
  6
Continuous
 62
     4
100
AcDbLine
 10
172.1745499999998
 20
84.23331400000001
 30
0.0
 11
174.2546369999998
 21
84.23331400000001
 31
0.0
  0
LINE
  5
23B
330
159
100
AcDbEntity
  8
RMF
  6
Continuous
 62
     4
100
AcDbLine
 10
174.9835989999998
 20
84.23331400000001
 30
0.0
 11
176.6089539999998
 21
84.23331400000001
 31
0.0
  0
LINE
  5
23C
330
159
100
AcDbEntity
  8
RMF
  6
Continuous
 62
     4
100
AcDbLine
 10
164.3841989999998
 20
84.533314
 30
0.0
 11
165.5201309999999
 21
84.533314
 31
0.0
  0
LINE
  5
23D
330
159
100
AcDbEntity
  8
RMF
  6
Continuous
 62
     4
100
AcDbLine
 10
168.8321789999998
 20
84.533314
 30
0.0
 11
169.3974869999998
 21
84.533314
 31
0.0
  0
LINE
  5
23E
330
159
100
AcDbEntity
  8
RMF
  6
Continuous
 62
     4
100
AcDbLine
 10
172.5041479999998
 20
84.533314
 30
0.0
 11
174.2546369999998
 21
84.533314
 31
0.0
  0
LINE
  5
23F
330
159
100
AcDbEntity
  8
RMF
  6
Continuous
 62
     4
100
AcDbLine
 10
174.9835989999998
 20
84.533314
 30
0.0
 11
176.6555299999998
 21
84.533314
 31
0.0
  0
LINE
  5
240
330
159
100
AcDbEntity
  8
RMF
  6
Continuous
 62
     4
100
AcDbLine
 10
164.3478919999998
 20
84.83331400000002
 30
0.0
 11
165.5201309999999
 21
84.83331400000002
 31
0.0
  0
LINE
  5
241
330
159
100
AcDbEntity
  8
RMF
  6
Continuous
 62
     4
100
AcDbLine
 10
168.9511769999998
 20
84.83331400000002
 30
0.0
 11
169.5420079999998
 21
84.83331400000002
 31
0.0
  0
LINE
  5
242
330
159
100
AcDbEntity
  8
RMF
  6
Continuous
 62
     4
100
AcDbLine
 10
170.1994239999998
 20
84.83331400000002
 30
0.0
 11
171.8330199999998
 21
84.83331400000002
 31
0.0
  0
LINE
  5
243
330
159
100
AcDbEntity
  8
RMF
  6
Continuous
 62
     4
100
AcDbLine
 10
172.6671009999998
 20
84.83331400000002
 30
0.0
 11
174.2546369999998
 21
84.83331400000002
 31
0.0
  0
LINE
  5
244
330
159
100
AcDbEntity
  8
RMF
  6
Continuous
 62
     4
100
AcDbLine
 10
174.9835989999998
 20
84.83331400000002
 30
0.0
 11
176.6999509999998
 21
84.83331400000002
 31
0.0
  0
LINE
  5
245
330
159
100
AcDbEntity
  8
RMF
  6
Continuous
 62
     4
100
AcDbLine
 10
164.3115849999998
 20
85.13331400000001
 30
0.0
 11
165.5201309999999
 21
85.13331400000001
 31
0.0
  0
LINE
  5
246
330
159
100
AcDbEntity
  8
RMF
  6
Continuous
 62
     4
100
AcDbLine
 10
168.9809319999998
 20
85.13331400000001
 30
0.0
 11
171.9633279999998
 21
85.13331400000001
 31
0.0
  0
LINE
  5
247
330
159
100
AcDbEntity
  8
RMF
  6
Continuous
 62
     4
100
AcDbLine
 10
172.7259439999998
 20
85.13331400000001
 30
0.0
 11
174.2546369999998
 21
85.13331400000001
 31
0.0
  0
LINE
  5
248
330
159
100
AcDbEntity
  8
RMF
  6
Continuous
 62
     4
100
AcDbLine
 10
174.9835989999998
 20
85.13331400000001
 30
0.0
 11
176.7443709999998
 21
85.13331400000001
 31
0.0
  0
LINE
  5
249
330
159
100
AcDbEntity
  8
RMF
  6
Continuous
 62
     4
100
AcDbLine
 10
164.2752789999998
 20
85.43331400000001
 30
0.0
 11
165.5201309999999
 21
85.43331400000001
 31
0.0
  0
LINE
  5
24A
330
159
100
AcDbEntity
  8
RMF
  6
Continuous
 62
     4
100
AcDbLine
 10
168.9362099999998
 20
85.43331400000001
 30
0.0
 11
171.7767239999998
 21
85.43331400000001
 31
0.0
  0
LINE
  5
24B
330
159
100
AcDbEntity
  8
RMF
  6
Continuous
 62
     4
100
AcDbLine
 10
172.7158909999999
 20
85.43331400000001
 30
0.0
 11
174.2546369999998
 21
85.43331400000001
 31
0.0
  0
LINE
  5
24C
330
159
100
AcDbEntity
  8
RMF
  6
Continuous
 62
     4
100
AcDbLine
 10
174.9835989999998
 20
85.43331400000001
 30
0.0
 11
176.7887909999998
 21
85.43331400000001
 31
0.0
  0
LINE
  5
24D
330
159
100
AcDbEntity
  8
RMF
  6
Continuous
 62
     4
100
AcDbLine
 10
164.2389719999998
 20
85.73331400000001
 30
0.0
 11
165.0488549999998
 21
85.73331400000001
 31
0.0
  0
LINE
  5
24E
330
159
100
AcDbEntity
  8
RMF
  6
Continuous
 62
     4
100
AcDbLine
 10
168.7722869999998
 20
85.73331400000001
 30
0.0
 11
170.6461889999999
 21
85.73331400000001
 31
0.0
  0
LINE
  5
24F
330
159
100
AcDbEntity
  8
RMF
  6
Continuous
 62
     4
100
AcDbLine
 10
172.6443419999998
 20
85.73331400000001
 30
0.0
 11
174.2546369999998
 21
85.73331400000001
 31
0.0
  0
LINE
  5
250
330
159
100
AcDbEntity
  8
RMF
  6
Continuous
 62
     4
100
AcDbLine
 10
174.9835989999998
 20
85.73331400000001
 30
0.0
 11
176.8332109999998
 21
85.73331400000001
 31
0.0
  0
LINE
  5
251
330
159
100
AcDbEntity
  8
RMF
  6
Continuous
 62
     4
100
AcDbLine
 10
164.2102199999999
 20
86.033314
 30
0.0
 11
165.0488549999998
 21
86.033314
 31
0.0
  0
LINE
  5
252
330
159
100
AcDbEntity
  8
RMF
  6
Continuous
 62
     4
100
AcDbLine
 10
168.3382779999998
 20
86.033314
 30
0.0
 11
169.6714529999998
 21
86.033314
 31
0.0
  0
LINE
  5
253
330
159
100
AcDbEntity
  8
RMF
  6
Continuous
 62
     4
100
AcDbLine
 10
172.3647369999998
 20
86.033314
 30
0.0
 11
174.2546369999998
 21
86.033314
 31
0.0
  0
LINE
  5
254
330
159
100
AcDbEntity
  8
RMF
  6
Continuous
 62
     4
100
AcDbLine
 10
174.9835989999998
 20
86.033314
 30
0.0
 11
176.8341839999999
 21
86.033314
 31
0.0
  0
LINE
  5
255
330
159
100
AcDbEntity
  8
RMF
  6
Continuous
 62
     4
100
AcDbLine
 10
164.2549849999998
 20
86.333314
 30
0.0
 11
165.5201309999999
 21
86.333314
 31
0.0
  0
LINE
  5
256
330
159
100
AcDbEntity
  8
RMF
  6
Continuous
 62
     4
100
AcDbLine
 10
168.6092999999998
 20
86.333314
 30
0.0
 11
169.4872139999998
 21
86.333314
 31
0.0
  0
LINE
  5
257
330
159
100
AcDbEntity
  8
RMF
  6
Continuous
 62
     4
100
AcDbLine
 10
171.0896229999998
 20
86.333314
 30
0.0
 11
174.2546369999998
 21
86.333314
 31
0.0
  0
LINE
  5
258
330
159
100
AcDbEntity
  8
RMF
  6
Continuous
 62
     4
100
AcDbLine
 10
174.9835989999998
 20
86.333314
 30
0.0
 11
176.7940189999998
 21
86.333314
 31
0.0
  0
LINE
  5
259
330
159
100
AcDbEntity
  8
RMF
  6
Continuous
 62
     4
100
AcDbLine
 10
164.2997499999998
 20
86.63331400000001
 30
0.0
 11
165.5201309999999
 21
86.63331400000001
 31
0.0
  0
LINE
  5
25A
330
159
100
AcDbEntity
  8
RMF
  6
Continuous
 62
     4
100
AcDbLine
 10
168.7419739999998
 20
86.63331400000001
 30
0.0
 11
169.4329719999998
 21
86.63331400000001
 31
0.0
  0
LINE
  5
25B
330
159
100
AcDbEntity
  8
RMF
  6
Continuous
 62
     4
100
AcDbLine
 10
170.2756359999998
 20
86.63331400000001
 30
0.0
 11
174.2546369999998
 21
86.63331400000001
 31
0.0
  0
LINE
  5
25C
330
159
100
AcDbEntity
  8
RMF
  6
Continuous
 62
     4
100
AcDbLine
 10
174.9835989999998
 20
86.63331400000001
 30
0.0
 11
176.7538539999998
 21
86.63331400000001
 31
0.0
  0
LINE
  5
25D
330
159
100
AcDbEntity
  8
RMF
  6
Continuous
 62
     4
100
AcDbLine
 10
164.3445139999998
 20
86.93331400000001
 30
0.0
 11
165.5201309999999
 21
86.93331400000001
 31
0.0
  0
LINE
  5
25E
330
159
100
AcDbEntity
  8
RMF
  6
Continuous
 62
     4
100
AcDbLine
 10
168.7533279999998
 20
86.93331400000001
 30
0.0
 11
169.4412609999998
 21
86.93331400000001
 31
0.0
  0
LINE
  5
25F
330
159
100
AcDbEntity
  8
RMF
  6
Continuous
 62
     4
100
AcDbLine
 10
170.2092889999998
 20
86.93331400000001
 30
0.0
 11
172.0250579999998
 21
86.93331400000001
 31
0.0
  0
LINE
  5
260
330
159
100
AcDbEntity
  8
RMF
  6
Continuous
 62
     4
100
AcDbLine
 10
172.1493669999998
 20
86.93331400000001
 30
0.0
 11
174.2546369999998
 21
86.93331400000001
 31
0.0
  0
LINE
  5
261
330
159
100
AcDbEntity
  8
RMF
  6
Continuous
 62
     4
100
AcDbLine
 10
174.9835989999998
 20
86.93331400000001
 30
0.0
 11
176.7136889999998
 21
86.93331400000001
 31
0.0
  0
LINE
  5
262
330
159
100
AcDbEntity
  8
RMF
  6
Continuous
 62
     4
100
AcDbLine
 10
164.3892789999998
 20
87.23331400000001
 30
0.0
 11
165.5201309999999
 21
87.23331400000001
 31
0.0
  0
LINE
  5
263
330
159
100
AcDbEntity
  8
RMF
  6
Continuous
 62
     4
100
AcDbLine
 10
168.6904239999998
 20
87.23331400000001
 30
0.0
 11
169.5375059999998
 21
87.23331400000001
 31
0.0
  0
LINE
  5
264
330
159
100
AcDbEntity
  8
RMF
  6
Continuous
 62
     4
100
AcDbLine
 10
170.4832049999998
 20
87.23331400000001
 30
0.0
 11
171.5719649999998
 21
87.23331400000001
 31
0.0
  0
LINE
  5
265
330
159
100
AcDbEntity
  8
RMF
  6
Continuous
 62
     4
100
AcDbLine
 10
172.4900659999998
 20
87.23331400000001
 30
0.0
 11
173.0983889999998
 21
87.23331400000001
 31
0.0
  0
LINE
  5
266
330
159
100
AcDbEntity
  8
RMF
  6
Continuous
 62
     4
100
AcDbLine
 10
176.1398469999999
 20
87.23331400000001
 30
0.0
 11
176.6735229999998
 21
87.23331400000001
 31
0.0
  0
LINE
  5
267
330
159
100
AcDbEntity
  8
RMF
  6
Continuous
 62
     4
100
AcDbLine
 10
164.4340429999998
 20
87.533314
 30
0.0
 11
165.5201309999999
 21
87.533314
 31
0.0
  0
LINE
  5
268
330
159
100
AcDbEntity
  8
RMF
  6
Continuous
 62
     4
100
AcDbLine
 10
168.4922269999998
 20
87.533314
 30
0.0
 11
169.7986629999998
 21
87.533314
 31
0.0
  0
LINE
  5
269
330
159
100
AcDbEntity
  8
RMF
  6
Continuous
 62
     4
100
AcDbLine
 10
172.4064649999998
 20
87.533314
 30
0.0
 11
173.0983889999998
 21
87.533314
 31
0.0
  0
LINE
  5
26A
330
159
100
AcDbEntity
  8
RMF
  6
Continuous
 62
     4
100
AcDbLine
 10
176.1398469999999
 20
87.533314
 30
0.0
 11
176.6276719999998
 21
87.533314
 31
0.0
  0
LINE
  5
26B
330
159
100
AcDbEntity
  8
RMF
  6
Continuous
 62
     4
100
AcDbLine
 10
164.5459709999998
 20
87.833314
 30
0.0
 11
165.5201309999999
 21
87.833314
 31
0.0
  0
LINE
  5
26C
330
159
100
AcDbEntity
  8
RMF
  6
Continuous
 62
     4
100
AcDbLine
 10
167.9243289999998
 20
87.833314
 30
0.0
 11
170.3396409999998
 21
87.833314
 31
0.0
  0
LINE
  5
26D
330
159
100
AcDbEntity
  8
RMF
  6
Continuous
 62
     4
100
AcDbLine
 10
171.8108819999998
 20
87.833314
 30
0.0
 11
173.0983889999998
 21
87.833314
 31
0.0
  0
LINE
  5
26E
330
159
100
AcDbEntity
  8
RMF
  6
Continuous
 62
     4
100
AcDbLine
 10
176.1398469999999
 20
87.833314
 30
0.0
 11
176.5013599999998
 21
87.833314
 31
0.0
  0
LINE
  5
26F
330
159
100
AcDbEntity
  8
RMF
  6
Continuous
 62
     4
100
AcDbLine
 10
164.6775949999999
 20
88.13331399999998
 30
0.0
 11
176.3750479999998
 21
88.13331399999998
 31
0.0
  0
LINE
  5
270
330
159
100
AcDbEntity
  8
RMF
  6
Continuous
 62
     4
100
AcDbLine
 10
164.8092179999998
 20
88.43331400000001
 30
0.0
 11
176.2487359999998
 21
88.43331400000001
 31
0.0
  0
LINE
  5
271
330
159
100
AcDbEntity
  8
RMF
  6
Continuous
 62
     4
100
AcDbLine
 10
164.9408409999998
 20
88.73331400000001
 30
0.0
 11
176.1224239999998
 21
88.73331400000001
 31
0.0
  0
LINE
  5
272
330
159
100
AcDbEntity
  8
RMF
  6
Continuous
 62
     4
100
AcDbLine
 10
165.0724649999998
 20
89.033314
 30
0.0
 11
175.9841219999998
 21
89.033314
 31
0.0
  0
LINE
  5
273
330
159
100
AcDbEntity
  8
RMF
  6
Continuous
 62
     4
100
AcDbLine
 10
165.2969499999998
 20
89.333314
 30
0.0
 11
175.7503979999998
 21
89.333314
 31
0.0
  0
LINE
  5
274
330
159
100
AcDbEntity
  8
RMF
  6
Continuous
 62
     4
100
AcDbLine
 10
165.5378919999999
 20
89.633314
 30
0.0
 11
175.5166729999999
 21
89.633314
 31
0.0
  0
LINE
  5
275
330
159
100
AcDbEntity
  8
RMF
  6
Continuous
 62
     4
100
AcDbLine
 10
165.7788349999998
 20
89.93331400000001
 30
0.0
 11
175.2829479999998
 21
89.93331400000001
 31
0.0
  0
LINE
  5
276
330
159
100
AcDbEntity
  8
RMF
  6
Continuous
 62
     4
100
AcDbLine
 10
166.0197769999998
 20
90.23331400000001
 30
0.0
 11
175.0492229999998
 21
90.23331400000001
 31
0.0
  0
LINE
  5
277
330
159
100
AcDbEntity
  8
RMF
  6
Continuous
 62
     4
100
AcDbLine
 10
166.3672119999998
 20
90.533314
 30
0.0
 11
174.6775279999998
 21
90.533314
 31
0.0
  0
LINE
  5
278
330
159
100
AcDbEntity
  8
RMF
  6
Continuous
 62
     4
100
AcDbLine
 10
166.7754449999998
 20
90.833314
 30
0.0
 11
174.2815719999998
 21
90.833314
 31
0.0
  0
LINE
  5
279
330
159
100
AcDbEntity
  8
RMF
  6
Continuous
 62
     4
100
AcDbLine
 10
167.1836779999998
 20
91.133314
 30
0.0
 11
173.8856149999998
 21
91.133314
 31
0.0
  0
LINE
  5
27A
330
159
100
AcDbEntity
  8
RMF
  6
Continuous
 62
     4
100
AcDbLine
 10
167.7392039999998
 20
91.43331400000001
 30
0.0
 11
173.2999679999998
 21
91.43331400000001
 31
0.0
  0
LINE
  5
27B
330
159
100
AcDbEntity
  8
RMF
  6
Continuous
 62
     4
100
AcDbLine
 10
168.4989489999998
 20
91.73331400000001
 30
0.0
 11
172.5713229999998
 21
91.73331400000001
 31
0.0
  0
LINE
  5
27C
330
159
100
AcDbEntity
  8
RMF
  6
Continuous
 62
     4
100
AcDbLine
 10
169.9714279999998
 20
92.033314
 30
0.0
 11
171.1120279999998
 21
92.033314
 31
0.0
  0
LINE
  5
27D
330
159
100
AcDbEntity
  8
RMF
  6
Continuous
 62
     4
100
AcDbLine
 10
166.2490929999998
 20
84.96549800000003
 30
0.0
 11
168.2154269999998
 21
84.96549800000003
 31
0.0
  0
LINE
  5
27E
330
159
100
AcDbEntity
  8
RMF
  6
Continuous
 62
     4
100
AcDbLine
 10
166.2490929999998
 20
85.26549800000002
 30
0.0
 11
168.2379649999998
 21
85.26549800000002
 31
0.0
  0
LINE
  5
27F
330
159
100
AcDbEntity
  8
RMF
  6
Continuous
 62
     4
100
AcDbLine
 10
166.2490929999998
 20
85.56549800000002
 30
0.0
 11
167.9907059999998
 21
85.56549800000002
 31
0.0
  0
LINE
  5
280
330
159
100
AcDbEntity
  8
RMF
  6
Continuous
 62
     4
100
AcDbLine
 10
166.2490929999998
 20
86.61581200000002
 30
0.0
 11
168.0108679999998
 21
86.61581200000002
 31
0.0
  0
LINE
  5
281
330
159
100
AcDbEntity
  8
RMF
  6
Continuous
 62
     4
100
AcDbLine
 10
166.2490929999998
 20
86.915812
 30
0.0
 11
168.0028739999998
 21
86.915812
 31
0.0
  0
LINE
  5
282
330
159
100
AcDbEntity
  8
RMF
  6
Continuous
 62
     9
100
AcDbLine
 10
193.9511299999999
 20
85.06089800000002
 30
0.0
 11
194.3798779999998
 21
85.06089800000002
 31
0.0
  0
LINE
  5
283
330
159
100
AcDbEntity
  8
RMF
  6
Continuous
 62
     9
100
AcDbLine
 10
194.9963039999998
 20
85.06089800000002
 30
0.0
 11
195.4230579999998
 21
85.06089800000002
 31
0.0
  0
LINE
  5
284
330
159
100
AcDbEntity
  8
RMF
  6
Continuous
 62
     9
100
AcDbLine
 10
193.7656139999998
 20
85.36089800000002
 30
0.0
 11
194.0849719999998
 21
85.36089800000002
 31
0.0
  0
LINE
  5
285
330
159
100
AcDbEntity
  8
RMF
  6
Continuous
 62
     9
100
AcDbLine
 10
195.2912109999998
 20
85.36089800000002
 30
0.0
 11
195.6093689999998
 21
85.36089800000002
 31
0.0
  0
LINE
  5
286
330
159
100
AcDbEntity
  8
RMF
  6
Continuous
 62
     9
100
AcDbLine
 10
193.6775389999999
 20
85.66089800000002
 30
0.0
 11
193.9811489999998
 21
85.66089800000002
 31
0.0
  0
LINE
  5
287
330
159
100
AcDbEntity
  8
RMF
  6
Continuous
 62
     9
100
AcDbLine
 10
195.3949719999998
 20
85.66089800000002
 30
0.0
 11
195.6981479999999
 21
85.66089800000002
 31
0.0
  0
LINE
  5
288
330
159
100
AcDbEntity
  8
RMF
  6
Continuous
 62
     9
100
AcDbLine
 10
193.6585109999998
 20
85.96089800000001
 30
0.0
 11
193.9574749999998
 21
85.96089800000001
 31
0.0
  0
LINE
  5
289
330
159
100
AcDbEntity
  8
RMF
  6
Continuous
 62
     9
100
AcDbLine
 10
195.4202569999998
 20
85.96089800000001
 30
0.0
 11
195.7195739999999
 21
85.96089800000001
 31
0.0
  0
LINE
  5
28A
330
159
100
AcDbEntity
  8
RMF
  6
Continuous
 62
     9
100
AcDbLine
 10
193.6955929999998
 20
86.260898
 30
0.0
 11
193.9971559999998
 21
86.260898
 31
0.0
  0
LINE
  5
28B
330
159
100
AcDbEntity
  8
RMF
  6
Continuous
 62
     9
100
AcDbLine
 10
195.3799089999998
 20
86.260898
 30
0.0
 11
195.6841849999998
 21
86.260898
 31
0.0
  0
LINE
  5
28C
330
159
100
AcDbEntity
  8
RMF
  6
Continuous
 62
     9
100
AcDbLine
 10
193.7990819999999
 20
86.56089800000002
 30
0.0
 11
194.1319169999998
 21
86.56089800000002
 31
0.0
  0
LINE
  5
28D
330
159
100
AcDbEntity
  8
RMF
  6
Continuous
 62
     9
100
AcDbLine
 10
195.2450779999998
 20
86.56089800000002
 30
0.0
 11
195.5765449999998
 21
86.56089800000002
 31
0.0
  0
LINE
  5
28E
330
159
100
AcDbEntity
  8
RMF
  6
Continuous
 62
     9
100
AcDbLine
 10
194.0306069999999
 20
86.86089800000002
 30
0.0
 11
195.3469239999998
 21
86.86089800000002
 31
0.0
  0
LINE
  5
28F
330
159
100
AcDbEntity
  8
RMF
  6
Continuous
 62
     9
100
AcDbLine
 10
182.7431139999998
 20
85.06089800000002
 30
0.0
 11
183.1718619999998
 21
85.06089800000002
 31
0.0
  0
LINE
  5
290
330
159
100
AcDbEntity
  8
RMF
  6
Continuous
 62
     9
100
AcDbLine
 10
183.7882879999998
 20
85.06089800000002
 30
0.0
 11
184.2150419999998
 21
85.06089800000002
 31
0.0
  0
LINE
  5
291
330
159
100
AcDbEntity
  8
RMF
  6
Continuous
 62
     9
100
AcDbLine
 10
182.5575979999998
 20
85.36089800000002
 30
0.0
 11
182.8769559999998
 21
85.36089800000002
 31
0.0
  0
LINE
  5
292
330
159
100
AcDbEntity
  8
RMF
  6
Continuous
 62
     9
100
AcDbLine
 10
184.0831949999998
 20
85.36089800000002
 30
0.0
 11
184.4013529999998
 21
85.36089800000002
 31
0.0
  0
LINE
  5
293
330
159
100
AcDbEntity
  8
RMF
  6
Continuous
 62
     9
100
AcDbLine
 10
182.4695229999999
 20
85.66089800000002
 30
0.0
 11
182.7731329999998
 21
85.66089800000002
 31
0.0
  0
LINE
  5
294
330
159
100
AcDbEntity
  8
RMF
  6
Continuous
 62
     9
100
AcDbLine
 10
184.1869559999998
 20
85.66089800000002
 30
0.0
 11
184.4901319999998
 21
85.66089800000002
 31
0.0
  0
LINE
  5
295
330
159
100
AcDbEntity
  8
RMF
  6
Continuous
 62
     9
100
AcDbLine
 10
182.4504949999998
 20
85.96089800000001
 30
0.0
 11
182.7494589999998
 21
85.96089800000001
 31
0.0
  0
LINE
  5
296
330
159
100
AcDbEntity
  8
RMF
  6
Continuous
 62
     9
100
AcDbLine
 10
184.2124379999998
 20
85.96089800000001
 30
0.0
 11
184.5117329999998
 21
85.96089800000001
 31
0.0
  0
LINE
  5
297
330
159
100
AcDbEntity
  8
RMF
  6
Continuous
 62
     9
100
AcDbLine
 10
182.4875769999998
 20
86.260898
 30
0.0
 11
182.7891399999998
 21
86.260898
 31
0.0
  0
LINE
  5
298
330
159
100
AcDbEntity
  8
RMF
  6
Continuous
 62
     9
100
AcDbLine
 10
184.1713839999998
 20
86.260898
 30
0.0
 11
184.4767549999998
 21
86.260898
 31
0.0
  0
LINE
  5
299
330
159
100
AcDbEntity
  8
RMF
  6
Continuous
 62
     9
100
AcDbLine
 10
182.5910659999999
 20
86.56089800000002
 30
0.0
 11
182.9239009999998
 21
86.56089800000002
 31
0.0
  0
LINE
  5
29A
330
159
100
AcDbEntity
  8
RMF
  6
Continuous
 62
     9
100
AcDbLine
 10
184.0369859999998
 20
86.56089800000002
 30
0.0
 11
184.3685609999998
 21
86.56089800000002
 31
0.0
  0
LINE
  5
29B
330
159
100
AcDbEntity
  8
RMF
  6
Continuous
 62
     9
100
AcDbLine
 10
182.8225909999998
 20
86.86089800000002
 30
0.0
 11
184.1389079999998
 21
86.86089800000002
 31
0.0
  0
ENDBLK
  5
15B
330
159
100
AcDbEntity
  8
0
100
AcDbBlockEnd
  0
BLOCK
  5
29E
330
29D
100
AcDbEntity
  8
0
100
AcDbBlockBegin
  2
View  0
 70
     0
 10
0.0
 20
0.0
 30
0.0
  3
View  0
  1

  0
LINE
  5
2A0
330
29D
100
AcDbEntity
  8
RMF
  6
Continuous
 62
     4
100
AcDbLine
 10
108.7563961278741
 20
120.5867239593222
 30
0.0
 11
108.7563961278741
 21
156.5867239593223
 31
0.0
  0
LINE
  5
2A1
330
29D
100
AcDbEntity
  8
RMF
  6
Continuous
 62
     4
100
AcDbLine
 10
154.0563961278741
 20
120.5867239593222
 30
0.0
 11
108.7563961278741
 21
120.5867239593222
 31
0.0
  0
LINE
  5
2A2
330
29D
100
AcDbEntity
  8
RMF
  6
Continuous
 62
     4
100
AcDbLine
 10
151.5563961278741
 20
123.0867239593222
 30
0.0
 11
151.5563961278741
 21
154.0867239593222
 31
0.0
  0
LINE
  5
2A3
330
29D
100
AcDbEntity
  8
RMF
  6
Continuous
 62
     4
100
AcDbLine
 10
151.5563961278741
 20
154.0867239593222
 30
0.0
 11
111.2563961278741
 21
154.0867239593222
 31
0.0
  0
LINE
  5
2A4
330
29D
100
AcDbEntity
  8
RMF
  6
Continuous
 62
     4
100
AcDbLine
 10
111.2563961278741
 20
123.0867239593222
 30
0.0
 11
151.5563961278741
 21
123.0867239593222
 31
0.0
  0
LINE
  5
2A5
330
29D
100
AcDbEntity
  8
RMF
  6
Continuous
 62
     4
100
AcDbLine
 10
154.0563961278741
 20
156.5867239593223
 30
0.0
 11
154.0563961278741
 21
120.5867239593222
 31
0.0
  0
LINE
  5
2A6
330
29D
100
AcDbEntity
  8
RMF
  6
Continuous
 62
     4
100
AcDbLine
 10
108.7563961278741
 20
156.5867239593223
 30
0.0
 11
154.0563961278741
 21
156.5867239593223
 31
0.0
  0
LINE
  5
2A7
330
29D
100
AcDbEntity
  8
RMF
  6
Continuous
 62
     4
100
AcDbLine
 10
111.2563961278741
 20
154.0867239593222
 30
0.0
 11
111.2563961278741
 21
123.0867239593222
 31
0.0
  0
LINE
  5
2A8
330
29D
100
AcDbEntity
  8
RMF
  6
Continuous
 62
     4
100
AcDbLine
 10
100.4063961278741
 20
120.5867239593222
 30
0.0
 11
100.4063961278741
 21
156.5867239593223
 31
0.0
  0
LINE
  5
2A9
330
29D
100
AcDbEntity
  8
RMF
  6
Continuous
 62
     4
100
AcDbLine
 10
108.7563961278741
 20
120.5867239593222
 30
0.0
 11
100.4063961278741
 21
120.5867239593222
 31
0.0
  0
LINE
  5
2AA
330
29D
100
AcDbEntity
  8
RMF
  6
Continuous
 62
     4
100
AcDbLine
 10
100.4063961278741
 20
156.5867239593223
 30
0.0
 11
108.7563961278741
 21
156.5867239593223
 31
0.0
  0
LINE
  5
2AB
330
29D
100
AcDbEntity
  8
RMF
  6
Continuous
 62
     4
100
AcDbLine
 10
162.4063961278741
 20
156.5867239593223
 30
0.0
 11
162.4063961278741
 21
120.5867239593222
 31
0.0
  0
LINE
  5
2AC
330
29D
100
AcDbEntity
  8
RMF
  6
Continuous
 62
     4
100
AcDbLine
 10
162.4063961278741
 20
120.5867239593222
 30
0.0
 11
154.0563961278741
 21
120.5867239593222
 31
0.0
  0
LINE
  5
2AD
330
29D
100
AcDbEntity
  8
RMF
  6
Continuous
 62
     4
100
AcDbLine
 10
154.0563961278741
 20
156.5867239593223
 30
0.0
 11
162.4063961278741
 21
156.5867239593223
 31
0.0
  0
CIRCLE
  5
2AE
330
29D
100
AcDbEntity
  8
RMF
  6
Continuous
 62
     4
100
AcDbCircle
 10
93.40639612787413
 20
130.1867239593223
 30
0.0
 40
2.000000000000002
  0
CIRCLE
  5
2AF
330
29D
100
AcDbEntity
  8
RMF
  6
Continuous
 62
     4
100
AcDbCircle
 10
93.40639612787413
 20
146.9867239593222
 30
0.0
 40
2.000000000000002
  0
CIRCLE
  5
2B0
330
29D
100
AcDbEntity
  8
RMF
  6
Continuous
 62
     4
100
AcDbCircle
 10
93.40639612787413
 20
141.3867239593222
 30
0.0
 40
2.000000000000002
  0
CIRCLE
  5
2B1
330
29D
100
AcDbEntity
  8
RMF
  6
Continuous
 62
     4
100
AcDbCircle
 10
93.40639612787413
 20
135.7867239593222
 30
0.0
 40
2.000000000000002
  0
CIRCLE
  5
2B2
330
29D
100
AcDbEntity
  8
RMF
  6
Continuous
 62
     4
100
AcDbCircle
 10
93.40639612787413
 20
124.5867239593222
 30
0.0
 40
2.000000000000002
  0
LINE
  5
2B3
330
29D
100
AcDbEntity
  8
RMF
  6
Continuous
 62
     4
100
AcDbLine
 10
86.40639612787413
 20
120.5867239593222
 30
0.0
 11
86.40639612787413
 21
156.5867239593223
 31
0.0
  0
CIRCLE
  5
2B4
330
29D
100
AcDbEntity
  8
RMF
  6
Continuous
 62
     4
100
AcDbCircle
 10
93.40639612787413
 20
152.5867239593222
 30
0.0
 40
2.000000000000002
  0
LINE
  5
2B5
330
29D
100
AcDbEntity
  8
RMF
  6
Continuous
 62
     4
100
AcDbLine
 10
100.4063961278741
 20
120.5867239593222
 30
0.0
 11
86.40639612787413
 21
120.5867239593222
 31
0.0
  0
LINE
  5
2B6
330
29D
100
AcDbEntity
  8
RMF
  6
Continuous
 62
     4
100
AcDbLine
 10
86.40639612787413
 20
156.5867239593223
 30
0.0
 11
100.4063961278741
 21
156.5867239593223
 31
0.0
  0
CIRCLE
  5
2B7
330
29D
100
AcDbEntity
  8
RMF
  6
Continuous
 62
     4
100
AcDbCircle
 10
169.4063961278741
 20
152.5867239593222
 30
0.0
 40
2.000000000000002
  0
CIRCLE
  5
2B8
330
29D
100
AcDbEntity
  8
RMF
  6
Continuous
 62
     4
100
AcDbCircle
 10
169.4063961278741
 20
146.9867239593222
 30
0.0
 40
2.000000000000002
  0
CIRCLE
  5
2B9
330
29D
100
AcDbEntity
  8
RMF
  6
Continuous
 62
     4
100
AcDbCircle
 10
169.4063961278741
 20
135.7867239593222
 30
0.0
 40
2.000000000000002
  0
CIRCLE
  5
2BA
330
29D
100
AcDbEntity
  8
RMF
  6
Continuous
 62
     4
100
AcDbCircle
 10
169.4063961278741
 20
124.5867239593222
 30
0.0
 40
2.000000000000002
  0
CIRCLE
  5
2BB
330
29D
100
AcDbEntity
  8
RMF
  6
Continuous
 62
     4
100
AcDbCircle
 10
169.4063961278741
 20
130.1867239593223
 30
0.0
 40
2.000000000000002
  0
LINE
  5
2BC
330
29D
100
AcDbEntity
  8
RMF
  6
Continuous
 62
     4
100
AcDbLine
 10
176.4063961278741
 20
156.5867239593223
 30
0.0
 11
176.4063961278741
 21
120.5867239593222
 31
0.0
  0
CIRCLE
  5
2BD
330
29D
100
AcDbEntity
  8
RMF
  6
Continuous
 62
     4
100
AcDbCircle
 10
169.4063961278741
 20
141.3867239593222
 30
0.0
 40
2.000000000000002
  0
LINE
  5
2BE
330
29D
100
AcDbEntity
  8
RMF
  6
Continuous
 62
     4
100
AcDbLine
 10
176.4063961278741
 20
120.5867239593222
 30
0.0
 11
162.4063961278741
 21
120.5867239593222
 31
0.0
  0
LINE
  5
2BF
330
29D
100
AcDbEntity
  8
RMF
  6
Continuous
 62
     4
100
AcDbLine
 10
162.4063961278741
 20
156.5867239593223
 30
0.0
 11
176.4063961278741
 21
156.5867239593223
 31
0.0
  0
LINE
  5
2C0
330
29D
100
AcDbEntity
  8
RMF
  6
Continuous
 62
     4
100
AcDbLine
 10
91.64988667078185
 20
125.5431101402896
 30
0.0
 11
95.11304832152902
 21
123.5436528289836
 31
0.0
  0
LINE
  5
2C1
330
29D
100
AcDbEntity
  8
RMF
  6
Continuous
 62
     4
100
AcDbLine
 10
167.6498866707819
 20
125.5431101402896
 30
0.0
 11
171.113048321529
 21
123.5436528289836
 31
0.0
  0
LINE
  5
2C2
330
29D
100
AcDbEntity
  8
RMF
  6
Continuous
 62
     4
100
AcDbLine
 10
91.64988667078185
 20
142.3431101402896
 30
0.0
 11
95.11304832152904
 21
140.3436528289835
 31
0.0
  0
LINE
  5
2C3
330
29D
100
AcDbEntity
  8
RMF
  6
Continuous
 62
     4
100
AcDbLine
 10
167.6498866707819
 20
131.1431101402896
 30
0.0
 11
171.113048321529
 21
129.1436528289835
 31
0.0
  0
LINE
  5
2C4
330
29D
100
AcDbEntity
  8
RMF
  6
Continuous
 62
     4
100
AcDbLine
 10
167.6498866707819
 20
142.3431101402896
 30
0.0
 11
171.113048321529
 21
140.3436528289835
 31
0.0
  0
LINE
  5
2C5
330
29D
100
AcDbEntity
  8
RMF
  6
Continuous
 62
     4
100
AcDbLine
 10
91.64988667078185
 20
131.1431101402896
 30
0.0
 11
95.11304832152902
 21
129.1436528289835
 31
0.0
  0
LINE
  5
2C6
330
29D
100
AcDbEntity
  8
RMF
  6
Continuous
 62
     4
100
AcDbLine
 10
91.64988667078185
 20
153.5431101402896
 30
0.0
 11
95.113048321529
 21
151.5436528289835
 31
0.0
  0
LINE
  5
2C7
330
29D
100
AcDbEntity
  8
RMF
  6
Continuous
 62
     4
100
AcDbLine
 10
91.64988667078185
 20
147.9431101402896
 30
0.0
 11
95.113048321529
 21
145.9436528289835
 31
0.0
  0
LINE
  5
2C8
330
29D
100
AcDbEntity
  8
RMF
  6
Continuous
 62
     4
100
AcDbLine
 10
167.6498866707819
 20
153.5431101402896
 30
0.0
 11
171.113048321529
 21
151.5436528289835
 31
0.0
  0
LINE
  5
2C9
330
29D
100
AcDbEntity
  8
RMF
  6
Continuous
 62
     4
100
AcDbLine
 10
167.6498866707819
 20
147.9431101402896
 30
0.0
 11
171.113048321529
 21
145.9436528289835
 31
0.0
  0
LINE
  5
2CA
330
29D
100
AcDbEntity
  8
RMF
  6
Continuous
 62
     4
100
AcDbLine
 10
167.6498866707819
 20
136.7431101402896
 30
0.0
 11
171.113048321529
 21
134.7436528289836
 31
0.0
  0
LINE
  5
2CB
330
29D
100
AcDbEntity
  8
RMF
  6
Continuous
 62
     4
100
AcDbLine
 10
91.64988667078185
 20
136.7431101402896
 30
0.0
 11
95.11304832152902
 21
134.7436528289836
 31
0.0
  0
LINE
  5
2CC
330
29D
100
AcDbEntity
  8
RMF
  6
Continuous
 62
     4
100
AcDbLine
 10
95.16290558496641
 20
134.8303377783548
 30
0.0
 11
91.69974393421926
 21
136.8297950896609
 31
0.0
  0
LINE
  5
2CD
330
29D
100
AcDbEntity
  8
RMF
  6
Continuous
 62
     4
100
AcDbLine
 10
171.1629055849664
 20
140.4303377783548
 30
0.0
 11
167.6997439342192
 21
142.4297950896609
 31
0.0
  0
LINE
  5
2CE
330
29D
100
AcDbEntity
  8
RMF
  6
Continuous
 62
     4
100
AcDbLine
 10
95.16290558496641
 20
140.4303377783548
 30
0.0
 11
91.69974393421926
 21
142.4297950896609
 31
0.0
  0
LINE
  5
2CF
330
29D
100
AcDbEntity
  8
RMF
  6
Continuous
 62
     4
100
AcDbLine
 10
171.1629055849664
 20
134.8303377783548
 30
0.0
 11
167.6997439342192
 21
136.8297950896609
 31
0.0
  0
LINE
  5
2D0
330
29D
100
AcDbEntity
  8
RMF
  6
Continuous
 62
     4
100
AcDbLine
 10
95.16290558496641
 20
146.0303377783548
 30
0.0
 11
91.69974393421924
 21
148.0297950896609
 31
0.0
  0
LINE
  5
2D1
330
29D
100
AcDbEntity
  8
RMF
  6
Continuous
 62
     4
100
AcDbLine
 10
171.1629055849664
 20
146.0303377783548
 30
0.0
 11
167.6997439342192
 21
148.0297950896609
 31
0.0
  0
LINE
  5
2D2
330
29D
100
AcDbEntity
  8
RMF
  6
Continuous
 62
     4
100
AcDbLine
 10
95.16290558496641
 20
123.6303377783548
 30
0.0
 11
91.69974393421924
 21
125.6297950896609
 31
0.0
  0
LINE
  5
2D3
330
29D
100
AcDbEntity
  8
RMF
  6
Continuous
 62
     4
100
AcDbLine
 10
171.1629055849664
 20
123.6303377783548
 30
0.0
 11
167.6997439342192
 21
125.6297950896609
 31
0.0
  0
LINE
  5
2D4
330
29D
100
AcDbEntity
  8
RMF
  6
Continuous
 62
     4
100
AcDbLine
 10
95.16290558496641
 20
151.6303377783548
 30
0.0
 11
91.69974393421923
 21
153.6297950896609
 31
0.0
  0
LINE
  5
2D5
330
29D
100
AcDbEntity
  8
RMF
  6
Continuous
 62
     4
100
AcDbLine
 10
171.1629055849664
 20
151.6303377783548
 30
0.0
 11
167.6997439342192
 21
153.6297950896609
 31
0.0
  0
LINE
  5
2D6
330
29D
100
AcDbEntity
  8
RMF
  6
Continuous
 62
     4
100
AcDbLine
 10
95.16290558496641
 20
129.2303377783548
 30
0.0
 11
91.69974393421926
 21
131.2297950896609
 31
0.0
  0
LINE
  5
2D7
330
29D
100
AcDbEntity
  8
RMF
  6
Continuous
 62
     4
100
AcDbLine
 10
171.1629055849664
 20
129.2303377783548
 30
0.0
 11
167.6997439342193
 21
131.2297950896609
 31
0.0
  0
LINE
  5
2D8
330
29D
100
AcDbEntity
  8
RMF
  6
Continuous
 62
     4
100
AcDbLine
 10
180.2063961278741
 20
144.5867239593222
 30
0.0
 11
180.2063961278741
 21
132.5867239593222
 31
0.0
  0
LINE
  5
2D9
330
29D
100
AcDbEntity
  8
RMF
  6
Continuous
 62
     4
100
AcDbLine
 10
176.4063961278741
 20
144.5867239593222
 30
0.0
 11
180.2063961278741
 21
144.5867239593222
 31
0.0
  0
LINE
  5
2DA
330
29D
100
AcDbEntity
  8
RMF
  6
Continuous
 62
     4
100
AcDbLine
 10
180.2063961278741
 20
132.5867239593222
 30
0.0
 11
176.4063961278741
 21
132.5867239593222
 31
0.0
  0
LINE
  5
2DB
330
29D
100
AcDbEntity
  8
RMF
  6
DIVIDE
 62
   100
100
AcDbLine
 10
93.40639612787413
 20
127.7867239593222
 30
0.0
 11
93.40639612787413
 21
132.5867239593222
 31
0.0
  0
LINE
  5
2DC
330
29D
100
AcDbEntity
  8
RMF
  6
DIVIDE
 62
   100
100
AcDbLine
 10
95.80639612787414
 20
130.1867239593223
 30
0.0
 11
91.00639612787414
 21
130.1867239593223
 31
0.0
  0
LINE
  5
2DD
330
29D
100
AcDbEntity
  8
RMF
  6
DIVIDE
 62
   100
100
AcDbLine
 10
93.40639612787413
 20
144.5867239593222
 30
0.0
 11
93.40639612787413
 21
149.3867239593222
 31
0.0
  0
LINE
  5
2DE
330
29D
100
AcDbEntity
  8
RMF
  6
DIVIDE
 62
   100
100
AcDbLine
 10
95.80639612787414
 20
146.9867239593222
 30
0.0
 11
91.00639612787414
 21
146.9867239593222
 31
0.0
  0
LINE
  5
2DF
330
29D
100
AcDbEntity
  8
RMF
  6
DIVIDE
 62
   100
100
AcDbLine
 10
93.40639612787413
 20
138.9867239593222
 30
0.0
 11
93.40639612787413
 21
143.7867239593222
 31
0.0
  0
LINE
  5
2E0
330
29D
100
AcDbEntity
  8
RMF
  6
DIVIDE
 62
   100
100
AcDbLine
 10
95.80639612787414
 20
141.3867239593222
 30
0.0
 11
91.00639612787414
 21
141.3867239593222
 31
0.0
  0
LINE
  5
2E1
330
29D
100
AcDbEntity
  8
RMF
  6
DIVIDE
 62
   100
100
AcDbLine
 10
93.40639612787413
 20
133.3867239593222
 30
0.0
 11
93.40639612787413
 21
138.1867239593223
 31
0.0
  0
LINE
  5
2E2
330
29D
100
AcDbEntity
  8
RMF
  6
DIVIDE
 62
   100
100
AcDbLine
 10
95.80639612787414
 20
135.7867239593222
 30
0.0
 11
91.00639612787414
 21
135.7867239593222
 31
0.0
  0
LINE
  5
2E3
330
29D
100
AcDbEntity
  8
RMF
  6
DIVIDE
 62
   100
100
AcDbLine
 10
93.40639612787413
 20
122.1867239593222
 30
0.0
 11
93.40639612787413
 21
126.9867239593222
 31
0.0
  0
LINE
  5
2E4
330
29D
100
AcDbEntity
  8
RMF
  6
DIVIDE
 62
   100
100
AcDbLine
 10
95.80639612787414
 20
124.5867239593222
 30
0.0
 11
91.00639612787414
 21
124.5867239593222
 31
0.0
  0
LINE
  5
2E5
330
29D
100
AcDbEntity
  8
RMF
  6
DIVIDE
 62
   100
100
AcDbLine
 10
93.40639612787413
 20
150.1867239593222
 30
0.0
 11
93.40639612787413
 21
154.9867239593222
 31
0.0
  0
LINE
  5
2E6
330
29D
100
AcDbEntity
  8
RMF
  6
DIVIDE
 62
   100
100
AcDbLine
 10
95.80639612787414
 20
152.5867239593222
 30
0.0
 11
91.00639612787414
 21
152.5867239593222
 31
0.0
  0
LINE
  5
2E7
330
29D
100
AcDbEntity
  8
RMF
  6
DIVIDE
 62
   100
100
AcDbLine
 10
169.4063961278741
 20
150.1867239593222
 30
0.0
 11
169.4063961278741
 21
154.9867239593222
 31
0.0
  0
LINE
  5
2E8
330
29D
100
AcDbEntity
  8
RMF
  6
DIVIDE
 62
   100
100
AcDbLine
 10
171.8063961278741
 20
152.5867239593222
 30
0.0
 11
167.0063961278741
 21
152.5867239593222
 31
0.0
  0
LINE
  5
2E9
330
29D
100
AcDbEntity
  8
RMF
  6
DIVIDE
 62
   100
100
AcDbLine
 10
169.4063961278741
 20
144.5867239593222
 30
0.0
 11
169.4063961278741
 21
149.3867239593222
 31
0.0
  0
LINE
  5
2EA
330
29D
100
AcDbEntity
  8
RMF
  6
DIVIDE
 62
   100
100
AcDbLine
 10
171.8063961278741
 20
146.9867239593222
 30
0.0
 11
167.0063961278741
 21
146.9867239593222
 31
0.0
  0
LINE
  5
2EB
330
29D
100
AcDbEntity
  8
RMF
  6
DIVIDE
 62
   100
100
AcDbLine
 10
169.4063961278741
 20
133.3867239593222
 30
0.0
 11
169.4063961278741
 21
138.1867239593223
 31
0.0
  0
LINE
  5
2EC
330
29D
100
AcDbEntity
  8
RMF
  6
DIVIDE
 62
   100
100
AcDbLine
 10
171.8063961278741
 20
135.7867239593222
 30
0.0
 11
167.0063961278741
 21
135.7867239593222
 31
0.0
  0
LINE
  5
2ED
330
29D
100
AcDbEntity
  8
RMF
  6
DIVIDE
 62
   100
100
AcDbLine
 10
169.4063961278741
 20
122.1867239593222
 30
0.0
 11
169.4063961278741
 21
126.9867239593222
 31
0.0
  0
LINE
  5
2EE
330
29D
100
AcDbEntity
  8
RMF
  6
DIVIDE
 62
   100
100
AcDbLine
 10
171.8063961278741
 20
124.5867239593222
 30
0.0
 11
167.0063961278741
 21
124.5867239593222
 31
0.0
  0
LINE
  5
2EF
330
29D
100
AcDbEntity
  8
RMF
  6
DIVIDE
 62
   100
100
AcDbLine
 10
169.4063961278741
 20
127.7867239593222
 30
0.0
 11
169.4063961278741
 21
132.5867239593222
 31
0.0
  0
LINE
  5
2F0
330
29D
100
AcDbEntity
  8
RMF
  6
DIVIDE
 62
   100
100
AcDbLine
 10
171.8063961278741
 20
130.1867239593223
 30
0.0
 11
167.0063961278741
 21
130.1867239593223
 31
0.0
  0
LINE
  5
2F1
330
29D
100
AcDbEntity
  8
RMF
  6
DIVIDE
 62
   100
100
AcDbLine
 10
169.4063961278741
 20
138.9867239593222
 30
0.0
 11
169.4063961278741
 21
143.7867239593222
 31
0.0
  0
LINE
  5
2F2
330
29D
100
AcDbEntity
  8
RMF
  6
DIVIDE
 62
   100
100
AcDbLine
 10
171.8063961278741
 20
141.3867239593222
 30
0.0
 11
167.0063961278741
 21
141.3867239593222
 31
0.0
  0
ENDBLK
  5
29F
330
29D
100
AcDbEntity
  8
0
100
AcDbBlockEnd
  0
BLOCK
  5
2F5
330
2F4
100
AcDbEntity
  8
0
100
AcDbBlockBegin
  2
View  1
 70
     0
 10
0.0
 20
0.0
 30
0.0
  3
View  1
  1

  0
LINE
  5
2F7
330
2F4
100
AcDbEntity
  8
RMF
  6
Continuous
 62
     4
100
AcDbLine
 10
293.1880533060083
 20
158.6652937192634
 30
0.0
 11
293.1880533060083
 21
162.7477962573168
 31
0.0
  0
LINE
  5
2F8
330
2F4
100
AcDbEntity
  8
RMF
  6
Continuous
 62
     4
100
AcDbLine
 10
293.1880533060083
 20
162.7477962573168
 30
0.0
 11
266.3179956209195
 21
178.2610820799146
 31
0.0
  0
LINE
  5
2F9
330
2F4
100
AcDbEntity
  8
RMF
  6
Continuous
 62
     4
100
AcDbLine
 10
266.3179956209195
 20
174.1785795418612
 30
0.0
 11
266.3179956209195
 21
178.2610820799146
 31
0.0
  0
LINE
  5
2FA
330
2F4
100
AcDbEntity
  8
RMF
  6
Continuous
 62
     4
100
AcDbLine
 10
247.9332193100692
 20
184.7929329994281
 30
0.0
 11
266.3179956209195
 21
174.1785795418612
 31
0.0
  0
LINE
  5
2FB
330
2F4
100
AcDbEntity
  8
RMF
  6
Continuous
 62
     4
100
AcDbLine
 10
247.9332193100692
 20
184.7929329994281
 30
0.0
 11
247.9332193100692
 21
210.9209492429702
 31
0.0
  0
LINE
  5
2FC
330
2F4
100
AcDbEntity
  8
RMF
  6
Continuous
 62
     4
100
AcDbLine
 10
257.8327142466808
 20
205.2055281504341
 30
0.0
 11
247.9332193100692
 21
210.9209492429702
 31
0.0
  0
LINE
  5
2FD
330
2F4
100
AcDbEntity
  8
RMF
  6
Continuous
 62
     4
100
AcDbLine
 10
257.8327142466808
 20
205.2055281504341
 30
0.0
 11
257.8327142466808
 21
218.2695362722052
 31
0.0
  0
LINE
  5
2FE
330
2F4
100
AcDbEntity
  8
RMF
  6
Continuous
 62
     4
100
AcDbLine
 10
263.7370558695886
 20
214.8606958348712
 30
0.0
 11
257.8327142466808
 21
218.2695362722052
 31
0.0
  0
LINE
  5
2FF
330
2F4
100
AcDbEntity
  8
RMF
  6
Continuous
 62
     4
100
AcDbLine
 10
263.7370558695886
 20
214.8606958348712
 30
0.0
 11
263.7370558695886
 21
223.0257009109781
 31
0.0
  0
LINE
  5
300
330
2F4
100
AcDbEntity
  8
RMF
  6
Continuous
 62
     4
100
AcDbLine
 10
295.7689930573392
 20
204.5322312329865
 30
0.0
 11
263.7370558695886
 21
223.0257009109781
 31
0.0
  0
LINE
  5
301
330
2F4
100
AcDbEntity
  8
RMF
  6
Continuous
 62
     4
100
AcDbLine
 10
295.7689930573392
 20
196.3672261568796
 30
0.0
 11
295.7689930573392
 21
204.5322312329865
 31
0.0
  0
LINE
  5
302
330
2F4
100
AcDbEntity
  8
RMF
  6
Continuous
 62
     4
100
AcDbLine
 10
301.6733346802468
 20
192.9583857195456
 30
0.0
 11
295.7689930573392
 21
196.3672261568796
 31
0.0
  0
LINE
  5
303
330
2F4
100
AcDbEntity
  8
RMF
  6
Continuous
 62
     4
100
AcDbLine
 10
301.6733346802468
 20
179.8943775977746
 30
0.0
 11
301.6733346802468
 21
192.9583857195456
 31
0.0
  0
LINE
  5
304
330
2F4
100
AcDbEntity
  8
RMF
  6
Continuous
 62
     4
100
AcDbLine
 10
311.5728296168585
 20
174.1789565052386
 30
0.0
 11
301.6733346802468
 21
179.8943775977746
 31
0.0
  0
LINE
  5
305
330
2F4
100
AcDbEntity
  8
RMF
  6
Continuous
 62
     4
100
AcDbLine
 10
311.5728296168585
 20
148.0509402616965
 30
0.0
 11
311.5728296168585
 21
174.1789565052386
 31
0.0
  0
LINE
  5
306
330
2F4
100
AcDbEntity
  8
RMF
  6
Continuous
 62
     4
100
AcDbLine
 10
293.1880533060083
 20
158.6652937192634
 30
0.0
 11
311.5728296168585
 21
148.0509402616965
 31
0.0
  0
LINE
  5
307
330
2F4
100
AcDbEntity
  8
RMF
  6
Continuous
 62
     4
100
AcDbLine
 10
263.7370558695886
 20
223.0257009109781
 30
0.0
 11
289.1928999923043
 21
237.7224980060707
 31
0.0
  0
LINE
  5
308
330
2F4
100
AcDbEntity
  8
RMF
  6
Continuous
 62
     4
100
AcDbLine
 10
289.1928999923043
 20
237.7224980060707
 30
0.0
 11
321.2248371800549
 21
219.2290283280792
 31
0.0
  0
LINE
  5
309
330
2F4
100
AcDbEntity
  8
RMF
  6
Continuous
 62
     4
100
AcDbLine
 10
321.2248371800549
 20
219.2290283280792
 30
0.0
 11
295.7689930573392
 21
204.5322312329865
 31
0.0
  0
LINE
  5
30A
330
2F4
100
AcDbEntity
  8
RMF
  6
Continuous
 62
     4
100
AcDbLine
 10
295.7689930573392
 20
206.5734530517494
 30
0.0
 11
317.6893032741222
 21
219.2290283280792
 31
0.0
  0
LINE
  5
30B
330
2F4
100
AcDbEntity
  8
RMF
  6
Continuous
 62
     4
100
AcDbLine
 10
317.6893032741222
 20
219.2290283280792
 30
0.0
 11
289.1928999923043
 21
235.6812761873078
 31
0.0
  0
LINE
  5
30C
330
2F4
100
AcDbEntity
  8
RMF
  6
Continuous
 62
     4
100
AcDbLine
 10
289.1928999923043
 20
235.6812761873078
 30
0.0
 11
267.2725897755213
 21
223.0257009109781
 31
0.0
  0
LINE
  5
30D
330
2F4
100
AcDbEntity
  8
RMF
  6
Continuous
 62
     4
100
AcDbLine
 10
267.2725897755213
 20
223.0257009109781
 30
0.0
 11
295.7689930573392
 21
206.5734530517494
 31
0.0
  0
LINE
  5
30E
330
2F4
100
AcDbEntity
  8
RMF
  6
Continuous
 62
     4
100
AcDbLine
 10
321.2248371800549
 20
211.0640232519722
 30
0.0
 11
321.2248371800549
 21
219.2290283280792
 31
0.0
  0
LINE
  5
30F
330
2F4
100
AcDbEntity
  8
RMF
  6
Continuous
 62
     4
100
AcDbLine
 10
295.7689930573392
 20
196.3672261568796
 30
0.0
 11
321.2248371800549
 21
211.0640232519722
 31
0.0
  0
LINE
  5
310
330
2F4
100
AcDbEntity
  8
RMF
  6
Continuous
 62
     4
100
AcDbLine
 10
321.2248371800549
 20
211.0640232519722
 30
0.0
 11
327.1291788029625
 21
207.6551828146383
 31
0.0
  0
LINE
  5
311
330
2F4
100
AcDbEntity
  8
RMF
  6
Continuous
 62
     4
100
AcDbLine
 10
327.1291788029625
 20
207.6551828146383
 30
0.0
 11
301.6733346802468
 21
192.9583857195456
 31
0.0
  0
LINE
  5
312
330
2F4
100
AcDbEntity
  8
RMF
  6
Continuous
 62
     4
100
AcDbLine
 10
327.1291788029625
 20
194.5911746928672
 30
0.0
 11
327.1291788029625
 21
207.6551828146383
 31
0.0
  0
LINE
  5
313
330
2F4
100
AcDbEntity
  8
RMF
  6
Continuous
 62
     4
100
AcDbLine
 10
301.6733346802468
 20
179.8943775977746
 30
0.0
 11
327.1291788029625
 21
194.5911746928672
 31
0.0
  0
LINE
  5
314
330
2F4
100
AcDbEntity
  8
RMF
  6
Continuous
 62
     4
100
AcDbLine
 10
320.0581109910971
 20
152.9498726267274
 30
0.0
 11
311.5728296168585
 21
148.0509402616965
 31
0.0
  0
LINE
  5
315
330
2F4
100
AcDbEntity
  8
RMF
  6
Continuous
 62
     4
100
AcDbLine
 10
337.0286737395742
 20
188.8757536003312
 30
0.0
 11
311.5728296168585
 21
174.1789565052386
 31
0.0
  0
LINE
  5
316
330
2F4
100
AcDbEntity
  8
RMF
  6
Continuous
 62
     4
100
AcDbLine
 10
337.0286737395742
 20
188.8757536003312
 30
0.0
 11
337.0286737395742
 21
162.7477373567891
 31
0.0
  0
LINE
  5
317
330
2F4
100
AcDbEntity
  8
RMF
  6
Continuous
 62
     4
100
AcDbLine
 10
337.0286737395742
 20
162.7477373567891
 30
0.0
 11
331.2303981338446
 21
159.400133574018
 31
0.0
  0
LINE
  5
318
330
2F4
100
AcDbEntity
  8
RMF
  6
Continuous
 62
     4
100
AcDbLine
 10
328.5433923653357
 20
161.9313075298117
 30
0.0
 11
320.0581109910971
 21
157.0323751647808
 31
0.0
  0
LINE
  5
319
330
2F4
100
AcDbEntity
  8
RMF
  6
Continuous
 62
     4
100
AcDbLine
 10
320.0581109910971
 20
157.0323751647808
 30
0.0
 11
320.0581109910971
 21
152.9498726267274
 31
0.0
  0
LINE
  5
31A
330
2F4
100
AcDbEntity
  8
RMF
  6
Continuous
 62
     4
100
AcDbLine
 10
327.1291788029625
 20
194.5911746928672
 30
0.0
 11
337.0286737395742
 21
188.8757536003312
 31
0.0
  0
LWPOLYLINE
  5
31B
330
2F4
100
AcDbEntity
  8
RMF
  6
Continuous
 62
     4
100
AcDbPolyline
 90
        6
 70
   128
 43
0.0
 10
330.6647127088953
 20
189.2839979640838
 10
330.8888032343543
 20
189.4381840414966
 10
331.0631147194964
 20
189.6124938496417
 10
331.1823507980907
 20
189.8016310732429
 10
331.2428885422524
 20
189.9998488735117
 10
331.2504991465221
 20
190.1004866915889
  0
LWPOLYLINE
  5
31C
330
2F4
100
AcDbEntity
  8
RMF
  6
Continuous
 62
     4
100
AcDbPolyline
 90
        6
 70
   128
 43
0.0
 10
314.8255208103167
 20
180.1393242160262
 10
315.0496113357757
 20
180.293510293439
 10
315.2239228209177
 20
180.4678201015841
 10
315.343158899512
 20
180.6569573251852
 10
315.4036966436738
 20
180.8551751254541
 10
315.4113072479435
 20
180.9558129435313
  0
LWPOLYLINE
  5
31D
330
2F4
100
AcDbEntity
  8
RMF
  6
Continuous
 62
     4
100
AcDbPolyline
 90
        6
 70
   128
 43
0.0
 10
326.7049147342507
 20
186.9978295270694
 10
326.9290052597097
 20
187.1520156044822
 10
327.1033167448517
 20
187.3263254126273
 10
327.2225528234461
 20
187.5154626362284
 10
327.2830905676078
 20
187.7136804364973
 10
327.2907011718775
 20
187.8143182545745
  0
LWPOLYLINE
  5
31E
330
2F4
100
AcDbEntity
  8
RMF
  6
Continuous
 62
     4
100
AcDbPolyline
 90
        6
 70
   128
 43
0.0
 10
322.7451167596059
 20
184.711661090055
 10
322.969207285065
 20
184.8658471674678
 10
323.1435187702071
 20
185.0401569756129
 10
323.2627548488013
 20
185.2292941992141
 10
323.323292592963
 20
185.4275119994829
 10
323.3309031972329
 20
185.5281498175601
  0
LWPOLYLINE
  5
31F
330
2F4
100
AcDbEntity
  8
RMF
  6
Continuous
 62
     4
100
AcDbPolyline
 90
        6
 70
   128
 43
0.0
 10
318.7853187849613
 20
182.4254926530405
 10
319.0094093104203
 20
182.5796787304535
 10
319.1837207955624
 20
182.7539885385985
 10
319.3029568741567
 20
182.9431257621997
 10
319.3634946183184
 20
183.1413435624685
 10
319.3711052225881
 20
183.2419813805457
  0
LWPOLYLINE
  5
320
330
2F4
100
AcDbEntity
  8
RMF
  6
Continuous
 62
     4
100
AcDbPolyline
 90
        6
 70
   128
 43
0.0
 10
310.8657228356719
 20
177.8531557790117
 10
311.089813361131
 20
178.0073418564246
 10
311.2641248462731
 20
178.1816516645697
 10
311.3833609248673
 20
178.3707888881708
 10
311.443898669029
 20
178.5690066884397
 10
311.4515092732989
 20
178.6696445065169
  0
LINE
  5
321
330
2F4
100
AcDbEntity
  8
RMF
  6
Continuous
 62
     4
100
AcDbLine
 10
317.6185915758066
 20
219.1882033026986
 30
0.0
 11
289.1928999923043
 21
235.5996261365468
 31
0.0
  0
LINE
  5
322
330
2F4
100
AcDbEntity
  8
RMF
  6
Continuous
 62
     4
100
AcDbLine
 10
289.1928999923043
 20
235.5996261365468
 30
0.0
 11
267.3433014738369
 21
222.9848758855976
 31
0.0
  0
LWPOLYLINE
  5
323
330
2F4
100
AcDbEntity
  8
RMF
  6
Continuous
 62
     4
100
AcDbPolyline
 90
       15
 70
   128
 43
0.0
 10
307.4515092732989
 20
178.6696445065169
 10
307.4818937670486
 20
178.4691347916247
 10
307.5721240308376
 20
178.2747174629114
 10
307.7194584637795
 20
178.0922997924862
 10
307.9194203837175
 20
177.9274244489158
 10
308.1659340489451
 20
177.7851010860467
 10
308.451509266542
 20
177.6696541272082
 10
308.7674689780939
 20
177.5845913697997
 10
309.1042129077201
 20
177.5324974026419
 10
309.4515092615955
 20
177.5149550745544
 10
309.7988056158265
 20
177.5324974002953
 10
310.1355495465088
 20
177.5845913651777
 10
310.451509259785
 20
177.6696541204513
 10
310.7370844797222
 20
177.7851010773602
 10
310.8657228356719
 20
177.8531557790117
  0
LWPOLYLINE
  5
324
330
2F4
100
AcDbEntity
  8
RMF
  6
Continuous
 62
     4
100
AcDbPolyline
 90
       19
 70
   128
 43
0.0
 10
311.4515092732989
 20
178.6696445065169
 10
311.4211247795491
 20
178.8701542214091
 10
311.3308945157602
 20
179.0645715501224
 10
311.1835600828184
 20
179.2469892205476
 10
310.9835981628802
 20
179.4118645641179
 10
310.7370844976527
 20
179.5541879269871
 10
310.4515092800558
 20
179.6696348858256
 10
310.1355495685038
 20
179.7546976432341
 10
309.7988056388776
 20
179.8067916103919
 10
309.4515092850022
 20
179.8243339384794
 10
309.1042129307712
 20
179.8067916127385
 10
308.767469000089
 20
179.7546976478561
 10
308.4515092868128
 20
179.6696348925825
 10
308.1659340668756
 20
179.5541879356736
 10
307.919420398763
 20
179.41186457447
 10
307.7194584754828
 20
179.2469892322509
 10
307.5721240388431
 20
179.0645715628211
 10
307.4818937711131
 20
178.8701542347175
 10
307.4515092732989
 20
178.6696445200306
  0
LWPOLYLINE
  5
325
330
2F4
100
AcDbEntity
  8
RMF
  6
Continuous
 62
     4
100
AcDbPolyline
 90
       22
 70
   128
 43
0.0
 10
311.4203732980017
 20
178.4643491533305
 10
311.3962491140942
 20
178.5309511472966
 10
311.3536223058891
 20
178.6182129104131
 10
311.2992683383214
 20
178.7032747678506
 10
311.2335223216755
 20
178.7856122849722
 10
311.1567896020071
 20
178.8647178236046
 10
311.0695432620487
 20
178.9401036717971
 10
310.9723212044989
 20
179.0113050507271
 10
310.8657228356719
 20
179.0778829802167
 10
310.7504053699593
 20
179.1394269851911
 10
310.6270797778839
 20
179.1955576263944
 10
310.4965064027307
 20
179.245928839758
 10
310.359490272778
 20
179.2902300700015
 10
310.2168761380291
 20
179.3281881853088
 10
310.0695432620487
 20
179.3595691612767
 10
309.9184000010107
 20
179.384179523753
 10
309.7643782033793
 20
179.4018675416693
 10
309.6084274647546
 20
179.4125241625134
 10
309.4515092732989
 20
179.4160836846741
 10
309.2938072551509
 20
179.412488457479
 10
309.1370872752354
 20
179.4017251640063
 10
308.9823252564597
 20
179.3838608291796
  0
LINE
  5
326
330
2F4
100
AcDbEntity
  8
RMF
  6
Continuous
 62
     4
100
AcDbLine
 10
308.9823292615947
 20
179.3838613872068
 30
0.0
 11
308.9823292615947
 21
179.2205612856847
 31
0.0
  0
LWPOLYLINE
  5
327
330
2F4
100
AcDbEntity
  8
RMF
  6
Continuous
 62
     4
100
AcDbPolyline
 90
       16
 70
   128
 43
0.0
 10
308.8857366789658
 20
179.3689186063983
 10
308.7850054742056
 20
179.3500791297011
 10
308.6861424085687
 20
179.3281881853088
 10
308.5435282738198
 20
179.2902300700015
 10
308.406512143867
 20
179.245928839758
 10
308.275938768714
 20
179.1955576263944
 10
308.1526131766385
 20
179.1394269851912
 10
308.0372957109258
 20
179.0778829802167
 10
307.9306973420988
 20
179.0113050507271
 10
307.833475284549
 20
178.9401036717971
 10
307.7462289445907
 20
178.8647178236046
 10
307.6694962249221
 20
178.7856122849722
 10
307.6037502082763
 20
178.7032747678507
 10
307.5493962407085
 20
178.6182129104131
 10
307.5067694325036
 20
178.5309511472966
 10
307.482645248596
 20
178.4643491533305
  0
LINE
  5
328
330
2F4
100
AcDbEntity
  8
RMF
  6
Continuous
 62
     4
100
AcDbLine
 10
308.8857366789658
 20
179.3689186063983
 30
0.0
 11
309.7405466032396
 21
177.5270769181661
 31
0.0
  0
LINE
  5
329
330
2F4
100
AcDbEntity
  8
RMF
  6
Continuous
 62
     4
100
AcDbLine
 10
309.8395183136506
 20
177.5368934403685
 30
0.0
 11
308.982286603561
 21
179.3839533016109
 31
0.0
  0
LINE
  5
32A
330
2F4
100
AcDbEntity
  8
RMF
  6
Continuous
 62
     4
100
AcDbLine
 10
309.767193638927
 20
177.529429855493
 30
0.0
 11
308.9823292615947
 21
179.2205612856847
 31
0.0
  0
LWPOLYLINE
  5
32B
330
2F4
100
AcDbEntity
  8
RMF
  6
Continuous
 62
     4
100
AcDbPolyline
 90
       15
 70
   128
 43
0.0
 10
311.4113072479435
 20
180.9558129435313
 10
311.4416917416933
 20
180.7553032286391
 10
311.5319220054822
 20
180.5608858999258
 10
311.6792564384241
 20
180.3784682295006
 10
311.8792183583621
 20
180.2135928859302
 10
312.1257320235897
 20
180.0712695230611
 10
312.4113072411866
 20
179.9558225642226
 10
312.7272669527385
 20
179.870759806814
 10
313.0640108823648
 20
179.8186658396563
 10
313.4113072362402
 20
179.8011235115688
 10
313.7586035904712
 20
179.8186658373097
 10
314.0953475211534
 20
179.8707598021921
 10
314.4113072344297
 20
179.9558225574658
 10
314.6968824543668
 20
180.0712695143746
 10
314.8255208103167
 20
180.1393242160261
  0
LWPOLYLINE
  5
32C
330
2F4
100
AcDbEntity
  8
RMF
  6
Continuous
 62
     4
100
AcDbPolyline
 90
       19
 70
   128
 43
0.0
 10
315.4113072479435
 20
180.9558129435313
 10
315.3809227541937
 20
181.1563226584235
 10
315.2906924904049
 20
181.3507399871368
 10
315.143358057463
 20
181.533157657562
 10
314.943396137525
 20
181.6980330011323
 10
314.6968824722973
 20
181.8403563640015
 10
314.4113072547004
 20
181.95580332284
 10
314.0953475431485
 20
182.0408660802485
 10
313.7586036135224
 20
182.0929600474063
 10
313.4113072596468
 20
182.1105023754938
 10
313.0640109054158
 20
182.0929600497529
 10
312.7272669747337
 20
182.0408660848705
 10
312.4113072614574
 20
181.9558033295968
 10
312.1257320415203
 20
181.8403563726879
 10
311.8792183734077
 20
181.6980330114844
 10
311.6792564501274
 20
181.5331576692653
 10
311.5319220134878
 20
181.3507399998355
 10
311.4416917457579
 20
181.1563226717319
 10
311.4113072479435
 20
180.955812957045
  0
LWPOLYLINE
  5
32D
330
2F4
100
AcDbEntity
  8
RMF
  6
Continuous
 62
     4
100
AcDbPolyline
 90
       22
 70
   128
 43
0.0
 10
315.3801712726464
 20
180.7505175903449
 10
315.3560470887389
 20
180.817119584311
 10
315.3134202805339
 20
180.9043813474275
 10
315.2590663129661
 20
180.9894432048651
 10
315.1933202963203
 20
181.0717807219866
 10
315.1165875766517
 20
181.150886260619
 10
315.0293412366935
 20
181.2262721088115
 10
314.9321191791436
 20
181.2974734877415
 10
314.8255208103167
 20
181.3640514172311
 10
314.7102033446039
 20
181.4255954222056
 10
314.5868777525285
 20
181.4817260634088
 10
314.4563043773755
 20
181.5320972767724
 10
314.3192882474226
 20
181.5763985070159
 10
314.1766741126737
 20
181.6143566223232
 10
314.0293412366935
 20
181.645737598291
 10
313.8781979756553
 20
181.6703479607674
 10
313.7241761780239
 20
181.6880359786838
 10
313.5682254393992
 20
181.6986925995278
 10
313.4113072479435
 20
181.7022521216885
 10
313.2536052297955
 20
181.6986568944934
 10
313.09688524988
 20
181.6878936010207
 10
312.9421232311043
 20
181.6700292661941
  0
LINE
  5
32E
330
2F4
100
AcDbEntity
  8
RMF
  6
Continuous
 62
     4
100
AcDbLine
 10
312.9421272362394
 20
181.6700298242213
 30
0.0
 11
312.9421272362394
 21
181.5067297226991
 31
0.0
  0
LWPOLYLINE
  5
32F
330
2F4
100
AcDbEntity
  8
RMF
  6
Continuous
 62
     4
100
AcDbPolyline
 90
       16
 70
   128
 43
0.0
 10
312.8455346536104
 20
181.6550870434127
 10
312.7448034488502
 20
181.6362475667156
 10
312.6459403832134
 20
181.6143566223232
 10
312.5033262484644
 20
181.5763985070159
 10
312.3663101185117
 20
181.5320972767724
 10
312.2357367433586
 20
181.4817260634088
 10
312.1124111512832
 20
181.4255954222056
 10
311.9970936855705
 20
181.3640514172311
 10
311.8904953167435
 20
181.2974734877415
 10
311.7932732591936
 20
181.2262721088115
 10
311.7060269192353
 20
181.150886260619
 10
311.6292941995667
 20
181.0717807219866
 10
311.563548182921
 20
180.9894432048651
 10
311.5091942153533
 20
180.9043813474275
 10
311.4665674071482
 20
180.817119584311
 10
311.4424432232407
 20
180.7505175903449
  0
LINE
  5
330
330
2F4
100
AcDbEntity
  8
RMF
  6
Continuous
 62
     4
100
AcDbLine
 10
312.8455346536104
 20
181.6550870434127
 30
0.0
 11
313.7003445778842
 21
179.8132453551805
 31
0.0
  0
LINE
  5
331
330
2F4
100
AcDbEntity
  8
RMF
  6
Continuous
 62
     4
100
AcDbLine
 10
313.7993162882952
 20
179.8230618773829
 30
0.0
 11
312.9420845782057
 21
181.6701217386253
 31
0.0
  0
LINE
  5
332
330
2F4
100
AcDbEntity
  8
RMF
  6
Continuous
 62
     4
100
AcDbLine
 10
313.7269916135718
 20
179.8155982925074
 30
0.0
 11
312.9421272362394
 21
181.5067297226991
 31
0.0
  0
LWPOLYLINE
  5
333
330
2F4
100
AcDbEntity
  8
RMF
  6
Continuous
 62
     4
100
AcDbPolyline
 90
       15
 70
   128
 43
0.0
 10
315.3711052225881
 20
183.2419813805457
 10
315.4014897163379
 20
183.0414716656535
 10
315.4917199801269
 20
182.8470543369402
 10
315.6390544130687
 20
182.664636666515
 10
315.8390163330068
 20
182.4997613229447
 10
316.0855299982343
 20
182.3574379600755
 10
316.3711052158312
 20
182.241991001237
 10
316.6870649273832
 20
182.1569282438285
 10
317.0238088570094
 20
182.1048342766707
 10
317.3711052108849
 20
182.0872919485832
 10
317.7184015651159
 20
182.104834274324
 10
318.0551454957981
 20
182.1569282392065
 10
318.3711052090743
 20
182.2419909944801
 10
318.6566804290114
 20
182.357437951389
 10
318.7853187849613
 20
182.4254926530405
  0
LWPOLYLINE
  5
334
330
2F4
100
AcDbEntity
  8
RMF
  6
Continuous
 62
     4
100
AcDbPolyline
 90
       19
 70
   128
 43
0.0
 10
319.3711052225881
 20
183.2419813805457
 10
319.3407207288384
 20
183.4424910954379
 10
319.2504904650495
 20
183.6369084241512
 10
319.1031560321076
 20
183.8193260945764
 10
318.9031941121696
 20
183.9842014381467
 10
318.6566804469419
 20
184.1265248010159
 10
318.3711052293451
 20
184.2419717598544
 10
318.0551455177932
 20
184.3270345172629
 10
317.718401588167
 20
184.3791284844207
 10
317.3711052342916
 20
184.3966708125082
 10
317.0238088800605
 20
184.3791284867673
 10
316.6870649493783
 20
184.3270345218849
 10
316.371105236102
 20
184.2419717666112
 10
316.085530016165
 20
184.1265248097023
 10
315.8390163480523
 20
183.9842014484989
 10
315.6390544247722
 20
183.8193261062796
 10
315.4917199881324
 20
183.6369084368499
 10
315.4014897204025
 20
183.4424911087463
 10
315.3711052225881
 20
183.2419813940594
  0
LWPOLYLINE
  5
335
330
2F4
100
AcDbEntity
  8
RMF
  6
Continuous
 62
     4
100
AcDbPolyline
 90
       22
 70
   128
 43
0.0
 10
319.339969247291
 20
183.0366860273593
 10
319.3158450633835
 20
183.1032880213254
 10
319.2732182551785
 20
183.1905497844419
 10
319.2188642876108
 20
183.2756116418795
 10
319.1531182709649
 20
183.357949159001
 10
319.0763855512964
 20
183.4370546976334
 10
318.9891392113381
 20
183.5124405458259
 10
318.8919171537883
 20
183.5836419247559
 10
318.7853187849613
 20
183.6502198542455
 10
318.6700013192486
 20
183.71176385922
 10
318.5466757271731
 20
183.7678945004232
 10
318.4161023520201
 20
183.8182657137868
 10
318.2790862220672
 20
183.8625669440303
 10
318.1364720873185
 20
183.9005250593376
 10
317.9891392113381
 20
183.9319060353054
 10
317.8379959503001
 20
183.9565163977818
 10
317.6839741526687
 20
183.9742044156982
 10
317.5280234140438
 20
183.9848610365423
 10
317.3711052225881
 20
183.9884205587029
 10
317.2134032044402
 20
183.9848253315077
 10
317.0566832245246
 20
183.9740620380351
 10
316.9019212057489
 20
183.9561977032085
  0
LINE
  5
336
330
2F4
100
AcDbEntity
  8
RMF
  6
Continuous
 62
     4
100
AcDbLine
 10
316.901925210884
 20
183.9561982612357
 30
0.0
 11
316.901925210884
 21
183.7928981597136
 31
0.0
  0
LWPOLYLINE
  5
337
330
2F4
100
AcDbEntity
  8
RMF
  6
Continuous
 62
     4
100
AcDbPolyline
 90
       16
 70
   128
 43
0.0
 10
316.805332628255
 20
183.9412554804272
 10
316.7046014234949
 20
183.92241600373
 10
316.605738357858
 20
183.9005250593376
 10
316.463124223109
 20
183.8625669440303
 10
316.3261080931563
 20
183.8182657137868
 10
316.1955347180032
 20
183.7678945004232
 10
316.0722091259278
 20
183.71176385922
 10
315.9568916602151
 20
183.6502198542455
 10
315.8502932913881
 20
183.5836419247559
 10
315.7530712338383
 20
183.5124405458259
 10
315.6658248938801
 20
183.4370546976334
 10
315.5890921742115
 20
183.357949159001
 10
315.5233461575656
 20
183.2756116418795
 10
315.4689921899979
 20
183.1905497844419
 10
315.4263653817928
 20
183.1032880213254
 10
315.4022411978854
 20
183.0366860273593
  0
LINE
  5
338
330
2F4
100
AcDbEntity
  8
RMF
  6
Continuous
 62
     4
100
AcDbLine
 10
316.805332628255
 20
183.9412554804272
 30
0.0
 11
317.6601425525288
 21
182.0994137921949
 31
0.0
  0
LINE
  5
339
330
2F4
100
AcDbEntity
  8
RMF
  6
Continuous
 62
     4
100
AcDbLine
 10
317.75911426294
 20
182.1092303143974
 30
0.0
 11
316.9018825528503
 21
183.9562901756397
 31
0.0
  0
LINE
  5
33A
330
2F4
100
AcDbEntity
  8
RMF
  6
Continuous
 62
     4
100
AcDbLine
 10
317.6867895882164
 20
182.1017667295218
 30
0.0
 11
316.901925210884
 21
183.7928981597136
 31
0.0
  0
LWPOLYLINE
  5
33B
330
2F4
100
AcDbEntity
  8
RMF
  6
Continuous
 62
     4
100
AcDbPolyline
 90
       15
 70
   128
 43
0.0
 10
319.3309031972329
 20
185.5281498175601
 10
319.3612876909826
 20
185.3276401026679
 10
319.4515179547715
 20
185.1332227739546
 10
319.5988523877135
 20
184.9508051035294
 10
319.7988143076515
 20
184.7859297599591
 10
320.0453279728791
 20
184.6436063970899
 10
320.330903190476
 20
184.5281594382514
 10
320.6468629020279
 20
184.4430966808429
 10
320.9836068316541
 20
184.3910027136851
 10
321.3309031855295
 20
184.3734603855976
 10
321.6781995397606
 20
184.3910027113384
 10
322.0149434704428
 20
184.4430966762209
 10
322.330903183719
 20
184.5281594314946
 10
322.6164784036562
 20
184.6436063884035
 10
322.7451167596059
 20
184.711661090055
  0
LWPOLYLINE
  5
33C
330
2F4
100
AcDbEntity
  8
RMF
  6
Continuous
 62
     4
100
AcDbPolyline
 90
       19
 70
   128
 43
0.0
 10
323.3309031972329
 20
185.5281498175601
 10
323.3005187034831
 20
185.7286595324523
 10
323.2102884396942
 20
185.9230768611656
 10
323.0629540067523
 20
186.1054945315908
 10
322.8629920868142
 20
186.2703698751611
 10
322.6164784215867
 20
186.4126932380303
 10
322.3309032039898
 20
186.5281401968688
 10
322.0149434924379
 20
186.6132029542773
 10
321.6781995628116
 20
186.6652969214351
 10
321.3309032089362
 20
186.6828392495226
 10
320.9836068547052
 20
186.6652969237818
 10
320.646862924023
 20
186.6132029588993
 10
320.3309032107467
 20
186.5281402036256
 10
320.0453279908097
 20
186.4126932467168
 10
319.798814322697
 20
186.2703698855133
 10
319.5988523994168
 20
186.1054945432941
 10
319.4515179627771
 20
185.9230768738643
 10
319.3612876950471
 20
185.7286595457607
 10
319.3309031972329
 20
185.5281498310738
  0
LWPOLYLINE
  5
33D
330
2F4
100
AcDbEntity
  8
RMF
  6
Continuous
 62
     4
100
AcDbPolyline
 90
       22
 70
   128
 43
0.0
 10
323.2997672219357
 20
185.3228544643737
 10
323.2756430380282
 20
185.3894564583398
 10
323.2330162298231
 20
185.4767182214563
 10
323.1786622622554
 20
185.5617800788939
 10
323.1129162456095
 20
185.6441175960154
 10
323.0361835259411
 20
185.7232231346479
 10
322.9489371859827
 20
185.7986089828403
 10
322.8517151284329
 20
185.8698103617703
 10
322.7451167596059
 20
185.9363882912599
 10
322.6297992938933
 20
185.9979322962344
 10
322.5064737018179
 20
186.0540629374376
 10
322.3759003266647
 20
186.1044341508012
 10
322.238884196712
 20
186.1487353810447
 10
322.0962700619631
 20
186.186693496352
 10
321.9489371859827
 20
186.2180744723199
 10
321.7977939249447
 20
186.2426848347962
 10
321.6437721273133
 20
186.2603728527126
 10
321.4878213886886
 20
186.2710294735567
 10
321.3309031972329
 20
186.2745889957173
 10
321.1732011790849
 20
186.2709937685221
 10
321.0164811991694
 20
186.2602304750495
 10
320.8617191803936
 20
186.2423661402229
  0
LINE
  5
33E
330
2F4
100
AcDbEntity
  8
RMF
  6
Continuous
 62
     4
100
AcDbLine
 10
320.8617231855287
 20
186.2423666982501
 30
0.0
 11
320.8617231855287
 21
186.079066596728
 31
0.0
  0
LWPOLYLINE
  5
33F
330
2F4
100
AcDbEntity
  8
RMF
  6
Continuous
 62
     4
100
AcDbPolyline
 90
       16
 70
   128
 43
0.0
 10
320.7651306028998
 20
186.2274239174416
 10
320.6643993981396
 20
186.2085844407444
 10
320.5655363325027
 20
186.186693496352
 10
320.4229221977538
 20
186.1487353810447
 10
320.285906067801
 20
186.1044341508012
 10
320.155332692648
 20
186.0540629374376
 10
320.0320071005726
 20
185.9979322962344
 10
319.9166896348598
 20
185.9363882912599
 10
319.8100912660328
 20
185.8698103617703
 10
319.712869208483
 20
185.7986089828403
 10
319.6256228685247
 20
185.7232231346479
 10
319.5488901488561
 20
185.6441175960154
 10
319.4831441322103
 20
185.5617800788939
 10
319.4287901646425
 20
185.4767182214563
 10
319.3861633564375
 20
185.3894564583398
 10
319.36203917253
 20
185.3228544643737
  0
LINE
  5
340
330
2F4
100
AcDbEntity
  8
RMF
  6
Continuous
 62
     4
100
AcDbLine
 10
320.7651306028998
 20
186.2274239174416
 30
0.0
 11
321.6199405271736
 21
184.3855822292093
 31
0.0
  0
LINE
  5
341
330
2F4
100
AcDbEntity
  8
RMF
  6
Continuous
 62
     4
100
AcDbLine
 10
321.7189122375846
 20
184.3953987514118
 30
0.0
 11
320.861680527495
 21
186.2424586126541
 31
0.0
  0
LINE
  5
342
330
2F4
100
AcDbEntity
  8
RMF
  6
Continuous
 62
     4
100
AcDbLine
 10
321.646587562861
 20
184.3879351665362
 30
0.0
 11
320.8617231855287
 21
186.079066596728
 31
0.0
  0
LWPOLYLINE
  5
343
330
2F4
100
AcDbEntity
  8
RMF
  6
Continuous
 62
     4
100
AcDbPolyline
 90
       15
 70
   128
 43
0.0
 10
323.2907011718775
 20
187.8143182545745
 10
323.3210856656273
 20
187.6138085396823
 10
323.4113159294162
 20
187.419391210969
 10
323.5586503623581
 20
187.2369735405438
 10
323.7586122822961
 20
187.0720981969735
 10
324.0051259475237
 20
186.9297748341043
 10
324.2907011651206
 20
186.8143278752658
 10
324.6066608766725
 20
186.7292651178573
 10
324.9434048062988
 20
186.6771711506995
 10
325.2907011601742
 20
186.659628822612
 10
325.6379975144052
 20
186.6771711483529
 10
325.9747414450874
 20
186.7292651132353
 10
326.2907011583637
 20
186.814327868509
 10
326.5762763783008
 20
186.9297748254179
 10
326.7049147342507
 20
186.9978295270694
  0
LWPOLYLINE
  5
344
330
2F4
100
AcDbEntity
  8
RMF
  6
Continuous
 62
     4
100
AcDbPolyline
 90
       19
 70
   128
 43
0.0
 10
327.2907011718775
 20
187.8143182545745
 10
327.2603166781277
 20
188.0148279694667
 10
327.1700864143389
 20
188.20924529818
 10
327.0227519813969
 20
188.3916629686052
 10
326.822790061459
 20
188.5565383121755
 10
326.5762763962313
 20
188.6988616750447
 10
326.2907011786344
 20
188.8143086338832
 10
325.9747414670825
 20
188.8993713912918
 10
325.6379975374564
 20
188.9514653584495
 10
325.2907011835808
 20
188.9690076865371
 10
324.9434048293498
 20
188.9514653607962
 10
324.6066608986677
 20
188.8993713959137
 10
324.2907011853914
 20
188.8143086406401
 10
324.0051259654543
 20
188.6988616837312
 10
323.7586122973417
 20
188.5565383225277
 10
323.5586503740614
 20
188.3916629803085
 10
323.4113159374218
 20
188.2092453108788
 10
323.3210856696919
 20
188.0148279827751
 10
323.2907011718775
 20
187.8143182680882
  0
LWPOLYLINE
  5
345
330
2F4
100
AcDbEntity
  8
RMF
  6
Continuous
 62
     4
100
AcDbPolyline
 90
       22
 70
   128
 43
0.0
 10
327.2595651965804
 20
187.6090229013882
 10
327.2354410126729
 20
187.6756248953542
 10
327.1928142044679
 20
187.7628866584707
 10
327.1384602369001
 20
187.8479485159083
 10
327.0727142202543
 20
187.9302860330298
 10
326.9959815005857
 20
188.0093915716623
 10
326.9087351606275
 20
188.0847774198547
 10
326.8115131030776
 20
188.1559787987847
 10
326.7049147342507
 20
188.2225567282743
 10
326.5895972685379
 20
188.2841007332488
 10
326.4662716764625
 20
188.340231374452
 10
326.3356983013095
 20
188.3906025878156
 10
326.1986821713566
 20
188.4349038180591
 10
326.0560680366077
 20
188.4728619333664
 10
325.9087351606275
 20
188.5042429093343
 10
325.7575918995893
 20
188.5288532718106
 10
325.6035701019579
 20
188.546541289727
 10
325.4476193633332
 20
188.5571979105711
 10
325.2907011718775
 20
188.5607574327317
 10
325.1329991537295
 20
188.5571622055366
 10
324.976279173814
 20
188.5463989120639
 10
324.8215171550382
 20
188.5285345772373
  0
LINE
  5
346
330
2F4
100
AcDbEntity
  8
RMF
  6
Continuous
 62
     4
100
AcDbLine
 10
324.8215211601734
 20
188.5285351352645
 30
0.0
 11
324.8215211601734
 21
188.3652350337424
 31
0.0
  0
LWPOLYLINE
  5
347
330
2F4
100
AcDbEntity
  8
RMF
  6
Continuous
 62
     4
100
AcDbPolyline
 90
       16
 70
   128
 43
0.0
 10
324.7249285775444
 20
188.513592354456
 10
324.6241973727842
 20
188.4947528777588
 10
324.5253343071474
 20
188.4728619333664
 10
324.3827201723984
 20
188.4349038180591
 10
324.2457040424457
 20
188.3906025878156
 10
324.1151306672926
 20
188.340231374452
 10
323.9918050752172
 20
188.2841007332488
 10
323.8764876095045
 20
188.2225567282743
 10
323.7698892406775
 20
188.1559787987847
 10
323.6726671831276
 20
188.0847774198547
 10
323.5854208431693
 20
188.0093915716623
 10
323.5086881235007
 20
187.9302860330298
 10
323.442942106855
 20
187.8479485159083
 10
323.3885881392873
 20
187.7628866584707
 10
323.3459613310822
 20
187.6756248953542
 10
323.3218371471747
 20
187.6090229013882
  0
LINE
  5
348
330
2F4
100
AcDbEntity
  8
RMF
  6
Continuous
 62
     4
100
AcDbLine
 10
324.7249285775444
 20
188.513592354456
 30
0.0
 11
325.5797385018182
 21
186.6717506662237
 31
0.0
  0
LINE
  5
349
330
2F4
100
AcDbEntity
  8
RMF
  6
Continuous
 62
     4
100
AcDbLine
 10
325.6787102122292
 20
186.6815671884262
 30
0.0
 11
324.8214785021396
 21
188.5286270496686
 31
0.0
  0
LINE
  5
34A
330
2F4
100
AcDbEntity
  8
RMF
  6
Continuous
 62
     4
100
AcDbLine
 10
325.6063855375058
 20
186.6741036035506
 30
0.0
 11
324.8215211601734
 21
188.3652350337424
 31
0.0
  0
LINE
  5
34B
330
2F4
100
AcDbEntity
  8
RMF
  6
Continuous
 62
     4
100
AcDbLine
 10
289.1928999923043
 20
235.5996261365468
 30
0.0
 11
289.1928999923043
 21
235.6812761873078
 31
0.0
  0
LWPOLYLINE
  5
34C
330
2F4
100
AcDbEntity
  8
RMF
  6
Continuous
 62
     4
100
AcDbPolyline
 90
       15
 70
   128
 43
0.0
 10
327.2504991465221
 20
190.1004866915889
 10
327.280883640272
 20
189.8999769766967
 10
327.3711139040609
 20
189.7055596479834
 10
327.5184483370027
 20
189.5231419775582
 10
327.7184102569408
 20
189.3582666339879
 10
327.9649239221683
 20
189.2159432711187
 10
328.2504991397652
 20
189.1004963122802
 10
328.5664588513172
 20
189.0154335548717
 10
328.9032027809434
 20
188.9633395877139
 10
329.2504991348188
 20
188.9457972596264
 10
329.5977954890499
 20
188.9633395853673
 10
329.9345394197321
 20
189.0154335502498
 10
330.2504991330083
 20
189.1004963055234
 10
330.5360743529454
 20
189.2159432624323
 10
330.6647127088953
 20
189.2839979640838
  0
LWPOLYLINE
  5
34D
330
2F4
100
AcDbEntity
  8
RMF
  6
Continuous
 62
     4
100
AcDbPolyline
 90
       19
 70
   128
 43
0.0
 10
331.2504991465221
 20
190.1004866915889
 10
331.2201146527725
 20
190.3009964064811
 10
331.1298843889835
 20
190.4954137351944
 10
330.9825499560416
 20
190.6778314056197
 10
330.7825880361036
 20
190.84270674919
 10
330.536074370876
 20
190.9850301120591
 10
330.2504991532791
 20
191.1004770708976
 10
329.9345394417272
 20
191.1855398283062
 10
329.597795512101
 20
191.2376337954639
 10
329.2504991582256
 20
191.2551761235515
 10
328.9032028039945
 20
191.2376337978106
 10
328.5664588733123
 20
191.1855398329281
 10
328.250499160036
 20
191.1004770776545
 10
327.964923940099
 20
190.9850301207456
 10
327.7184102719863
 20
190.8427067595421
 10
327.5184483487062
 20
190.6778314173229
 10
327.3711139120664
 20
190.4954137478932
 10
327.2808836443365
 20
190.3009964197896
 10
327.2504991465221
 20
190.1004867051027
  0
LWPOLYLINE
  5
34E
330
2F4
100
AcDbEntity
  8
RMF
  6
Continuous
 62
     4
100
AcDbPolyline
 90
       22
 70
   128
 43
0.0
 10
331.219363171225
 20
189.8951913384026
 10
331.1952389873175
 20
189.9617933323686
 10
331.1526121791125
 20
190.0490550954851
 10
331.0982582115448
 20
190.1341169529227
 10
331.0325121948989
 20
190.2164544700442
 10
330.9557794752304
 20
190.2955600086767
 10
330.8685331352721
 20
190.3709458568692
 10
330.7713110777223
 20
190.4421472357991
 10
330.6647127088953
 20
190.5087251652887
 10
330.5493952431826
 20
190.5702691702632
 10
330.4260696511071
 20
190.6263998114664
 10
330.2954962759541
 20
190.6767710248301
 10
330.1584801460012
 20
190.7210722550736
 10
330.0158660112525
 20
190.7590303703808
 10
329.8685331352721
 20
190.7904113463487
 10
329.7173898742341
 20
190.815021708825
 10
329.5633680766027
 20
190.8327097267414
 10
329.4074173379778
 20
190.8433663475855
 10
329.2504991465221
 20
190.8469258697461
 10
329.0927971283742
 20
190.843330642551
 10
328.9360771484587
 20
190.8325673490783
 10
328.7813151296829
 20
190.8147030142517
  0
LINE
  5
34F
330
2F4
100
AcDbEntity
  8
RMF
  6
Continuous
 62
     4
100
AcDbLine
 10
328.781319134818
 20
190.8147035722789
 30
0.0
 11
328.781319134818
 21
190.6514034707568
 31
0.0
  0
LWPOLYLINE
  5
350
330
2F4
100
AcDbEntity
  8
RMF
  6
Continuous
 62
     4
100
AcDbPolyline
 90
       16
 70
   128
 43
0.0
 10
328.684726552189
 20
190.7997607914704
 10
328.5839953474289
 20
190.7809213147732
 10
328.485132281792
 20
190.7590303703808
 10
328.3425181470431
 20
190.7210722550736
 10
328.2055020170903
 20
190.6767710248301
 10
328.0749286419372
 20
190.6263998114664
 10
327.9516030498618
 20
190.5702691702632
 10
327.8362855841491
 20
190.5087251652887
 10
327.7296872153221
 20
190.4421472357991
 10
327.6324651577723
 20
190.3709458568691
 10
327.5452188178141
 20
190.2955600086767
 10
327.4684860981455
 20
190.2164544700442
 10
327.4027400814996
 20
190.1341169529227
 10
327.3483861139319
 20
190.0490550954851
 10
327.3057593057268
 20
189.9617933323686
 10
327.2816351218194
 20
189.8951913384026
  0
LINE
  5
351
330
2F4
100
AcDbEntity
  8
RMF
  6
Continuous
 62
     4
100
AcDbLine
 10
331.2303981338445
 20
160.3799789475519
 30
0.0
 11
322.7451167596059
 21
155.481046582521
 31
0.0
  0
LINE
  5
352
330
2F4
100
AcDbEntity
  8
RMF
  6
Continuous
 62
     4
100
AcDbLine
 10
322.7451167596059
 20
155.481046582521
 30
0.0
 11
320.0581109910971
 21
157.0323751647808
 31
0.0
  0
LINE
  5
353
330
2F4
100
AcDbEntity
  8
RMF
  6
Continuous
 62
     4
100
AcDbLine
 10
328.5433923653357
 20
161.9313075298117
 30
0.0
 11
331.2303981338445
 21
160.3799789475519
 31
0.0
  0
LINE
  5
354
330
2F4
100
AcDbEntity
  8
RMF
  6
Continuous
 62
     4
100
AcDbLine
 10
322.7451167596059
 20
151.3985440444676
 30
0.0
 11
322.7451167596059
 21
155.481046582521
 31
0.0
  0
LINE
  5
355
330
2F4
100
AcDbEntity
  8
RMF
  6
Continuous
 62
     4
100
AcDbLine
 10
320.0581109910971
 20
152.9498726267274
 30
0.0
 11
322.7451167596059
 21
151.3985440444676
 31
0.0
  0
LINE
  5
356
330
2F4
100
AcDbEntity
  8
RMF
  6
Continuous
 62
     4
100
AcDbLine
 10
331.2303981338445
 20
156.2974764094985
 30
0.0
 11
331.2303981338445
 21
160.3799789475519
 31
0.0
  0
LINE
  5
357
330
2F4
100
AcDbEntity
  8
RMF
  6
Continuous
 62
     4
100
AcDbLine
 10
322.7451167596059
 20
151.3985440444676
 30
0.0
 11
331.2303981338445
 21
156.2974764094985
 31
0.0
  0
LINE
  5
358
330
2F4
100
AcDbEntity
  8
RMF
  6
Continuous
 62
     4
100
AcDbLine
 10
328.684726552189
 20
190.7997607914704
 30
0.0
 11
329.5395364764628
 21
188.9579191032381
 31
0.0
  0
LINE
  5
359
330
2F4
100
AcDbEntity
  8
RMF
  6
Continuous
 62
     4
100
AcDbLine
 10
329.638508186874
 20
188.9677356254406
 30
0.0
 11
328.7812764767843
 21
190.814795486683
 31
0.0
  0
LINE
  5
35A
330
2F4
100
AcDbEntity
  8
RMF
  6
Continuous
 62
     4
100
AcDbLine
 10
329.5661835121504
 20
188.960272040565
 30
0.0
 11
328.781319134818
 21
190.6514034707568
 31
0.0
  0
LINE
  5
35B
330
2F4
100
AcDbEntity
  8
RMF
  6
Continuous
 62
     4
100
AcDbLine
 10
257.8327142466808
 20
218.2695362722052
 30
0.0
 11
263.7370558695886
 21
221.6783767095392
 31
0.0
  0
LINE
  5
35C
330
2F4
100
AcDbEntity
  8
RMF
  6
Continuous
 62
     4
100
AcDbLine
 10
247.9332193100692
 20
210.9209492429702
 30
0.0
 11
257.8327142466808
 21
216.6363703355062
 31
0.0
  0
LWPOLYLINE
  5
35D
330
2F4
100
AcDbEntity
  8
RMF
  6
Continuous
 62
     4
100
AcDbPolyline
 90
        6
 70
   128
 43
0.0
 10
257.1256074654944
 20
208.8797274242073
 10
257.3496979909534
 20
209.0339135016202
 10
257.5240094760954
 20
209.2082233097652
 10
257.6432455546898
 20
209.3973605333664
 10
257.7037832988515
 20
209.5955783336353
 10
257.7113939031212
 20
209.6962161517124
  0
LWPOLYLINE
  5
35E
330
2F4
100
AcDbEntity
  8
RMF
  6
Continuous
 62
     4
100
AcDbPolyline
 90
       15
 70
   128
 43
0.0
 10
253.7113939031213
 20
209.6962161517124
 10
253.7417783968711
 20
209.4957064368203
 10
253.8320086606599
 20
209.301289108107
 10
253.9793430936018
 20
209.1188714376817
 10
254.1793050135398
 20
208.9539960941114
 10
254.4258186787675
 20
208.8116727312422
 10
254.7113938963643
 20
208.6962257724038
 10
255.0273536079163
 20
208.6111630149952
 10
255.3640975375424
 20
208.5590690478375
 10
255.7113938914179
 20
208.5415267197499
 10
256.058690245649
 20
208.5590690454908
 10
256.3954341763312
 20
208.6111630103732
 10
256.7113938896074
 20
208.6962257656469
 10
256.9969691095445
 20
208.8116727225558
 10
257.1256074654944
 20
208.8797274242073
  0
LWPOLYLINE
  5
35F
330
2F4
100
AcDbEntity
  8
RMF
  6
Continuous
 62
     4
100
AcDbPolyline
 90
       19
 70
   128
 43
0.0
 10
257.7113939031212
 20
209.6962161517124
 10
257.6810094093714
 20
209.8967258666046
 10
257.5907791455826
 20
210.0911431953179
 10
257.4434447126407
 20
210.2735608657432
 10
257.2434827927027
 20
210.4384362093135
 10
256.996969127475
 20
210.5807595721826
 10
256.7113939098782
 20
210.6962065310211
 10
256.3954341983262
 20
210.7812692884297
 10
256.0586902687001
 20
210.8333632555874
 10
255.7113939148246
 20
210.850905583675
 10
255.3640975605935
 20
210.8333632579341
 10
255.0273536299113
 20
210.7812692930516
 10
254.7113939166351
 20
210.696206537778
 10
254.425818696698
 20
210.5807595808691
 10
254.1793050285854
 20
210.4384362196656
 10
253.9793431053052
 20
210.2735608774464
 10
253.8320086686655
 20
210.0911432080167
 10
253.7417784009356
 20
209.8967258799131
 10
253.7113939031213
 20
209.6962161652262
  0
LWPOLYLINE
  5
360
330
2F4
100
AcDbEntity
  8
RMF
  6
Continuous
 62
     4
100
AcDbPolyline
 90
       22
 70
   128
 43
0.0
 10
257.6802579278241
 20
209.490920798526
 10
257.6561337439166
 20
209.5575227924922
 10
257.6135069357116
 20
209.6447845556087
 10
257.5591529681438
 20
209.7298464130462
 10
257.493406951498
 20
209.8121839301677
 10
257.4166742318295
 20
209.8912894688002
 10
257.3294278918712
 20
209.9666753169926
 10
257.2322058343213
 20
210.0378766959226
 10
257.1256074654944
 20
210.1044546254122
 10
257.0102899997816
 20
210.1659986303867
 10
256.8869644077062
 20
210.2221292715899
 10
256.7563910325531
 20
210.2725004849536
 10
256.6193749026003
 20
210.3168017151971
 10
256.4767607678514
 20
210.3547598305043
 10
256.3294278918712
 20
210.3861408064722
 10
256.178284630833
 20
210.4107511689485
 10
256.0242628332017
 20
210.4284391868649
 10
255.8683120945769
 20
210.439095807709
 10
255.7113939031213
 20
210.4426553298696
 10
255.5536918849732
 20
210.4390601026745
 10
255.3969719050577
 20
210.4282968092019
 10
255.242209886282
 20
210.4104324743752
  0
LINE
  5
361
330
2F4
100
AcDbEntity
  8
RMF
  6
Continuous
 62
     4
100
AcDbLine
 10
255.2422138914171
 20
210.4104330324024
 30
0.0
 11
255.2422138914171
 21
210.2471329308803
 31
0.0
  0
LWPOLYLINE
  5
362
330
2F4
100
AcDbEntity
  8
RMF
  6
Continuous
 62
     4
100
AcDbPolyline
 90
       16
 70
   128
 43
0.0
 10
255.1456213087882
 20
210.3954902515939
 10
255.044890104028
 20
210.3766507748967
 10
254.9460270383911
 20
210.3547598305043
 10
254.8034129036422
 20
210.3168017151971
 10
254.6663967736894
 20
210.2725004849536
 10
254.5358233985363
 20
210.2221292715899
 10
254.4124978064609
 20
210.1659986303867
 10
254.2971803407482
 20
210.1044546254122
 10
254.1905819719212
 20
210.0378766959226
 10
254.0933599143713
 20
209.9666753169926
 10
254.0061135744131
 20
209.8912894688002
 10
253.9293808547445
 20
209.8121839301677
 10
253.8636348380987
 20
209.7298464130462
 10
253.809280870531
 20
209.6447845556087
 10
253.7666540623259
 20
209.5575227924922
 10
253.7425298784185
 20
209.490920798526
  0
LINE
  5
363
330
2F4
100
AcDbEntity
  8
RMF
  6
Continuous
 62
     4
100
AcDbLine
 10
255.1456213087882
 20
210.3954902515939
 30
0.0
 11
256.0004312330619
 21
208.5536485633616
 31
0.0
  0
LINE
  5
364
330
2F4
100
AcDbEntity
  8
RMF
  6
Continuous
 62
     4
100
AcDbLine
 10
256.099402943473
 20
208.5634650855641
 30
0.0
 11
255.2421712333833
 21
210.4105249468064
 31
0.0
  0
LINE
  5
365
330
2F4
100
AcDbEntity
  8
RMF
  6
Continuous
 62
     4
100
AcDbLine
 10
256.0270782687494
 20
208.5560015006885
 30
0.0
 11
255.2422138914171
 21
210.2471329308803
 31
0.0
  0
LWPOLYLINE
  5
366
330
2F4
100
AcDbEntity
  8
RMF
  6
Continuous
 62
     4
100
AcDbPolyline
 90
        4
 70
   128
 43
0.0
 10
257.6711918777659
 20
211.9823845887268
 10
257.7015763715157
 20
211.7818748738347
 10
257.7918066353047
 20
211.5874575451214
 10
257.8327142466808
 20
211.5277829047613
  0
LWPOLYLINE
  5
367
330
2F4
100
AcDbEntity
  8
RMF
  6
Continuous
 62
     4
100
AcDbPolyline
 90
        4
 70
   128
 43
0.0
 10
257.8327142466808
 20
212.4369862726924
 10
257.7239141414047
 20
212.2457635388576
 10
257.6742810843382
 20
212.0465381689587
 10
257.6711918777659
 20
211.9823845887268
  0
ARC
  5
368
330
2F4
100
AcDbEntity
  8
RMF
  6
Continuous
 62
     4
100
AcDbCircle
 10
-258.5235054890257
 20
211.5050922974625
 30
0.0
 40
0.866326515749416
210
0.0
220
0.0
230
-1.0
100
AcDbArc
 50
18.32631076933484
 51
37.08767310701595
  0
LINE
  5
369
330
2F4
100
AcDbEntity
  8
RMF
  6
Continuous
 62
     4
100
AcDbLine
 10
269.8535805366961
 20
176.2198308108879
 30
0.0
 11
266.3179956209195
 21
174.1785795418612
 31
0.0
  0
ENDBLK
  5
2F6
330
2F4
100
AcDbEntity
  8
0
100
AcDbBlockEnd
  0
BLOCK
  5
36C
330
36B
100
AcDbEntity
  8
0
100
AcDbBlockBegin
  2
View  2
 70
     0
 10
0.0
 20
0.0
 30
0.0
  3
View  2
  1

  0
LINE
  5
36E
330
36B
100
AcDbEntity
  8
RMF
  6
Continuous
 62
     4
100
AcDbLine
 10
86.40639612787413
 20
195.7649639352552
 30
0.0
 11
86.40639612787415
 21
227.7649639352552
 31
0.0
  0
LINE
  5
36F
330
36B
100
AcDbEntity
  8
RMF
  6
Continuous
 62
     4
100
AcDbLine
 10
176.4063961278742
 20
227.7649639352552
 30
0.0
 11
162.4063961278741
 21
227.7649639352552
 31
0.0
  0
LINE
  5
370
330
36B
100
AcDbEntity
  8
RMF
  6
Continuous
 62
     4
100
AcDbLine
 10
176.4063961278741
 20
195.7649639352552
 30
0.0
 11
176.4063961278742
 21
227.7649639352552
 31
0.0
  0
LINE
  5
371
330
36B
100
AcDbEntity
  8
RMF
  6
Continuous
 62
     4
100
AcDbLine
 10
150.4063961278741
 20
195.7649639352552
 30
0.0
 11
176.4063961278741
 21
195.7649639352552
 31
0.0
  0
LINE
  5
372
330
36B
100
AcDbEntity
  8
RMF
  6
Continuous
 62
     4
100
AcDbLine
 10
100.4063961278741
 20
227.7649639352552
 30
0.0
 11
86.40639612787415
 21
227.7649639352552
 31
0.0
  0
LINE
  5
373
330
36B
100
AcDbEntity
  8
RMF
  6
Continuous
 62
     4
100
AcDbLine
 10
162.4063961278741
 20
243.7649639352552
 30
0.0
 11
154.0563961278741
 21
243.7649639352552
 31
0.0
  0
LINE
  5
374
330
36B
100
AcDbEntity
  8
RMF
  6
Continuous
 62
     4
100
AcDbLine
 10
86.40639612787413
 20
195.7649639352552
 30
0.0
 11
112.4063961278741
 21
195.7649639352552
 31
0.0
  0
LINE
  5
375
330
36B
100
AcDbEntity
  8
RMF
  6
Continuous
 62
     4
100
AcDbLine
 10
108.7563961278741
 20
243.7649639352552
 30
0.0
 11
100.4063961278741
 21
243.7649639352552
 31
0.0
  0
LINE
  5
376
330
36B
100
AcDbEntity
  8
RMF
  6
Continuous
 62
     4
100
AcDbLine
 10
108.7563961278741
 20
243.7649639352552
 30
0.0
 11
108.7563961278741
 21
253.7649639352552
 31
0.0
  0
LINE
  5
377
330
36B
100
AcDbEntity
  8
RMF
  6
Continuous
 62
     4
100
AcDbLine
 10
154.0563961278741
 20
253.7649639352552
 30
0.0
 11
108.7563961278741
 21
253.7649639352552
 31
0.0
  0
LINE
  5
378
330
36B
100
AcDbEntity
  8
RMF
  6
Continuous
 62
     4
100
AcDbLine
 10
154.0563961278741
 20
243.7649639352552
 30
0.0
 11
154.0563961278741
 21
253.7649639352552
 31
0.0
  0
LINE
  5
379
330
36B
100
AcDbEntity
  8
RMF
  6
Continuous
 62
     4
100
AcDbLine
 10
100.4063961278741
 20
227.7649639352552
 30
0.0
 11
100.4063961278741
 21
243.7649639352552
 31
0.0
  0
LINE
  5
37A
330
36B
100
AcDbEntity
  8
RMF
  6
Continuous
 62
     4
100
AcDbLine
 10
162.4063961278741
 20
227.7649639352552
 30
0.0
 11
162.4063961278741
 21
243.7649639352552
 31
0.0
  0
LINE
  5
37B
330
36B
100
AcDbEntity
  8
RMF
  6
Continuous
 62
     4
100
AcDbLine
 10
150.4063961278741
 20
195.7649639352552
 30
0.0
 11
150.4063961278741
 21
200.7649639352552
 31
0.0
  0
LINE
  5
37C
330
36B
100
AcDbEntity
  8
RMF
  6
Continuous
 62
     4
100
AcDbLine
 10
150.4063961278741
 20
200.7649639352552
 30
0.0
 11
112.4063961278741
 21
200.7649639352552
 31
0.0
  0
LINE
  5
37D
330
36B
100
AcDbEntity
  8
RMF
  6
Continuous
 62
     4
100
AcDbLine
 10
112.4063961278741
 20
195.7649639352552
 30
0.0
 11
112.4063961278741
 21
200.7649639352552
 31
0.0
  0
LINE
  5
37E
330
36B
100
AcDbEntity
  8
RMF
  6
Continuous
 62
     4
100
AcDbLine
 10
167.4063961278741
 20
195.7649639352552
 30
0.0
 11
167.4063961278741
 21
195.2649639352552
 31
0.0
  0
LINE
  5
37F
330
36B
100
AcDbEntity
  8
RMF
  6
Continuous
 62
     4
100
AcDbLine
 10
171.4063961278741
 20
195.2649639352552
 30
0.0
 11
171.4063961278741
 21
195.7649639352552
 31
0.0
  0
LINE
  5
380
330
36B
100
AcDbEntity
  8
RMF
  6
Continuous
 62
     4
100
AcDbLine
 10
167.4063961278741
 20
195.2649639352552
 30
0.0
 11
171.4063961278741
 21
195.2649639352552
 31
0.0
  0
LINE
  5
381
330
36B
100
AcDbEntity
  8
RMF
  6
Continuous
 62
     4
100
AcDbLine
 10
91.40639612787413
 20
195.7649639352552
 30
0.0
 11
91.40639612787413
 21
195.2649639352552
 31
0.0
  0
LINE
  5
382
330
36B
100
AcDbEntity
  8
RMF
  6
Continuous
 62
     4
100
AcDbLine
 10
95.40639612787413
 20
195.2649639352552
 30
0.0
 11
95.40639612787413
 21
195.7649639352552
 31
0.0
  0
LINE
  5
383
330
36B
100
AcDbEntity
  8
RMF
  6
Continuous
 62
     4
100
AcDbLine
 10
91.40639612787413
 20
195.2649639352552
 30
0.0
 11
95.40639612787413
 21
195.2649639352552
 31
0.0
  0
LINE
  5
384
330
36B
100
AcDbEntity
  8
RMF
  6
Continuous
 62
     4
100
AcDbLine
 10
180.2063961278741
 20
195.7649639352552
 30
0.0
 11
180.2063961278741
 21
200.7649639352552
 31
0.0
  0
LINE
  5
385
330
36B
100
AcDbEntity
  8
RMF
  6
Continuous
 62
     4
100
AcDbLine
 10
180.2063961278741
 20
200.7649639352552
 30
0.0
 11
176.4063961278741
 21
200.7649639352552
 31
0.0
  0
LINE
  5
386
330
36B
100
AcDbEntity
  8
RMF
  6
Continuous
 62
     4
100
AcDbLine
 10
176.4063961278741
 20
195.7649639352552
 30
0.0
 11
180.2063961278741
 21
195.7649639352552
 31
0.0
  0
LINE
  5
387
330
36B
100
AcDbEntity
  8
RMF
  6
DIVIDE
 62
   100
100
AcDbLine
 10
169.4063961278741
 20
198.7649639352552
 30
0.0
 11
169.4063961278741
 21
192.2649639352552
 31
0.0
  0
LINE
  5
388
330
36B
100
AcDbEntity
  8
RMF
  6
DIVIDE
 62
   100
100
AcDbLine
 10
93.40639612787413
 20
198.7649639352552
 30
0.0
 11
93.40639612787413
 21
192.2649639352552
 31
0.0
  0
ENDBLK
  5
36D
330
36B
100
AcDbEntity
  8
0
100
AcDbBlockEnd
  0
ENDSEC
  0
SECTION
  2
ENTITIES
  0
DIMENSION
  5
F1
330
1B
100
AcDbEntity
 67
     1
  8
RMF
  6
Continuous
 62
    56
100
AcDbDimension
  2
*D18
 10
72.76386650645759
 20
141.384353165471
 30
0.0
 11
71.26386650645759
 21
144.000144204548
 31
0.0
 70
    32
  1
<>
 71
     5
 42
-1.0
  3
Vero Software
100
AcDbAlignedDimension
 13
86.4063961278741
 23
120.586723959322
 33
0.0
 14
86.4063961278741
 24
156.586723959322
 34
0.0
 50
90.0
100
AcDbRotatedDimension
1001
ACAD
1000
DSTYLE
1002
{
1070
    41
1040
2.83564090980885
1070
   340
1005
71
1070
   278
1070
    46
1002
}
  0
DIMENSION
  5
FB
330
1B
100
AcDbEntity
 67
     1
  8
RMF
  6
Continuous
 62
    56
100
AcDbDimension
  2
*D19
 10
166.767558549497
 20
168.042118548415
 30
0.0
 11
136.8198163731
 21
169.542118548415
 31
0.0
 70
    32
  1
<>
 71
     5
 42
-1.0
  3
Vero Software
100
AcDbAlignedDimension
 13
86.4063961278741
 23
156.586723959322
 33
0.0
 14
176.406396127874
 24
156.586723959322
 34
0.0
100
AcDbRotatedDimension
1001
ACAD
1000
DSTYLE
1002
{
1070
    41
1040
2.83564090980885
1070
   340
1005
71
1070
   278
1070
    46
1002
}
  0
DIMENSION
  5
105
330
1B
100
AcDbEntity
 67
     1
  8
RMF
  6
Continuous
 62
    56
100
AcDbDimension
  2
*D20
 10
73.4223424670076
 20
214.760241652247
 30
0.0
 11
71.9223424670076
 21
230.178384180481
 31
0.0
 70
    32
  1
<>
 71
     5
 42
-1.0
  3
Vero Software
100
AcDbAlignedDimension
 13
108.756396127874
 23
253.764963935255
 33
0.0
 14
86.4063961278741
 24
195.764963935255
 34
0.0
 50
90.0
100
AcDbRotatedDimension
1001
ACAD
1000
DSTYLE
1002
{
1070
    41
1040
2.83564090980885
1070
   340
1005
71
1070
   278
1070
    46
1002
}
  0
DIMENSION
  5
10F
330
1B
100
AcDbEntity
 67
     1
  8
RMF
  6
Continuous
 62
    56
100
AcDbDimension
  2
*D21
 10
129.046094993848
 20
108.854260671331
 30
0.0
 11
142.633236618326
 21
110.354260671331
 31
0.0
 70
    32
  1
<>
 71
     5
 42
-1.0
  3
Vero Software
100
AcDbAlignedDimension
 13
86.4063961278741
 23
120.586723959322
 33
0.0
 14
180.206396127874
 24
132.586723959322
 34
0.0
100
AcDbRotatedDimension
1001
ACAD
1000
DSTYLE
1002
{
1070
    41
1040
2.83564090980885
1070
   340
1005
71
1070
   278
1070
    46
1002
}
  0
INSERT
  5
158
330
1B
100
AcDbEntity
 67
     1
  8
RMF
  6
Continuous
 62
     4
100
AcDbBlockReference
  2
Entity set 0
 10
0.0
 20
0.0
 30
0.0
  0
INSERT
  5
29C
330
1B
100
AcDbEntity
 67
     1
  8
RMF
  6
Continuous
 62
     4
100
AcDbBlockReference
  2
Entity set 1
 10
0.0
 20
0.0
 30
0.0
  0
INSERT
  5
2F3
330
1B
100
AcDbEntity
 67
     1
  8
RMF
  6
Continuous
 62
     4
100
AcDbBlockReference
  2
View  0
 10
0.0
 20
0.0
 30
0.0
  0
INSERT
  5
36A
330
1B
100
AcDbEntity
 67
     1
  8
RMF
  6
Continuous
 62
     4
100
AcDbBlockReference
  2
View  1
 10
0.0
 20
0.0
 30
0.0
  0
INSERT
  5
389
330
1B
100
AcDbEntity
 67
     1
  8
RMF
  6
Continuous
 62
     4
100
AcDbBlockReference
  2
View  2
 10
0.0
 20
0.0
 30
0.0
  0
VIEWPORT
  5
38A
102
{ACAD_XDICTIONARY
360
398
102
}
330
1B
100
AcDbEntity
 67
     1
  8
0
100
AcDbViewport
 10
0.0
 20
0.0
 30
0.0
 40
428.4
 41
302.9400000000001
 68
     1
 69
     1
 12
210.0
 22
148.5000000000001
 13
0.0
 23
0.0
 14
10.0
 24
10.0
 15
10.0
 25
10.0
 16
0.0
 26
0.0
 36
1.0
 17
0.0
 27
0.0
 37
0.0
 42
50.0
 43
0.0
 44
0.0
 45
302.9400000000001
 50
0.0
 51
0.0
 72
   100
 90
   557152
  1

281
     0
 71
     1
 74
     0
110
0.0
120
0.0
130
0.0
111
1.0
121
0.0
131
0.0
112
0.0
122
1.0
132
0.0
 79
     0
146
0.0
  0
ENDSEC
  0
SECTION
  2
OBJECTS
  0
DICTIONARY
  5
C
330
0
100
AcDbDictionary
281
     1
  3
ACAD_GROUP
350
D
  3
ACAD_LAYOUT
350
1A
  3
ACAD_MATERIAL
350
43
  3
ACAD_MLEADERSTYLE
350
6B
  3
ACAD_MLINESTYLE
350
17
  3
ACAD_PLOTSETTINGS
350
19
  3
ACAD_PLOTSTYLENAME
350
E
  3
ACAD_SCALELIST
350
47
  3
ACAD_TABLESTYLE
350
69
  3
ACAD_VISUALSTYLE
350
2A
  3
AcDbVariableDictionary
350
38C
  3
DWGPROPS
350
397
  0
DICTIONARY
  5
39A
330
8
100
AcDbDictionary
280
     1
281
     1
  3
ACAD_XREC_ROUNDTRIP
360
39B
  0
DICTIONARY
  5
398
330
38A
100
AcDbDictionary
280
     1
281
     1
  3
ACAD_XREC_ROUNDTRIP
360
399
  0
DICTIONARY
  5
D
102
{ACAD_REACTORS
330
C
102
}
330
C
100
AcDbDictionary
281
     1
  0
DICTIONARY
  5
1A
102
{ACAD_REACTORS
330
C
102
}
330
C
100
AcDbDictionary
281
     1
  3
Blatt-1
350
1E
  3
Layout2
350
26
  3
Model
350
22
  0
DICTIONARY
  5
43
102
{ACAD_REACTORS
330
C
102
}
330
C
100
AcDbDictionary
281
     1
  3
ByBlock
350
45
  3
ByLayer
350
44
  3
Global
350
46
  0
DICTIONARY
  5
6B
102
{ACAD_REACTORS
330
C
102
}
330
C
100
AcDbDictionary
281
     1
  3
Standard
350
6C
  3
VisiBalloon
350
F0
  0
DICTIONARY
  5
17
102
{ACAD_REACTORS
330
C
102
}
330
C
100
AcDbDictionary
281
     1
  3
Standard
350
18
  0
DICTIONARY
  5
19
102
{ACAD_REACTORS
330
C
102
}
330
C
100
AcDbDictionary
281
     1
  0
ACDBDICTIONARYWDFLT
  5
E
102
{ACAD_REACTORS
330
C
102
}
330
C
100
AcDbDictionary
281
     1
  3
Normal
350
F
100
AcDbDictionaryWithDefault
340
F
  0
DICTIONARY
  5
47
102
{ACAD_REACTORS
330
C
102
}
330
C
100
AcDbDictionary
281
     1
  3
A0
350
48
  3
A1
350
49
  3
A2
350
4A
  3
A3
350
4B
  3
A4
350
4C
  3
A5
350
4D
  3
A6
350
4E
  3
A7
350
4F
  3
A8
350
50
  3
A9
350
51
  3
B0
350
52
  3
B1
350
53
  3
B2
350
54
  3
B3
350
55
  3
B4
350
56
  3
B5
350
57
  3
B6
350
58
  3
B7
350
59
  3
B8
350
5A
  3
B9
350
5B
  3
C0
350
5C
  3
C1
350
5D
  3
C2
350
5E
  3
C3
350
5F
  3
C4
350
60
  3
C5
350
61
  3
C6
350
62
  3
C7
350
63
  3
C8
350
64
  3
C9
350
65
  3
D0
350
66
  3
D1
350
67
  3
D2
350
68
  0
DICTIONARY
  5
69
102
{ACAD_REACTORS
330
C
102
}
330
C
100
AcDbDictionary
281
     1
  3
Standard
350
6A
  0
DICTIONARY
  5
2A
102
{ACAD_REACTORS
330
C
102
}
330
C
100
AcDbDictionary
281
     1
  3
2dWireframe
350
2F
  3
Basic
350
32
  3
Brighten
350
36
  3
ColorChange
350
3A
  3
Conceptual
350
34
  3
Dim
350
35
  3
EdgeColorOff
350
3D
  3
Facepattern
350
39
  3
Flat
350
2B
  3
FlatWithEdges
350
2C
  3
Gouraud
350
2D
  3
GouraudWithEdges
350
2E
  3
Hidden
350
31
  3
JitterOff
350
3B
  3
Linepattern
350
38
  3
OverhangOff
350
3C
  3
Realistic
350
33
  3
Shaded
350
42
  3
Shaded with edges
350
41
  3
Shades of Gray
350
3E
  3
Sketchy
350
3F
  3
Thicken
350
37
  3
Wireframe
350
30
  3
X-Ray
350
40
  0
DICTIONARY
  5
38C
102
{ACAD_REACTORS
330
C
102
}
330
C
100
AcDbDictionary
281
     1
  3
CANNOSCALE
350
39C
  3
CENTEREXE
350
393
  3
CENTERLTYPEFILE
350
394
  3
CMLEADERSTYLE
350
38E
  3
CTABLESTYLE
350
38D
  3
DIMASSOC
350
395
  3
HIDETEXT
350
396
  3
MSLTSCALE
350
39D
  3
PSOLHEIGHT
350
390
  3
PSOLWIDTH
350
38F
  0
XRECORD
  5
397
102
{ACAD_REACTORS
330
C
102
}
330
C
100
AcDbXrecord
280
     1
  1
DWGPROPS COOKIE
  2

  3

  4
koester
  6

  7

  8
koester
  9

300
Vero Software=VISI 2021.0.2050
301
Source file=N:\Zeichnungen\560-Z_BST Solutions GmbH\560_001\Konstruktion\Artikel mit Zeichnungen\RMF.WKF
302
=
303
=
304
=
305
=
306
=
307
=
308
=
309
=
 40
0.0
 41
2459296.541979248
 42
2459296.541980498
  1

 90
        2
  0
XRECORD
  5
39B
102
{ACAD_REACTORS
330
39A
102
}
330
39A
100
AcDbXrecord
280
     1
102
VTR_0.000_0.000_1.000_1.000_VISUALSTYLE
340
2F
102
VTR_0.000_0.000_1.000_1.000_GRIDDISPLAY
 70
     3
102
VTR_0.000_0.000_1.000_1.000_GRIDMAJOR
 70
     5
102
VTR_0.000_0.000_1.000_1.000_DEFAULTLIGHTING
280
     1
102
VTR_0.000_0.000_1.000_1.000_DEFAULTLIGHTINGTYPE
 70
     1
102
VTR_0.000_0.000_1.000_1.000_BRIGHTNESS
141
0.0
102
VTR_0.000_0.000_1.000_1.000_CONTRAST
142
0.0
  0
XRECORD
  5
399
102
{ACAD_REACTORS
330
398
102
}
330
398
100
AcDbXrecord
280
     1
102
VISUALSTYLE
340
2F
102
GRIDDISPLAY
 70
     2
102
GRIDMAJOR
 70
     5
102
DEFAULTLIGHTING
280
     1
102
DEFAULTLIGHTINGTYPE
 70
     1
102
BRIGHTNESS
141
0.0
102
CONTRAST
142
0.0
  0
LAYOUT
  5
1E
102
{ACAD_REACTORS
330
1A
102
}
330
1A
100
AcDbPlotSettings
  1
Blatt-1
  2
none_device
  4
ISO_A4_(210.00_x_297.00_MM)
  6

 40
4.0
 41
4.0
 42
4.0
 43
4.0
 44
337.0000000000001
 45
434.9999999999999
 46
0.0
 47
0.0
 48
0.0
 49
0.0
140
0.0
141
0.0
142
1.0
143
1.0
 70
   689
 72
     1
 73
     1
 74
     5
  7

 75
    16
147
1.0
148
0.0
149
0.0
100
AcDbLayout
  1
Blatt-1
 70
     1
 71
     1
 10
-20.0
 20
-7.5
 11
277.0
 21
202.5
 12
0.0
 22
0.0
 32
0.0
 14
0.0
 24
0.0
 34
0.0
 15
419.9999999999999
 25
297.0000000000001
 35
0.0
146
0.0
 13
0.0
 23
0.0
 33
0.0
 16
1.0
 26
0.0
 36
0.0
 17
0.0
 27
1.0
 37
0.0
 76
     0
330
1B
331
38A
  0
LAYOUT
  5
26
102
{ACAD_REACTORS
330
1A
102
}
330
1A
100
AcDbPlotSettings
  1

  2
none_device
  4

  6

 40
0.0
 41
0.0
 42
0.0
 43
0.0
 44
0.0
 45
0.0
 46
0.0
 47
0.0
 48
0.0
 49
0.0
140
0.0
141
0.0
142
1.0
143
1.0
 70
   688
 72
     1
 73
     0
 74
     5
  7

 75
    16
147
1.0
148
0.0
149
0.0
100
AcDbLayout
  1
Layout2
 70
     1
 71
     2
 10
0.0
 20
0.0
 11
0.0
 21
0.0
 12
0.0
 22
0.0
 32
0.0
 14
0.0
 24
0.0
 34
0.0
 15
0.0
 25
0.0
 35
0.0
146
0.0
 13
0.0
 23
0.0
 33
0.0
 16
1.0
 26
0.0
 36
0.0
 17
0.0
 27
1.0
 37
0.0
 76
     0
330
23
  0
LAYOUT
  5
22
102
{ACAD_REACTORS
330
1A
102
}
330
1A
100
AcDbPlotSettings
  1

  2
none_device
  4
Letter_(8.50_x_11.00_Inches)
  6

 40
6.35
 41
6.35
 42
6.35000508
 43
6.35000508
 44
215.9
 45
279.4
 46
0.0
 47
0.0
 48
0.0
 49
0.0
140
0.0
141
0.0
142
1.0
143
1.0
 70
  1713
 72
     1
 73
     0
 74
     0
  7

 75
     0
147
1.0
148
0.0
149
0.0
100
AcDbLayout
  1
Model
 70
     1
 71
     0
 10
0.0
 20
0.0
 11
420.0
 21
297.0
 12
0.0
 22
0.0
 32
0.0
 14
1.000000000000000E+20
 24
1.000000000000000E+20
 34
1.000000000000000E+20
 15
-1.000000000000000E+20
 25
-1.000000000000000E+20
 35
-1.000000000000000E+20
146
0.0
 13
0.0
 23
0.0
 33
0.0
 16
1.0
 26
0.0
 36
0.0
 17
0.0
 27
1.0
 37
0.0
 76
     0
330
1F
331
29
  0
MATERIAL
  5
45
102
{ACAD_REACTORS
330
43
102
}
102
{ACAD_XDICTIONARY
360
3D0
102
}
330
43
100
AcDbMaterial
  1
ByBlock
  0
MATERIAL
  5
44
102
{ACAD_REACTORS
330
43
102
}
102
{ACAD_XDICTIONARY
360
3CE
102
}
330
43
100
AcDbMaterial
  1
ByLayer
  0
MATERIAL
  5
46
102
{ACAD_REACTORS
330
43
102
}
102
{ACAD_XDICTIONARY
360
3D2
102
}
330
43
100
AcDbMaterial
  1
Global
  0
MLEADERSTYLE
  5
6C
102
{ACAD_REACTORS
330
6B
102
}
102
{ACAD_XDICTIONARY
360
3D5
102
}
330
6B
100
AcDbMLeaderStyle
170
     2
171
     1
172
     0
 90
        2
 40
0.0
 41
0.0
173
     1
 91
-1056964608
340
14
 92
       -2
290
     1
 42
2.0
291
     1
 43
8.0
  3
Standard
341
0
 44
4.0
300

342
11
174
     1
178
     6
175
     1
176
     0
 93
-1056964608
 45
4.0
292
     0
297
     0
 46
4.0
343
0
 94
-1056964608
 47
1.0
 49
1.0
140
1.0
293
     1
141
0.0
294
     1
177
     0
142
1.0
295
     0
296
     0
143
3.75
1001
ACAD_MLEADERVER
1070
     2
  0
MLEADERSTYLE
  5
F0
102
{ACAD_REACTORS
330
6B
102
}
102
{ACAD_XDICTIONARY
360
3D7
102
}
330
6B
100
AcDbMLeaderStyle
170
     2
171
     1
172
     0
 90
        2
 40
0.0
 41
0.0
173
     1
 91
-1056964608
340
14
 92
       -2
290
     0
 42
0.0
291
     0
 43
0.0
  3

341
0
 44
0.18
300

342
71
174
     1
178
     6
175
     1
176
     0
 93
-1023410169
 45
0.2
292
     0
297
     0
 46
5.0
343
0
 94
-1056964608
 47
1.0
 49
1.0
140
1.0
293
     1
141
0.0
294
     1
177
     0
142
1.0
295
     0
296
     0
143
0.125
1001
ACAD_MLEADERVER
1070
     2
  0
MLINESTYLE
  5
18
102
{ACAD_REACTORS
330
17
102
}
330
17
100
AcDbMlineStyle
  2
Standard
 70
     0
  3

 62
   256
 51
90.0
 52
90.0
 71
     2
 49
0.5
 62
   256
  6
BYLAYER
 49
-0.5
 62
   256
  6
BYLAYER
  0
ACDBPLACEHOLDER
  5
F
102
{ACAD_REACTORS
330
E
102
}
330
E
  0
SCALE
  5
48
102
{ACAD_REACTORS
330
47
102
}
330
47
100
AcDbScale
 70
     0
300
1:1
140
1.0
141
1.0
290
     1
  0
SCALE
  5
49
102
{ACAD_REACTORS
330
47
102
}
330
47
100
AcDbScale
 70
     0
300
1:2
140
1.0
141
2.0
290
     0
  0
SCALE
  5
4A
102
{ACAD_REACTORS
330
47
102
}
330
47
100
AcDbScale
 70
     0
300
1:4
140
1.0
141
4.0
290
     0
  0
SCALE
  5
4B
102
{ACAD_REACTORS
330
47
102
}
330
47
100
AcDbScale
 70
     0
300
1:5
140
1.0
141
5.0
290
     0
  0
SCALE
  5
4C
102
{ACAD_REACTORS
330
47
102
}
330
47
100
AcDbScale
 70
     0
300
1:8
140
1.0
141
8.0
290
     0
  0
SCALE
  5
4D
102
{ACAD_REACTORS
330
47
102
}
330
47
100
AcDbScale
 70
     0
300
1:10
140
1.0
141
10.0
290
     0
  0
SCALE
  5
4E
102
{ACAD_REACTORS
330
47
102
}
330
47
100
AcDbScale
 70
     0
300
1:16
140
1.0
141
16.0
290
     0
  0
SCALE
  5
4F
102
{ACAD_REACTORS
330
47
102
}
330
47
100
AcDbScale
 70
     0
300
1:20
140
1.0
141
20.0
290
     0
  0
SCALE
  5
50
102
{ACAD_REACTORS
330
47
102
}
330
47
100
AcDbScale
 70
     0
300
1:30
140
1.0
141
30.0
290
     0
  0
SCALE
  5
51
102
{ACAD_REACTORS
330
47
102
}
330
47
100
AcDbScale
 70
     0
300
1:40
140
1.0
141
40.0
290
     0
  0
SCALE
  5
52
102
{ACAD_REACTORS
330
47
102
}
330
47
100
AcDbScale
 70
     0
300
1:50
140
1.0
141
50.0
290
     0
  0
SCALE
  5
53
102
{ACAD_REACTORS
330
47
102
}
330
47
100
AcDbScale
 70
     0
300
1:100
140
1.0
141
100.0
290
     0
  0
SCALE
  5
54
102
{ACAD_REACTORS
330
47
102
}
330
47
100
AcDbScale
 70
     0
300
2:1
140
2.0
141
1.0
290
     0
  0
SCALE
  5
55
102
{ACAD_REACTORS
330
47
102
}
330
47
100
AcDbScale
 70
     0
300
4:1
140
4.0
141
1.0
290
     0
  0
SCALE
  5
56
102
{ACAD_REACTORS
330
47
102
}
330
47
100
AcDbScale
 70
     0
300
8:1
140
8.0
141
1.0
290
     0
  0
SCALE
  5
57
102
{ACAD_REACTORS
330
47
102
}
330
47
100
AcDbScale
 70
     0
300
10:1
140
10.0
141
1.0
290
     0
  0
SCALE
  5
58
102
{ACAD_REACTORS
330
47
102
}
330
47
100
AcDbScale
 70
     0
300
100:1
140
100.0
141
1.0
290
     0
  0
SCALE
  5
59
102
{ACAD_REACTORS
330
47
102
}
330
47
100
AcDbScale
 70
     0
300
1/128" = 1'-0"
140
0.0078125
141
12.0
290
     0
  0
SCALE
  5
5A
102
{ACAD_REACTORS
330
47
102
}
330
47
100
AcDbScale
 70
     0
300
1/64" = 1'-0"
140
0.015625
141
12.0
290
     0
  0
SCALE
  5
5B
102
{ACAD_REACTORS
330
47
102
}
330
47
100
AcDbScale
 70
     0
300
1/32" = 1'-0"
140
0.03125
141
12.0
290
     0
  0
SCALE
  5
5C
102
{ACAD_REACTORS
330
47
102
}
330
47
100
AcDbScale
 70
     0
300
1/16" = 1'-0"
140
0.0625
141
12.0
290
     0
  0
SCALE
  5
5D
102
{ACAD_REACTORS
330
47
102
}
330
47
100
AcDbScale
 70
     0
300
3/32" = 1'-0"
140
0.09375
141
12.0
290
     0
  0
SCALE
  5
5E
102
{ACAD_REACTORS
330
47
102
}
330
47
100
AcDbScale
 70
     0
300
1/8" = 1'-0"
140
0.125
141
12.0
290
     0
  0
SCALE
  5
5F
102
{ACAD_REACTORS
330
47
102
}
330
47
100
AcDbScale
 70
     0
300
3/16" = 1'-0"
140
0.1875
141
12.0
290
     0
  0
SCALE
  5
60
102
{ACAD_REACTORS
330
47
102
}
330
47
100
AcDbScale
 70
     0
300
1/4" = 1'-0"
140
0.25
141
12.0
290
     0
  0
SCALE
  5
61
102
{ACAD_REACTORS
330
47
102
}
330
47
100
AcDbScale
 70
     0
300
3/8" = 1'-0"
140
0.375
141
12.0
290
     0
  0
SCALE
  5
62
102
{ACAD_REACTORS
330
47
102
}
330
47
100
AcDbScale
 70
     0
300
1/2" = 1'-0"
140
0.5
141
12.0
290
     0
  0
SCALE
  5
63
102
{ACAD_REACTORS
330
47
102
}
330
47
100
AcDbScale
 70
     0
300
3/4" = 1'-0"
140
0.75
141
12.0
290
     0
  0
SCALE
  5
64
102
{ACAD_REACTORS
330
47
102
}
330
47
100
AcDbScale
 70
     0
300
1" = 1'-0"
140
1.0
141
12.0
290
     0
  0
SCALE
  5
65
102
{ACAD_REACTORS
330
47
102
}
330
47
100
AcDbScale
 70
     0
300
1-1/2" = 1'-0"
140
1.5
141
12.0
290
     0
  0
SCALE
  5
66
102
{ACAD_REACTORS
330
47
102
}
330
47
100
AcDbScale
 70
     0
300
3" = 1'-0"
140
3.0
141
12.0
290
     0
  0
SCALE
  5
67
102
{ACAD_REACTORS
330
47
102
}
330
47
100
AcDbScale
 70
     0
300
6" = 1'-0"
140
6.0
141
12.0
290
     0
  0
SCALE
  5
68
102
{ACAD_REACTORS
330
47
102
}
330
47
100
AcDbScale
 70
     0
300
1'-0" = 1'-0"
140
12.0
141
12.0
290
     0
  0
TABLESTYLE
  5
6A
102
{ACAD_REACTORS
330
69
102
}
330
69
100
AcDbTableStyle
  3
Standard
 70
     0
 71
     0
 40
1.5
 41
1.5
280
     0
281
     0
  7
Standard
140
4.5
170
     2
 62
     0
 63
   257
283
     0
274
    -2
284
     1
 64
     0
275
    -2
285
     1
 65
     0
276
    -2
286
     1
 66
     0
277
    -2
287
     1
 67
     0
278
    -2
288
     1
 68
     0
279
    -2
289
     1
 69
     0
  7
Standard
140
6.0
170
     5
 62
     0
 63
   257
283
     0
274
    -2
284
     1
 64
     0
275
    -2
285
     1
 65
     0
276
    -2
286
     1
 66
     0
277
    -2
287
     1
 67
     0
278
    -2
288
     1
 68
     0
279
    -2
289
     1
 69
     0
  7
Standard
140
4.5
170
     5
 62
     0
 63
   257
283
     0
274
    -2
284
     1
 64
     0
275
    -2
285
     1
 65
     0
276
    -2
286
     1
 66
     0
277
    -2
287
     1
 67
     0
278
    -2
288
     1
 68
     0
279
    -2
289
     1
 69
     0
  0
VISUALSTYLE
  5
2F
102
{ACAD_REACTORS
330
2A
102
}
102
{ACAD_XDICTIONARY
360
3A6
102
}
330
2A
100
AcDbVisualStyle
  2
2dWireframe
 70
     4
 71
     0
 72
     2
 73
     0
 90
        0
 40
0.6
 41
30.0
 62
     5
 63
     7
 74
     1
 91
        4
 64
     7
 65
   257
 75
     1
175
     1
 42
1.0
 92
        0
 66
   257
 43
1.0
 76
     1
 77
     6
 78
     2
 67
     7
 79
     5
170
     0
171
     0
290
     0
174
     0
 93
        1
 44
0.0
173
     0
291
     0
 45
0.0
1001
ACAD
1000
AcDbSavedByObjectVersion
1070
     0
  0
VISUALSTYLE
  5
32
102
{ACAD_REACTORS
330
2A
102
}
102
{ACAD_XDICTIONARY
360
3AC
102
}
330
2A
100
AcDbVisualStyle
  2
Basic
 70
     7
 71
     1
 72
     0
 73
     1
 90
        0
 40
0.6
 41
30.0
 62
     5
 63
     7
 74
     0
 91
        4
 64
     7
 65
   257
 75
     1
175
     1
 42
1.0
 92
        8
 66
     7
 43
1.0
 76
     1
 77
     6
 78
     2
 67
     7
 79
     5
170
     0
171
     0
290
     0
174
     0
 93
        1
 44
0.0
173
     0
291
     1
 45
0.0
1001
ACAD
1000
AcDbSavedByObjectVersion
1070
     0
  0
VISUALSTYLE
  5
36
102
{ACAD_REACTORS
330
2A
102
}
102
{ACAD_XDICTIONARY
360
3B4
102
}
330
2A
100
AcDbVisualStyle
  2
Brighten
 70
    12
 71
     2
 72
     2
 73
     0
 90
        0
 40
0.6
 41
30.0
 62
     5
 63
     7
 74
     1
 91
        4
 64
     7
 65
   257
 75
     1
175
     1
 42
1.0
 92
        8
 66
     7
 43
1.0
 76
     1
 77
     6
 78
     2
 67
     7
 79
     5
170
     0
171
     0
290
     0
174
     0
 93
        1
 44
50.0
173
     0
291
     1
 45
0.0
1001
ACAD
1000
AcDbSavedByObjectVersion
1070
     0
  0
VISUALSTYLE
  5
3A
102
{ACAD_REACTORS
330
2A
102
}
102
{ACAD_XDICTIONARY
360
3BC
102
}
330
2A
100
AcDbVisualStyle
  2
ColorChange
 70
    16
 71
     2
 72
     2
 73
     3
 90
        0
 40
0.6
 41
30.0
 62
     5
 63
     8
 74
     1
 91
        4
 64
     7
 65
   257
 75
     1
175
     1
 42
1.0
 92
        8
 66
     8
 43
1.0
 76
     1
 77
     6
 78
     2
 67
     7
 79
     5
170
     0
171
     0
290
     0
174
     0
 93
        1
 44
0.0
173
     0
291
     1
 45
0.0
1001
ACAD
1000
AcDbSavedByObjectVersion
1070
     0
  0
VISUALSTYLE
  5
34
102
{ACAD_REACTORS
330
2A
102
}
102
{ACAD_XDICTIONARY
360
3B0
102
}
330
2A
100
AcDbVisualStyle
  2
Conceptual
 70
     9
 71
     3
 72
     2
 73
     0
 90
        0
 40
0.6
 41
30.0
 62
     5
 63
     7
 74
     2
 91
        2
 64
     7
 65
   257
 75
     1
175
     1
 42
179.0
 92
        8
 66
     7
 43
1.0
 76
     1
 77
     6
 78
     2
 67
     7
 79
     3
170
     0
171
     0
290
     0
174
     0
 93
        1
 44
0.0
173
     0
291
     0
 45
0.0
1001
ACAD
1000
AcDbSavedByObjectVersion
1070
     0
  0
VISUALSTYLE
  5
35
102
{ACAD_REACTORS
330
2A
102
}
102
{ACAD_XDICTIONARY
360
3B2
102
}
330
2A
100
AcDbVisualStyle
  2
Dim
 70
    11
 71
     2
 72
     2
 73
     0
 90
        0
 40
0.6
 41
30.0
 62
     5
 63
     7
 74
     1
 91
        4
 64
     7
 65
   257
 75
     1
175
     1
 42
1.0
 92
        8
 66
     7
 43
1.0
 76
     1
 77
     6
 78
     2
 67
     7
 79
     5
170
     0
171
     0
290
     0
174
     0
 93
        1
 44
-50.0
173
     0
291
     1
 45
0.0
1001
ACAD
1000
AcDbSavedByObjectVersion
1070
     0
  0
VISUALSTYLE
  5
3D
102
{ACAD_REACTORS
330
2A
102
}
102
{ACAD_XDICTIONARY
360
3C2
102
}
330
2A
100
AcDbVisualStyle
  2
EdgeColorOff
 70
    22
 71
     2
 72
     2
 73
     0
 90
        0
 40
0.6
 41
30.0
 62
     5
 63
     7
 74
     1
 91
        4
 64
     7
 65
   257
 75
     1
175
     1
 42
1.0
 92
        8
 66
     7
 43
1.0
 76
     1
 77
     6
 78
     2
 67
     7
 79
     5
170
     0
171
     0
290
     0
174
     0
 93
        1
 44
0.0
173
     0
291
     1
 45
0.0
1001
ACAD
1000
AcDbSavedByObjectVersion
1070
     0
  0
VISUALSTYLE
  5
39
102
{ACAD_REACTORS
330
2A
102
}
102
{ACAD_XDICTIONARY
360
3BA
102
}
330
2A
100
AcDbVisualStyle
  2
Facepattern
 70
    15
 71
     2
 72
     2
 73
     0
 90
        0
 40
0.6
 41
30.0
 62
     5
 63
     7
 74
     1
 91
        4
 64
     7
 65
   257
 75
     1
175
     1
 42
1.0
 92
        8
 66
     7
 43
1.0
 76
     1
 77
     6
 78
     2
 67
     7
 79
     5
170
     0
171
     0
290
     0
174
     0
 93
        1
 44
0.0
173
     0
291
     1
 45
0.0
1001
ACAD
1000
AcDbSavedByObjectVersion
1070
     0
  0
VISUALSTYLE
  5
2B
102
{ACAD_REACTORS
330
2A
102
}
102
{ACAD_XDICTIONARY
360
39E
102
}
330
2A
100
AcDbVisualStyle
  2
Flat
 70
     0
 71
     2
 72
     1
 73
     1
 90
        2
 40
0.6
 41
30.0
 62
     5
 63
     7
 74
     0
 91
        0
 64
     7
 65
   257
 75
     1
175
     1
 42
1.0
 92
        8
 66
     7
 43
1.0
 76
     1
 77
     6
 78
     2
 67
     7
 79
     5
170
     0
171
     0
290
     0
174
     0
 93
       13
 44
0.0
173
     0
291
     1
 45
0.0
1001
ACAD
1000
AcDbSavedByObjectVersion
1070
     0
  0
VISUALSTYLE
  5
2C
102
{ACAD_REACTORS
330
2A
102
}
102
{ACAD_XDICTIONARY
360
3A0
102
}
330
2A
100
AcDbVisualStyle
  2
FlatWithEdges
 70
     1
 71
     2
 72
     1
 73
     1
 90
        2
 40
0.6
 41
30.0
 62
     5
 63
     7
 74
     1
 91
        0
 64
     7
 65
   257
 75
     1
175
     1
 42
1.0
 92
        0
 66
   257
 43
1.0
 76
     1
 77
     6
 78
     2
 67
     7
 79
     5
170
     0
171
     0
290
     0
174
     0
 93
       13
 44
0.0
173
     0
291
     1
 45
0.0
1001
ACAD
1000
AcDbSavedByObjectVersion
1070
     0
  0
VISUALSTYLE
  5
2D
102
{ACAD_REACTORS
330
2A
102
}
102
{ACAD_XDICTIONARY
360
3A2
102
}
330
2A
100
AcDbVisualStyle
  2
Gouraud
 70
     2
 71
     2
 72
     2
 73
     1
 90
        2
 40
0.6
 41
30.0
 62
     5
 63
     7
 74
     0
 91
        0
 64
     7
 65
   257
 75
     1
175
     1
 42
1.0
 92
        0
 66
     7
 43
1.0
 76
     1
 77
     6
 78
     2
 67
     7
 79
     5
170
     0
171
     0
290
     0
174
     0
 93
       13
 44
0.0
173
     0
291
     1
 45
0.0
1001
ACAD
1000
AcDbSavedByObjectVersion
1070
     0
  0
VISUALSTYLE
  5
2E
102
{ACAD_REACTORS
330
2A
102
}
102
{ACAD_XDICTIONARY
360
3A4
102
}
330
2A
100
AcDbVisualStyle
  2
GouraudWithEdges
 70
     3
 71
     2
 72
     2
 73
     1
 90
        2
 40
0.6
 41
30.0
 62
     5
 63
     7
 74
     1
 91
        0
 64
     7
 65
   257
 75
     1
175
     1
 42
1.0
 92
        0
 66
   257
 43
1.0
 76
     1
 77
     6
 78
     2
 67
     7
 79
     5
170
     0
171
     0
290
     0
174
     0
 93
       13
 44
0.0
173
     0
291
     1
 45
0.0
1001
ACAD
1000
AcDbSavedByObjectVersion
1070
     0
  0
VISUALSTYLE
  5
31
102
{ACAD_REACTORS
330
2A
102
}
102
{ACAD_XDICTIONARY
360
3AA
102
}
330
2A
100
AcDbVisualStyle
  2
Hidden
 70
     6
 71
     1
 72
     2
 73
     2
 90
        0
 40
0.6
 41
30.0
 62
     5
 63
     7
 74
     2
 91
        2
 64
     7
 65
   257
 75
     2
175
     1
 42
40.0
 92
        0
 66
   257
 43
1.0
 76
     1
 77
     6
 78
     2
 67
     7
 79
     3
170
     0
171
     0
290
     0
174
     0
 93
        1
 44
0.0
173
     0
291
     0
 45
0.0
1001
ACAD
1000
AcDbSavedByObjectVersion
1070
     0
  0
VISUALSTYLE
  5
3B
102
{ACAD_REACTORS
330
2A
102
}
102
{ACAD_XDICTIONARY
360
3BE
102
}
330
2A
100
AcDbVisualStyle
  2
JitterOff
 70
    20
 71
     2
 72
     2
 73
     0
 90
        0
 40
0.6
 41
30.0
 62
     5
 63
     7
 74
     1
 91
        4
 64
     7
 65
   257
 75
     1
175
     1
 42
1.0
 92
       10
 66
     7
 43
1.0
 76
     1
 77
     6
 78
     2
 67
     7
 79
     5
170
     0
171
     0
290
     0
174
     0
 93
        1
 44
0.0
173
     0
291
     1
 45
0.0
1001
ACAD
1000
AcDbSavedByObjectVersion
1070
     0
  0
VISUALSTYLE
  5
38
102
{ACAD_REACTORS
330
2A
102
}
102
{ACAD_XDICTIONARY
360
3B8
102
}
330
2A
100
AcDbVisualStyle
  2
Linepattern
 70
    14
 71
     2
 72
     2
 73
     0
 90
        0
 40
0.6
 41
30.0
 62
     5
 63
     7
 74
     1
 91
        4
 64
     7
 65
   257
 75
     7
175
     7
 42
1.0
 92
        8
 66
     7
 43
1.0
 76
     1
 77
     6
 78
     2
 67
     7
 79
     5
170
     0
171
     0
290
     0
174
     0
 93
        1
 44
0.0
173
     0
291
     1
 45
0.0
1001
ACAD
1000
AcDbSavedByObjectVersion
1070
     0
  0
VISUALSTYLE
  5
3C
102
{ACAD_REACTORS
330
2A
102
}
102
{ACAD_XDICTIONARY
360
3C0
102
}
330
2A
100
AcDbVisualStyle
  2
OverhangOff
 70
    21
 71
     2
 72
     2
 73
     0
 90
        0
 40
0.6
 41
30.0
 62
     5
 63
     7
 74
     1
 91
        4
 64
     7
 65
   257
 75
     1
175
     1
 42
1.0
 92
        9
 66
     7
 43
1.0
 76
     1
 77
     6
 78
     2
 67
     7
 79
     5
170
     0
171
     0
290
     0
174
     0
 93
        1
 44
0.0
173
     0
291
     1
 45
0.0
1001
ACAD
1000
AcDbSavedByObjectVersion
1070
     0
  0
VISUALSTYLE
  5
33
102
{ACAD_REACTORS
330
2A
102
}
102
{ACAD_XDICTIONARY
360
3AE
102
}
330
2A
100
AcDbVisualStyle
  2
Realistic
 70
     8
 71
     2
 72
     3
 73
     0
 90
        2
 40
0.6
 41
30.0
 62
     5
 63
     7
 74
     0
 91
        0
 64
     7
 65
   257
 75
     1
175
     1
 42
1.0
 92
        8
 66
   257
 43
1.0
 76
     1
 77
     6
 78
     2
 67
     7
 79
     3
170
     0
171
     0
290
     0
174
     0
 93
       13
 44
0.0
173
     0
291
     0
 45
0.0
1001
ACAD
1000
AcDbSavedByObjectVersion
1070
     0
  0
VISUALSTYLE
  5
42
102
{ACAD_REACTORS
330
2A
102
}
102
{ACAD_XDICTIONARY
360
3CC
102
}
330
2A
100
AcDbVisualStyle
  2
Shaded
 70
    27
 71
     2
 72
     2
 73
     1
 90
        2
 40
0.6
 41
30.0
 62
     5
 63
     7
 74
     0
 91
        4
 64
     7
 65
   257
 75
     1
175
     1
 42
1.0
 92
        8
 66
   257
 43
1.0
 76
     1
 77
     6
 78
     2
 67
     8
 79
     3
170
     0
171
     0
290
     0
174
     0
 93
        5
 44
0.0
173
     0
291
     0
 45
0.0
1001
ACAD
1000
AcDbSavedByObjectVersion
1070
     0
  0
VISUALSTYLE
  5
41
102
{ACAD_REACTORS
330
2A
102
}
102
{ACAD_XDICTIONARY
360
3CA
102
}
330
2A
100
AcDbVisualStyle
  2
Shaded with edges
 70
    26
 71
     2
 72
     2
 73
     1
 90
        2
 40
0.6
 41
30.0
 62
     5
 63
     7
 74
     1
 91
       10
 64
     7
 65
   257
 75
     2
175
     1
 42
1.0
 92
        8
 66
   257
 43
1.0
 76
     1
 77
     6
 78
     2
 67
     7
 79
     3
170
     0
171
     0
290
     0
174
     0
 93
        5
 44
0.0
173
     0
291
     0
 45
0.0
1001
ACAD
1000
AcDbSavedByObjectVersion
1070
     0
  0
VISUALSTYLE
  5
3E
102
{ACAD_REACTORS
330
2A
102
}
102
{ACAD_XDICTIONARY
360
3C4
102
}
330
2A
100
AcDbVisualStyle
  2
Shades of Gray
 70
    23
 71
     2
 72
     2
 73
     3
 90
        0
 40
0.6
 41
30.0
 62
     5
 63
     7
 74
     2
 91
        2
 64
     7
 65
     7
 75
     1
175
     1
 42
40.0
 92
        8
 66
     7
 43
1.0
 76
     1
 77
     6
 78
     2
 67
     7
 79
     3
170
     0
171
     0
290
     0
174
     0
 93
        1
 44
0.0
173
     0
291
     0
 45
0.0
1001
ACAD
1000
AcDbSavedByObjectVersion
1070
     0
  0
VISUALSTYLE
  5
3F
102
{ACAD_REACTORS
330
2A
102
}
102
{ACAD_XDICTIONARY
360
3C6
102
}
330
2A
100
AcDbVisualStyle
  2
Sketchy
 70
    24
 71
     1
 72
     2
 73
     2
 90
        0
 40
0.6
 41
30.0
 62
     5
 63
     7
 74
     2
 91
        2
 64
     7
 65
     7
 75
     1
175
     1
 42
40.0
 92
       11
 66
     7
 43
1.0
 76
     1
 77
     6
 78
     2
 67
     7
 79
     6
170
     0
171
     0
290
     0
174
     0
 93
        1
 44
0.0
173
     0
291
     0
 45
0.0
1001
ACAD
1000
AcDbSavedByObjectVersion
1070
     0
  0
VISUALSTYLE
  5
37
102
{ACAD_REACTORS
330
2A
102
}
102
{ACAD_XDICTIONARY
360
3B6
102
}
330
2A
100
AcDbVisualStyle
  2
Thicken
 70
    13
 71
     2
 72
     2
 73
     0
 90
        0
 40
0.6
 41
30.0
 62
     5
 63
     7
 74
     1
 91
        4
 64
     7
 65
   257
 75
     1
175
     1
 42
1.0
 92
       12
 66
     7
 43
1.0
 76
     1
 77
     6
 78
     2
 67
     7
 79
     5
170
     0
171
     0
290
     0
174
     0
 93
        1
 44
0.0
173
     0
291
     1
 45
0.0
1001
ACAD
1000
AcDbSavedByObjectVersion
1070
     0
  0
VISUALSTYLE
  5
30
102
{ACAD_REACTORS
330
2A
102
}
102
{ACAD_XDICTIONARY
360
3A8
102
}
330
2A
100
AcDbVisualStyle
  2
Wireframe
 70
     5
 71
     0
 72
     2
 73
     0
 90
        0
 40
0.6
 41
30.0
 62
     5
 63
     7
 74
     1
 91
        4
 64
     7
 65
   257
 75
     1
175
     1
 42
1.0
 92
        0
 66
   257
 43
1.0
 76
     1
 77
     6
 78
     2
 67
     7
 79
     3
170
     0
171
     0
290
     0
174
     0
 93
        1
 44
0.0
173
     0
291
     0
 45
0.0
1001
ACAD
1000
AcDbSavedByObjectVersion
1070
     0
  0
VISUALSTYLE
  5
40
102
{ACAD_REACTORS
330
2A
102
}
102
{ACAD_XDICTIONARY
360
3C8
102
}
330
2A
100
AcDbVisualStyle
  2
X-Ray
 70
    25
 71
     2
 72
     2
 73
     1
 90
        1
 40
0.5
 41
30.0
 62
     5
 63
     7
 74
     1
 91
        0
 64
     7
 65
   257
 75
     1
175
     1
 42
1.0
 92
        8
 66
     7
 43
1.0
 76
     1
 77
     6
 78
     2
 67
     7
 79
     3
170
     0
171
     0
290
     0
174
     0
 93
       13
 44
0.0
173
     0
291
     0
 45
0.0
1001
ACAD
1000
AcDbSavedByObjectVersion
1070
     0
  0
DICTIONARYVAR
  5
39C
102
{ACAD_REACTORS
330
38C
102
}
330
38C
100
DictionaryVariables
280
     0
  1
1:1
  0
DICTIONARYVAR
  5
393
102
{ACAD_REACTORS
330
38C
102
}
330
38C
100
DictionaryVariables
280
     0
  1
3.500000
  0
DICTIONARYVAR
  5
394
102
{ACAD_REACTORS
330
38C
102
}
330
38C
100
DictionaryVariables
280
     0
  1
acadiso.lin
  0
DICTIONARYVAR
  5
38E
102
{ACAD_REACTORS
330
38C
102
}
330
38C
100
DictionaryVariables
280
     0
  1
Standard
  0
DICTIONARYVAR
  5
38D
102
{ACAD_REACTORS
330
38C
102
}
330
38C
100
DictionaryVariables
280
     0
  1
Standard
  0
DICTIONARYVAR
  5
395
102
{ACAD_REACTORS
330
38C
102
}
330
38C
100
DictionaryVariables
280
     0
  1
2
  0
DICTIONARYVAR
  5
396
102
{ACAD_REACTORS
330
38C
102
}
330
38C
100
DictionaryVariables
280
     0
  1
1
  0
DICTIONARYVAR
  5
39D
102
{ACAD_REACTORS
330
38C
102
}
330
38C
100
DictionaryVariables
280
     0
  1
1
  0
DICTIONARYVAR
  5
390
102
{ACAD_REACTORS
330
38C
102
}
330
38C
100
DictionaryVariables
280
     0
  1
80.000000
  0
DICTIONARYVAR
  5
38F
102
{ACAD_REACTORS
330
38C
102
}
330
38C
100
DictionaryVariables
280
     0
  1
5.000000
  0
DICTIONARY
  5
3D0
330
45
100
AcDbDictionary
280
     1
281
     1
  3
ACAD_XREC_ROUNDTRIP
360
3D1
  0
DICTIONARY
  5
3CE
330
44
100
AcDbDictionary
280
     1
281
     1
  3
ACAD_XREC_ROUNDTRIP
360
3CF
  0
DICTIONARY
  5
3D2
330
46
100
AcDbDictionary
280
     1
281
     1
  3
ACAD_XREC_ROUNDTRIP
360
3D3
  0
DICTIONARY
  5
3D5
330
6C
100
AcDbDictionary
280
     1
281
     1
  3
ACAD_XREC_ROUNDTRIP
360
3D6
  0
DICTIONARY
  5
3D7
330
F0
100
AcDbDictionary
280
     1
281
     1
  3
ACAD_XREC_ROUNDTRIP
360
3D8
  0
DICTIONARY
  5
3A6
330
2F
100
AcDbDictionary
280
     1
281
     1
  3
ACAD_XREC_ROUNDTRIP
360
3A7
  0
DICTIONARY
  5
3AC
330
32
100
AcDbDictionary
280
     1
281
     1
  3
ACAD_XREC_ROUNDTRIP
360
3AD
  0
DICTIONARY
  5
3B4
330
36
100
AcDbDictionary
280
     1
281
     1
  3
ACAD_XREC_ROUNDTRIP
360
3B5
  0
DICTIONARY
  5
3BC
330
3A
100
AcDbDictionary
280
     1
281
     1
  3
ACAD_XREC_ROUNDTRIP
360
3BD
  0
DICTIONARY
  5
3B0
330
34
100
AcDbDictionary
280
     1
281
     1
  3
ACAD_XREC_ROUNDTRIP
360
3B1
  0
DICTIONARY
  5
3B2
330
35
100
AcDbDictionary
280
     1
281
     1
  3
ACAD_XREC_ROUNDTRIP
360
3B3
  0
DICTIONARY
  5
3C2
330
3D
100
AcDbDictionary
280
     1
281
     1
  3
ACAD_XREC_ROUNDTRIP
360
3C3
  0
DICTIONARY
  5
3BA
330
39
100
AcDbDictionary
280
     1
281
     1
  3
ACAD_XREC_ROUNDTRIP
360
3BB
  0
DICTIONARY
  5
39E
330
2B
100
AcDbDictionary
280
     1
281
     1
  3
ACAD_XREC_ROUNDTRIP
360
39F
  0
DICTIONARY
  5
3A0
330
2C
100
AcDbDictionary
280
     1
281
     1
  3
ACAD_XREC_ROUNDTRIP
360
3A1
  0
DICTIONARY
  5
3A2
330
2D
100
AcDbDictionary
280
     1
281
     1
  3
ACAD_XREC_ROUNDTRIP
360
3A3
  0
DICTIONARY
  5
3A4
330
2E
100
AcDbDictionary
280
     1
281
     1
  3
ACAD_XREC_ROUNDTRIP
360
3A5
  0
DICTIONARY
  5
3AA
330
31
100
AcDbDictionary
280
     1
281
     1
  3
ACAD_XREC_ROUNDTRIP
360
3AB
  0
DICTIONARY
  5
3BE
330
3B
100
AcDbDictionary
280
     1
281
     1
  3
ACAD_XREC_ROUNDTRIP
360
3BF
  0
DICTIONARY
  5
3B8
330
38
100
AcDbDictionary
280
     1
281
     1
  3
ACAD_XREC_ROUNDTRIP
360
3B9
  0
DICTIONARY
  5
3C0
330
3C
100
AcDbDictionary
280
     1
281
     1
  3
ACAD_XREC_ROUNDTRIP
360
3C1
  0
DICTIONARY
  5
3AE
330
33
100
AcDbDictionary
280
     1
281
     1
  3
ACAD_XREC_ROUNDTRIP
360
3AF
  0
DICTIONARY
  5
3CC
330
42
100
AcDbDictionary
280
     1
281
     1
  3
ACAD_XREC_ROUNDTRIP
360
3CD
  0
DICTIONARY
  5
3CA
330
41
100
AcDbDictionary
280
     1
281
     1
  3
ACAD_XREC_ROUNDTRIP
360
3CB
  0
DICTIONARY
  5
3C4
330
3E
100
AcDbDictionary
280
     1
281
     1
  3
ACAD_XREC_ROUNDTRIP
360
3C5
  0
DICTIONARY
  5
3C6
330
3F
100
AcDbDictionary
280
     1
281
     1
  3
ACAD_XREC_ROUNDTRIP
360
3C7
  0
DICTIONARY
  5
3B6
330
37
100
AcDbDictionary
280
     1
281
     1
  3
ACAD_XREC_ROUNDTRIP
360
3B7
  0
DICTIONARY
  5
3A8
330
30
100
AcDbDictionary
280
     1
281
     1
  3
ACAD_XREC_ROUNDTRIP
360
3A9
  0
DICTIONARY
  5
3C8
330
40
100
AcDbDictionary
280
     1
281
     1
  3
ACAD_XREC_ROUNDTRIP
360
3C9
  0
XRECORD
  5
3D1
102
{ACAD_REACTORS
330
3D0
102
}
330
3D0
100
AcDbXrecord
280
     1
102
MATERIAL
148
0.0
149
0.0
149
0.0
 93
        0
 94
      127
282
     0
 72
     1
 77
     1
171
     1
175
     1
179
     1
273
     0
  0
XRECORD
  5
3CF
102
{ACAD_REACTORS
330
3CE
102
}
330
3CE
100
AcDbXrecord
280
     1
102
MATERIAL
148
0.0
149
0.0
149
0.0
 93
        0
 94
      127
282
     0
 72
     1
 77
     1
171
     1
175
     1
179
     1
273
     0
  0
XRECORD
  5
3D3
102
{ACAD_REACTORS
330
3D2
102
}
330
3D2
100
AcDbXrecord
280
     1
102
MATERIAL
148
0.0
149
0.0
149
0.0
 93
        0
 94
      127
282
     0
 72
     1
 77
     1
171
     1
175
     1
179
     1
273
     0
  0
XRECORD
  5
3D6
102
{ACAD_REACTORS
330
3D5
102
}
330
3D5
100
AcDbXrecord
280
     1
102
ACAD_ROUNDTRIP_2010_MLEADER_STYLE
  0
XRECORD
  5
3D8
102
{ACAD_REACTORS
330
3D7
102
}
330
3D7
100
AcDbXrecord
280
     1
102
ACAD_ROUNDTRIP_2010_MLEADER_STYLE
  0
XRECORD
  5
3A7
102
{ACAD_REACTORS
330
3A6
102
}
330
3A6
100
AcDbXrecord
280
     1
102
RTVSPropertyOp0
 70
     1
102
RTVSPropertyOp1
 70
     1
102
RTVSPropertyOp2
 70
     1
102
RTVSPropertyOp3
 70
     1
102
RTVSPropertyOp4
 70
     1
102
RTVSPropertyOp5
 70
     1
102
RTVSPropertyOp6
 70
     1
102
RTVSPropertyOp7
 70
     1
102
RTVSPropertyOp8
 70
     1
102
RTVSPropertyOp9
 70
     1
102
RTVSPropertyOp10
 70
     1
102
RTVSPropertyOp11
 70
     1
102
RTVSPropertyOp12
 70
     1
102
RTVSPropertyOp13
 70
     1
102
RTVSPropertyOp14
 70
     1
102
RTVSPropertyOp15
 70
     1
102
RTVSPropertyOp16
 70
     1
102
RTVSPropertyOp17
 70
     1
102
RTVSPropertyOp18
 70
     1
102
RTVSPropertyOp19
 70
     1
102
RTVSPropertyOp20
 70
     1
102
RTVSPropertyOp21
 70
     1
102
RTVSPropertyOp22
 70
     1
102
RTVSPropertyOp23
 70
     1
102
RTVSPropertyOp24
 70
     1
102
RTVSPropertyOp25
 70
     1
102
RTVSPropertyOp26
 70
     1
102
RTVSPropertyOp27
 70
     1
102
RTVSPropertyOp28
 70
     1
102
RTVSPropertyOp29
 70
     1
102
RTVSPropertyOp30
 70
     1
102
RTVSPropertyOp31
 70
     1
102
RTVSPropertyOp32
 70
     1
102
RTVSPropertyOp33
 70
     1
102
RTVSPropertyOp34
 70
     1
102
RTVSPropertyOp35
 70
     1
102
RTVSPropertyOp36
 70
     1
102
RTVSPropertyOp37
 70
     1
102
RTVSPropertyOp38
 70
     1
102
RTVSPropertyOp39
 70
     1
102
RTVSPropertyOp40
 70
     1
102
RTVSPropertyOp41
 70
     1
102
RTVSPropertyOp42
 70
     1
102
RTVSPropertyOp43
 70
     1
102
RTVSPropertyOp44
 70
     1
102
RTVSPropertyOp45
 70
     1
102
RTVSPropertyOp46
 70
     1
102
RTVSPropertyOp47
 70
     1
102
RTVSPropertyOp48
 70
     1
102
RTVSPropertyOp49
 70
     1
102
RTVSPropertyOp50
 70
     1
102
RTVSPropertyOp51
 70
     0
102
RTVSPropertyOp52
 70
     0
102
RTVSPropertyOp53
 70
     1
102
RTVSPropertyOp54
 70
     1
102
RTVSPropertyOp55
 70
     1
102
RTVSPropertyOp56
 70
     1
102
RTVSPropertyOp57
 70
     1
102
RTVSPost2010Prop28
280
     1
102
RTVSPost2010PropOp28
 70
     1
102
RTVSPost2010Prop29
280
     1
102
RTVSPost2010PropOp29
 70
     1
102
RTVSPost2010Prop30
280
     0
102
RTVSPost2010PropOp30
 70
     1
102
RTVSPost2010Prop31
280
     0
102
RTVSPost2010PropOp31
 70
     1
102
RTVSPost2010Prop32
280
     0
102
RTVSPost2010PropOp32
 70
     1
102
RTVSPost2010Prop33
280
     0
102
RTVSPost2010PropOp33
 70
     1
102
RTVSPost2010Prop34
280
     0
102
RTVSPost2010PropOp34
 70
     1
102
RTVSPost2010Prop35
280
     0
102
RTVSPost2010PropOp35
 70
     1
102
RTVSPost2010Prop36
280
     0
102
RTVSPost2010PropOp36
 70
     1
102
RTVSPost2010Prop37
 90
       50
102
RTVSPost2010PropOp37
 70
     1
102
RTVSPost2010Prop38
140
0.0
102
RTVSPost2010PropOp38
 70
     1
102
RTVSPost2010Prop39
140
1.0
102
RTVSPost2010PropOp39
 70
     1
102
RTVSPost2010Prop40
 90
        0
102
RTVSPost2010PropOp40
 70
     1
102
RTVSPost2010Prop41ColorIndex
 90
       18
102
RTVSPost2010Prop41ColorRGB
 90
        0
102
RTVSPost2010PropOp41
 70
     1
102
RTVSPost2010Prop42
 90
       50
102
RTVSPost2010PropOp42
 70
     1
102
RTVSPost2010Prop43
 90
        3
102
RTVSPost2010PropOp43
 70
     1
102
RTVSPost2010Prop44ColorIndex
 90
        5
102
RTVSPost2010Prop44ColorRGB
 90
      255
102
RTVSPost2010PropOp44
 70
     1
102
RTVSPost2010Prop45
280
     0
102
RTVSPost2010PropOp45
 70
     1
102
RTVSPost2010Prop46
 90
       50
102
RTVSPost2010PropOp46
 70
     1
102
RTVSPost2010Prop47
 90
       50
102
RTVSPost2010PropOp47
 70
     1
102
RTVSPost2010Prop48
 90
       50
102
RTVSPost2010PropOp48
 70
     1
102
RTVSPost2010Prop49
280
     0
102
RTVSPost2010PropOp49
 70
     1
102
RTVSPost2010Prop50
 90
       50
102
RTVSPost2010PropOp50
 70
     1
102
RTVSPost2010Prop51ColorIndex
 90
      256
102
RTVSPost2010Prop51ColorRGB
 90
-16777216
102
RTVSPost2010PropOp51
 70
     0
102
RTVSPost2010Prop52
140
1.0
102
RTVSPost2010PropOp52
 70
     0
102
RTVSPost2010Prop53
 90
        2
102
RTVSPost2010PropOp53
 70
     1
102
RTVSPost2010Prop54
  1
strokes_ogs.tif
102
RTVSPost2010PropOp54
 70
     1
102
RTVSPost2010Prop55
280
     0
102
RTVSPost2010PropOp55
 70
     1
102
RTVSPost2010Prop56
140
1.0
102
RTVSPost2010PropOp56
 70
     1
102
RTVSPost2010Prop57
140
1.0
102
RTVSPost2010PropOp57
 70
     1
  0
XRECORD
  5
3AD
102
{ACAD_REACTORS
330
3AC
102
}
330
3AC
100
AcDbXrecord
280
     1
102
RTVSPropertyOp0
 70
     1
102
RTVSPropertyOp1
 70
     1
102
RTVSPropertyOp2
 70
     1
102
RTVSPropertyOp3
 70
     1
102
RTVSPropertyOp4
 70
     1
102
RTVSPropertyOp5
 70
     1
102
RTVSPropertyOp6
 70
     1
102
RTVSPropertyOp7
 70
     1
102
RTVSPropertyOp8
 70
     1
102
RTVSPropertyOp9
 70
     1
102
RTVSPropertyOp10
 70
     1
102
RTVSPropertyOp11
 70
     1
102
RTVSPropertyOp12
 70
     1
102
RTVSPropertyOp13
 70
     1
102
RTVSPropertyOp14
 70
     1
102
RTVSPropertyOp15
 70
     1
102
RTVSPropertyOp16
 70
     1
102
RTVSPropertyOp17
 70
     1
102
RTVSPropertyOp18
 70
     1
102
RTVSPropertyOp19
 70
     1
102
RTVSPropertyOp20
 70
     1
102
RTVSPropertyOp21
 70
     1
102
RTVSPropertyOp22
 70
     1
102
RTVSPropertyOp23
 70
     1
102
RTVSPropertyOp24
 70
     1
102
RTVSPropertyOp25
 70
     1
102
RTVSPropertyOp26
 70
     1
102
RTVSPropertyOp27
 70
     1
102
RTVSPropertyOp28
 70
     1
102
RTVSPropertyOp29
 70
     1
102
RTVSPropertyOp30
 70
     1
102
RTVSPropertyOp31
 70
     1
102
RTVSPropertyOp32
 70
     1
102
RTVSPropertyOp33
 70
     1
102
RTVSPropertyOp34
 70
     1
102
RTVSPropertyOp35
 70
     1
102
RTVSPropertyOp36
 70
     1
102
RTVSPropertyOp37
 70
     1
102
RTVSPropertyOp38
 70
     1
102
RTVSPropertyOp39
 70
     1
102
RTVSPropertyOp40
 70
     1
102
RTVSPropertyOp41
 70
     1
102
RTVSPropertyOp42
 70
     1
102
RTVSPropertyOp43
 70
     1
102
RTVSPropertyOp44
 70
     1
102
RTVSPropertyOp45
 70
     1
102
RTVSPropertyOp46
 70
     1
102
RTVSPropertyOp47
 70
     1
102
RTVSPropertyOp48
 70
     1
102
RTVSPropertyOp49
 70
     1
102
RTVSPropertyOp50
 70
     1
102
RTVSPropertyOp51
 70
     0
102
RTVSPropertyOp52
 70
     0
102
RTVSPropertyOp53
 70
     1
102
RTVSPropertyOp54
 70
     1
102
RTVSPropertyOp55
 70
     1
102
RTVSPropertyOp56
 70
     1
102
RTVSPropertyOp57
 70
     1
102
RTVSPost2010Prop28
280
     0
102
RTVSPost2010PropOp28
 70
     1
102
RTVSPost2010Prop29
280
     1
102
RTVSPost2010PropOp29
 70
     1
102
RTVSPost2010Prop30
280
     1
102
RTVSPost2010PropOp30
 70
     1
102
RTVSPost2010Prop31
280
     0
102
RTVSPost2010PropOp31
 70
     1
102
RTVSPost2010Prop32
280
     0
102
RTVSPost2010PropOp32
 70
     1
102
RTVSPost2010Prop33
280
     0
102
RTVSPost2010PropOp33
 70
     1
102
RTVSPost2010Prop34
280
     0
102
RTVSPost2010PropOp34
 70
     1
102
RTVSPost2010Prop35
280
     0
102
RTVSPost2010PropOp35
 70
     1
102
RTVSPost2010Prop36
280
     0
102
RTVSPost2010PropOp36
 70
     1
102
RTVSPost2010Prop37
 90
       50
102
RTVSPost2010PropOp37
 70
     1
102
RTVSPost2010Prop38
140
0.0
102
RTVSPost2010PropOp38
 70
     1
102
RTVSPost2010Prop39
140
1.0
102
RTVSPost2010PropOp39
 70
     1
102
RTVSPost2010Prop40
 90
        0
102
RTVSPost2010PropOp40
 70
     1
102
RTVSPost2010Prop41ColorIndex
 90
       18
102
RTVSPost2010Prop41ColorRGB
 90
        0
102
RTVSPost2010PropOp41
 70
     1
102
RTVSPost2010Prop42
 90
       50
102
RTVSPost2010PropOp42
 70
     1
102
RTVSPost2010Prop43
 90
        3
102
RTVSPost2010PropOp43
 70
     1
102
RTVSPost2010Prop44ColorIndex
 90
        5
102
RTVSPost2010Prop44ColorRGB
 90
      255
102
RTVSPost2010PropOp44
 70
     1
102
RTVSPost2010Prop45
280
     0
102
RTVSPost2010PropOp45
 70
     1
102
RTVSPost2010Prop46
 90
       50
102
RTVSPost2010PropOp46
 70
     1
102
RTVSPost2010Prop47
 90
       50
102
RTVSPost2010PropOp47
 70
     1
102
RTVSPost2010Prop48
 90
       50
102
RTVSPost2010PropOp48
 70
     1
102
RTVSPost2010Prop49
280
     0
102
RTVSPost2010PropOp49
 70
     1
102
RTVSPost2010Prop50
 90
       50
102
RTVSPost2010PropOp50
 70
     1
102
RTVSPost2010Prop51ColorIndex
 90
      256
102
RTVSPost2010Prop51ColorRGB
 90
-16777216
102
RTVSPost2010PropOp51
 70
     0
102
RTVSPost2010Prop52
140
1.0
102
RTVSPost2010PropOp52
 70
     0
102
RTVSPost2010Prop53
 90
        2
102
RTVSPost2010PropOp53
 70
     1
102
RTVSPost2010Prop54
  1
strokes_ogs.tif
102
RTVSPost2010PropOp54
 70
     1
102
RTVSPost2010Prop55
280
     0
102
RTVSPost2010PropOp55
 70
     1
102
RTVSPost2010Prop56
140
1.0
102
RTVSPost2010PropOp56
 70
     1
102
RTVSPost2010Prop57
140
1.0
102
RTVSPost2010PropOp57
 70
     1
  0
XRECORD
  5
3B5
102
{ACAD_REACTORS
330
3B4
102
}
330
3B4
100
AcDbXrecord
280
     1
102
RTVSPropertyOp0
 70
     1
102
RTVSPropertyOp1
 70
     1
102
RTVSPropertyOp2
 70
     1
102
RTVSPropertyOp3
 70
     1
102
RTVSPropertyOp4
 70
     1
102
RTVSPropertyOp5
 70
     1
102
RTVSPropertyOp6
 70
     1
102
RTVSPropertyOp7
 70
     1
102
RTVSPropertyOp8
 70
     1
102
RTVSPropertyOp9
 70
     1
102
RTVSPropertyOp10
 70
     1
102
RTVSPropertyOp11
 70
     1
102
RTVSPropertyOp12
 70
     1
102
RTVSPropertyOp13
 70
     1
102
RTVSPropertyOp14
 70
     1
102
RTVSPropertyOp15
 70
     1
102
RTVSPropertyOp16
 70
     1
102
RTVSPropertyOp17
 70
     1
102
RTVSPropertyOp18
 70
     1
102
RTVSPropertyOp19
 70
     1
102
RTVSPropertyOp20
 70
     1
102
RTVSPropertyOp21
 70
     1
102
RTVSPropertyOp22
 70
     1
102
RTVSPropertyOp23
 70
     1
102
RTVSPropertyOp24
 70
     1
102
RTVSPropertyOp25
 70
     1
102
RTVSPropertyOp26
 70
     1
102
RTVSPropertyOp27
 70
     1
102
RTVSPropertyOp28
 70
     1
102
RTVSPropertyOp29
 70
     1
102
RTVSPropertyOp30
 70
     1
102
RTVSPropertyOp31
 70
     1
102
RTVSPropertyOp32
 70
     1
102
RTVSPropertyOp33
 70
     1
102
RTVSPropertyOp34
 70
     1
102
RTVSPropertyOp35
 70
     1
102
RTVSPropertyOp36
 70
     1
102
RTVSPropertyOp37
 70
     1
102
RTVSPropertyOp38
 70
     1
102
RTVSPropertyOp39
 70
     1
102
RTVSPropertyOp40
 70
     1
102
RTVSPropertyOp41
 70
     1
102
RTVSPropertyOp42
 70
     1
102
RTVSPropertyOp43
 70
     1
102
RTVSPropertyOp44
 70
     1
102
RTVSPropertyOp45
 70
     1
102
RTVSPropertyOp46
 70
     1
102
RTVSPropertyOp47
 70
     1
102
RTVSPropertyOp48
 70
     1
102
RTVSPropertyOp49
 70
     1
102
RTVSPropertyOp50
 70
     1
102
RTVSPropertyOp51
 70
     0
102
RTVSPropertyOp52
 70
     0
102
RTVSPropertyOp53
 70
     1
102
RTVSPropertyOp54
 70
     1
102
RTVSPropertyOp55
 70
     1
102
RTVSPropertyOp56
 70
     1
102
RTVSPropertyOp57
 70
     1
102
RTVSPost2010Prop28
280
     0
102
RTVSPost2010PropOp28
 70
     1
102
RTVSPost2010Prop29
280
     1
102
RTVSPost2010PropOp29
 70
     1
102
RTVSPost2010Prop30
280
     1
102
RTVSPost2010PropOp30
 70
     1
102
RTVSPost2010Prop31
280
     0
102
RTVSPost2010PropOp31
 70
     1
102
RTVSPost2010Prop32
280
     0
102
RTVSPost2010PropOp32
 70
     1
102
RTVSPost2010Prop33
280
     0
102
RTVSPost2010PropOp33
 70
     1
102
RTVSPost2010Prop34
280
     0
102
RTVSPost2010PropOp34
 70
     1
102
RTVSPost2010Prop35
280
     0
102
RTVSPost2010PropOp35
 70
     1
102
RTVSPost2010Prop36
280
     0
102
RTVSPost2010PropOp36
 70
     1
102
RTVSPost2010Prop37
 90
       50
102
RTVSPost2010PropOp37
 70
     1
102
RTVSPost2010Prop38
140
0.0
102
RTVSPost2010PropOp38
 70
     1
102
RTVSPost2010Prop39
140
1.0
102
RTVSPost2010PropOp39
 70
     1
102
RTVSPost2010Prop40
 90
        0
102
RTVSPost2010PropOp40
 70
     1
102
RTVSPost2010Prop41ColorIndex
 90
       18
102
RTVSPost2010Prop41ColorRGB
 90
        0
102
RTVSPost2010PropOp41
 70
     1
102
RTVSPost2010Prop42
 90
       50
102
RTVSPost2010PropOp42
 70
     1
102
RTVSPost2010Prop43
 90
        3
102
RTVSPost2010PropOp43
 70
     1
102
RTVSPost2010Prop44ColorIndex
 90
        5
102
RTVSPost2010Prop44ColorRGB
 90
      255
102
RTVSPost2010PropOp44
 70
     1
102
RTVSPost2010Prop45
280
     0
102
RTVSPost2010PropOp45
 70
     1
102
RTVSPost2010Prop46
 90
       50
102
RTVSPost2010PropOp46
 70
     1
102
RTVSPost2010Prop47
 90
       50
102
RTVSPost2010PropOp47
 70
     1
102
RTVSPost2010Prop48
 90
       50
102
RTVSPost2010PropOp48
 70
     1
102
RTVSPost2010Prop49
280
     0
102
RTVSPost2010PropOp49
 70
     1
102
RTVSPost2010Prop50
 90
       50
102
RTVSPost2010PropOp50
 70
     1
102
RTVSPost2010Prop51ColorIndex
 90
      256
102
RTVSPost2010Prop51ColorRGB
 90
-16777216
102
RTVSPost2010PropOp51
 70
     0
102
RTVSPost2010Prop52
140
1.0
102
RTVSPost2010PropOp52
 70
     0
102
RTVSPost2010Prop53
 90
        2
102
RTVSPost2010PropOp53
 70
     1
102
RTVSPost2010Prop54
  1
strokes_ogs.tif
102
RTVSPost2010PropOp54
 70
     1
102
RTVSPost2010Prop55
280
     0
102
RTVSPost2010PropOp55
 70
     1
102
RTVSPost2010Prop56
140
1.0
102
RTVSPost2010PropOp56
 70
     1
102
RTVSPost2010Prop57
140
1.0
102
RTVSPost2010PropOp57
 70
     1
  0
XRECORD
  5
3BD
102
{ACAD_REACTORS
330
3BC
102
}
330
3BC
100
AcDbXrecord
280
     1
102
RTVSPropertyOp0
 70
     1
102
RTVSPropertyOp1
 70
     1
102
RTVSPropertyOp2
 70
     1
102
RTVSPropertyOp3
 70
     1
102
RTVSPropertyOp4
 70
     1
102
RTVSPropertyOp5
 70
     1
102
RTVSPropertyOp6
 70
     1
102
RTVSPropertyOp7
 70
     1
102
RTVSPropertyOp8
 70
     1
102
RTVSPropertyOp9
 70
     1
102
RTVSPropertyOp10
 70
     1
102
RTVSPropertyOp11
 70
     1
102
RTVSPropertyOp12
 70
     1
102
RTVSPropertyOp13
 70
     1
102
RTVSPropertyOp14
 70
     1
102
RTVSPropertyOp15
 70
     1
102
RTVSPropertyOp16
 70
     1
102
RTVSPropertyOp17
 70
     1
102
RTVSPropertyOp18
 70
     1
102
RTVSPropertyOp19
 70
     1
102
RTVSPropertyOp20
 70
     1
102
RTVSPropertyOp21
 70
     1
102
RTVSPropertyOp22
 70
     1
102
RTVSPropertyOp23
 70
     1
102
RTVSPropertyOp24
 70
     1
102
RTVSPropertyOp25
 70
     1
102
RTVSPropertyOp26
 70
     1
102
RTVSPropertyOp27
 70
     1
102
RTVSPropertyOp28
 70
     1
102
RTVSPropertyOp29
 70
     1
102
RTVSPropertyOp30
 70
     1
102
RTVSPropertyOp31
 70
     1
102
RTVSPropertyOp32
 70
     1
102
RTVSPropertyOp33
 70
     1
102
RTVSPropertyOp34
 70
     1
102
RTVSPropertyOp35
 70
     1
102
RTVSPropertyOp36
 70
     1
102
RTVSPropertyOp37
 70
     1
102
RTVSPropertyOp38
 70
     1
102
RTVSPropertyOp39
 70
     1
102
RTVSPropertyOp40
 70
     1
102
RTVSPropertyOp41
 70
     1
102
RTVSPropertyOp42
 70
     1
102
RTVSPropertyOp43
 70
     1
102
RTVSPropertyOp44
 70
     1
102
RTVSPropertyOp45
 70
     1
102
RTVSPropertyOp46
 70
     1
102
RTVSPropertyOp47
 70
     1
102
RTVSPropertyOp48
 70
     1
102
RTVSPropertyOp49
 70
     1
102
RTVSPropertyOp50
 70
     1
102
RTVSPropertyOp51
 70
     0
102
RTVSPropertyOp52
 70
     0
102
RTVSPropertyOp53
 70
     1
102
RTVSPropertyOp54
 70
     1
102
RTVSPropertyOp55
 70
     1
102
RTVSPropertyOp56
 70
     1
102
RTVSPropertyOp57
 70
     1
102
RTVSPost2010Prop28
280
     0
102
RTVSPost2010PropOp28
 70
     1
102
RTVSPost2010Prop29
280
     1
102
RTVSPost2010PropOp29
 70
     1
102
RTVSPost2010Prop30
280
     1
102
RTVSPost2010PropOp30
 70
     1
102
RTVSPost2010Prop31
280
     0
102
RTVSPost2010PropOp31
 70
     1
102
RTVSPost2010Prop32
280
     0
102
RTVSPost2010PropOp32
 70
     1
102
RTVSPost2010Prop33
280
     0
102
RTVSPost2010PropOp33
 70
     1
102
RTVSPost2010Prop34
280
     0
102
RTVSPost2010PropOp34
 70
     1
102
RTVSPost2010Prop35
280
     0
102
RTVSPost2010PropOp35
 70
     1
102
RTVSPost2010Prop36
280
     0
102
RTVSPost2010PropOp36
 70
     1
102
RTVSPost2010Prop37
 90
       50
102
RTVSPost2010PropOp37
 70
     1
102
RTVSPost2010Prop38
140
0.0
102
RTVSPost2010PropOp38
 70
     1
102
RTVSPost2010Prop39
140
1.0
102
RTVSPost2010PropOp39
 70
     1
102
RTVSPost2010Prop40
 90
        0
102
RTVSPost2010PropOp40
 70
     1
102
RTVSPost2010Prop41ColorIndex
 90
       18
102
RTVSPost2010Prop41ColorRGB
 90
        0
102
RTVSPost2010PropOp41
 70
     1
102
RTVSPost2010Prop42
 90
       50
102
RTVSPost2010PropOp42
 70
     1
102
RTVSPost2010Prop43
 90
        3
102
RTVSPost2010PropOp43
 70
     1
102
RTVSPost2010Prop44ColorIndex
 90
        5
102
RTVSPost2010Prop44ColorRGB
 90
      255
102
RTVSPost2010PropOp44
 70
     1
102
RTVSPost2010Prop45
280
     0
102
RTVSPost2010PropOp45
 70
     1
102
RTVSPost2010Prop46
 90
       50
102
RTVSPost2010PropOp46
 70
     1
102
RTVSPost2010Prop47
 90
       50
102
RTVSPost2010PropOp47
 70
     1
102
RTVSPost2010Prop48
 90
       50
102
RTVSPost2010PropOp48
 70
     1
102
RTVSPost2010Prop49
280
     0
102
RTVSPost2010PropOp49
 70
     1
102
RTVSPost2010Prop50
 90
       50
102
RTVSPost2010PropOp50
 70
     1
102
RTVSPost2010Prop51ColorIndex
 90
      256
102
RTVSPost2010Prop51ColorRGB
 90
-16777216
102
RTVSPost2010PropOp51
 70
     0
102
RTVSPost2010Prop52
140
1.0
102
RTVSPost2010PropOp52
 70
     0
102
RTVSPost2010Prop53
 90
        2
102
RTVSPost2010PropOp53
 70
     1
102
RTVSPost2010Prop54
  1
strokes_ogs.tif
102
RTVSPost2010PropOp54
 70
     1
102
RTVSPost2010Prop55
280
     0
102
RTVSPost2010PropOp55
 70
     1
102
RTVSPost2010Prop56
140
1.0
102
RTVSPost2010PropOp56
 70
     1
102
RTVSPost2010Prop57
140
1.0
102
RTVSPost2010PropOp57
 70
     1
  0
XRECORD
  5
3B1
102
{ACAD_REACTORS
330
3B0
102
}
330
3B0
100
AcDbXrecord
280
     1
102
RTVSPropertyOp0
 70
     1
102
RTVSPropertyOp1
 70
     1
102
RTVSPropertyOp2
 70
     1
102
RTVSPropertyOp3
 70
     1
102
RTVSPropertyOp4
 70
     1
102
RTVSPropertyOp5
 70
     1
102
RTVSPropertyOp6
 70
     1
102
RTVSPropertyOp7
 70
     1
102
RTVSPropertyOp8
 70
     1
102
RTVSPropertyOp9
 70
     1
102
RTVSPropertyOp10
 70
     1
102
RTVSPropertyOp11
 70
     1
102
RTVSPropertyOp12
 70
     1
102
RTVSPropertyOp13
 70
     1
102
RTVSPropertyOp14
 70
     1
102
RTVSPropertyOp15
 70
     1
102
RTVSPropertyOp16
 70
     1
102
RTVSPropertyOp17
 70
     1
102
RTVSPropertyOp18
 70
     1
102
RTVSPropertyOp19
 70
     1
102
RTVSPropertyOp20
 70
     1
102
RTVSPropertyOp21
 70
     1
102
RTVSPropertyOp22
 70
     1
102
RTVSPropertyOp23
 70
     1
102
RTVSPropertyOp24
 70
     1
102
RTVSPropertyOp25
 70
     1
102
RTVSPropertyOp26
 70
     1
102
RTVSPropertyOp27
 70
     1
102
RTVSPropertyOp28
 70
     1
102
RTVSPropertyOp29
 70
     1
102
RTVSPropertyOp30
 70
     1
102
RTVSPropertyOp31
 70
     1
102
RTVSPropertyOp32
 70
     1
102
RTVSPropertyOp33
 70
     1
102
RTVSPropertyOp34
 70
     1
102
RTVSPropertyOp35
 70
     1
102
RTVSPropertyOp36
 70
     1
102
RTVSPropertyOp37
 70
     1
102
RTVSPropertyOp38
 70
     1
102
RTVSPropertyOp39
 70
     1
102
RTVSPropertyOp40
 70
     1
102
RTVSPropertyOp41
 70
     1
102
RTVSPropertyOp42
 70
     1
102
RTVSPropertyOp43
 70
     1
102
RTVSPropertyOp44
 70
     1
102
RTVSPropertyOp45
 70
     1
102
RTVSPropertyOp46
 70
     1
102
RTVSPropertyOp47
 70
     1
102
RTVSPropertyOp48
 70
     1
102
RTVSPropertyOp49
 70
     1
102
RTVSPropertyOp50
 70
     1
102
RTVSPropertyOp51
 70
     0
102
RTVSPropertyOp52
 70
     0
102
RTVSPropertyOp53
 70
     1
102
RTVSPropertyOp54
 70
     1
102
RTVSPropertyOp55
 70
     1
102
RTVSPropertyOp56
 70
     1
102
RTVSPropertyOp57
 70
     1
102
RTVSPost2010Prop28
280
     0
102
RTVSPost2010PropOp28
 70
     1
102
RTVSPost2010Prop29
280
     1
102
RTVSPost2010PropOp29
 70
     1
102
RTVSPost2010Prop30
280
     1
102
RTVSPost2010PropOp30
 70
     1
102
RTVSPost2010Prop31
280
     0
102
RTVSPost2010PropOp31
 70
     1
102
RTVSPost2010Prop32
280
     0
102
RTVSPost2010PropOp32
 70
     1
102
RTVSPost2010Prop33
280
     0
102
RTVSPost2010PropOp33
 70
     1
102
RTVSPost2010Prop34
280
     0
102
RTVSPost2010PropOp34
 70
     1
102
RTVSPost2010Prop35
280
     0
102
RTVSPost2010PropOp35
 70
     1
102
RTVSPost2010Prop36
280
     0
102
RTVSPost2010PropOp36
 70
     1
102
RTVSPost2010Prop37
 90
       50
102
RTVSPost2010PropOp37
 70
     1
102
RTVSPost2010Prop38
140
0.0
102
RTVSPost2010PropOp38
 70
     1
102
RTVSPost2010Prop39
140
1.0
102
RTVSPost2010PropOp39
 70
     1
102
RTVSPost2010Prop40
 90
        0
102
RTVSPost2010PropOp40
 70
     1
102
RTVSPost2010Prop41ColorIndex
 90
       18
102
RTVSPost2010Prop41ColorRGB
 90
        0
102
RTVSPost2010PropOp41
 70
     1
102
RTVSPost2010Prop42
 90
       50
102
RTVSPost2010PropOp42
 70
     1
102
RTVSPost2010Prop43
 90
        3
102
RTVSPost2010PropOp43
 70
     1
102
RTVSPost2010Prop44ColorIndex
 90
        5
102
RTVSPost2010Prop44ColorRGB
 90
      255
102
RTVSPost2010PropOp44
 70
     1
102
RTVSPost2010Prop45
280
     0
102
RTVSPost2010PropOp45
 70
     1
102
RTVSPost2010Prop46
 90
       50
102
RTVSPost2010PropOp46
 70
     1
102
RTVSPost2010Prop47
 90
       50
102
RTVSPost2010PropOp47
 70
     1
102
RTVSPost2010Prop48
 90
       50
102
RTVSPost2010PropOp48
 70
     1
102
RTVSPost2010Prop49
280
     0
102
RTVSPost2010PropOp49
 70
     1
102
RTVSPost2010Prop50
 90
       50
102
RTVSPost2010PropOp50
 70
     1
102
RTVSPost2010Prop51ColorIndex
 90
      256
102
RTVSPost2010Prop51ColorRGB
 90
-16777216
102
RTVSPost2010PropOp51
 70
     0
102
RTVSPost2010Prop52
140
1.0
102
RTVSPost2010PropOp52
 70
     0
102
RTVSPost2010Prop53
 90
        2
102
RTVSPost2010PropOp53
 70
     1
102
RTVSPost2010Prop54
  1
strokes_ogs.tif
102
RTVSPost2010PropOp54
 70
     1
102
RTVSPost2010Prop55
280
     0
102
RTVSPost2010PropOp55
 70
     1
102
RTVSPost2010Prop56
140
1.0
102
RTVSPost2010PropOp56
 70
     1
102
RTVSPost2010Prop57
140
1.0
102
RTVSPost2010PropOp57
 70
     1
  0
XRECORD
  5
3B3
102
{ACAD_REACTORS
330
3B2
102
}
330
3B2
100
AcDbXrecord
280
     1
102
RTVSPropertyOp0
 70
     1
102
RTVSPropertyOp1
 70
     1
102
RTVSPropertyOp2
 70
     1
102
RTVSPropertyOp3
 70
     1
102
RTVSPropertyOp4
 70
     1
102
RTVSPropertyOp5
 70
     1
102
RTVSPropertyOp6
 70
     1
102
RTVSPropertyOp7
 70
     1
102
RTVSPropertyOp8
 70
     1
102
RTVSPropertyOp9
 70
     1
102
RTVSPropertyOp10
 70
     1
102
RTVSPropertyOp11
 70
     1
102
RTVSPropertyOp12
 70
     1
102
RTVSPropertyOp13
 70
     1
102
RTVSPropertyOp14
 70
     1
102
RTVSPropertyOp15
 70
     1
102
RTVSPropertyOp16
 70
     1
102
RTVSPropertyOp17
 70
     1
102
RTVSPropertyOp18
 70
     1
102
RTVSPropertyOp19
 70
     1
102
RTVSPropertyOp20
 70
     1
102
RTVSPropertyOp21
 70
     1
102
RTVSPropertyOp22
 70
     1
102
RTVSPropertyOp23
 70
     1
102
RTVSPropertyOp24
 70
     1
102
RTVSPropertyOp25
 70
     1
102
RTVSPropertyOp26
 70
     1
102
RTVSPropertyOp27
 70
     1
102
RTVSPropertyOp28
 70
     1
102
RTVSPropertyOp29
 70
     1
102
RTVSPropertyOp30
 70
     1
102
RTVSPropertyOp31
 70
     1
102
RTVSPropertyOp32
 70
     1
102
RTVSPropertyOp33
 70
     1
102
RTVSPropertyOp34
 70
     1
102
RTVSPropertyOp35
 70
     1
102
RTVSPropertyOp36
 70
     1
102
RTVSPropertyOp37
 70
     1
102
RTVSPropertyOp38
 70
     1
102
RTVSPropertyOp39
 70
     1
102
RTVSPropertyOp40
 70
     1
102
RTVSPropertyOp41
 70
     1
102
RTVSPropertyOp42
 70
     1
102
RTVSPropertyOp43
 70
     1
102
RTVSPropertyOp44
 70
     1
102
RTVSPropertyOp45
 70
     1
102
RTVSPropertyOp46
 70
     1
102
RTVSPropertyOp47
 70
     1
102
RTVSPropertyOp48
 70
     1
102
RTVSPropertyOp49
 70
     1
102
RTVSPropertyOp50
 70
     1
102
RTVSPropertyOp51
 70
     0
102
RTVSPropertyOp52
 70
     0
102
RTVSPropertyOp53
 70
     1
102
RTVSPropertyOp54
 70
     1
102
RTVSPropertyOp55
 70
     1
102
RTVSPropertyOp56
 70
     1
102
RTVSPropertyOp57
 70
     1
102
RTVSPost2010Prop28
280
     0
102
RTVSPost2010PropOp28
 70
     1
102
RTVSPost2010Prop29
280
     1
102
RTVSPost2010PropOp29
 70
     1
102
RTVSPost2010Prop30
280
     1
102
RTVSPost2010PropOp30
 70
     1
102
RTVSPost2010Prop31
280
     0
102
RTVSPost2010PropOp31
 70
     1
102
RTVSPost2010Prop32
280
     0
102
RTVSPost2010PropOp32
 70
     1
102
RTVSPost2010Prop33
280
     0
102
RTVSPost2010PropOp33
 70
     1
102
RTVSPost2010Prop34
280
     0
102
RTVSPost2010PropOp34
 70
     1
102
RTVSPost2010Prop35
280
     0
102
RTVSPost2010PropOp35
 70
     1
102
RTVSPost2010Prop36
280
     0
102
RTVSPost2010PropOp36
 70
     1
102
RTVSPost2010Prop37
 90
       50
102
RTVSPost2010PropOp37
 70
     1
102
RTVSPost2010Prop38
140
0.0
102
RTVSPost2010PropOp38
 70
     1
102
RTVSPost2010Prop39
140
1.0
102
RTVSPost2010PropOp39
 70
     1
102
RTVSPost2010Prop40
 90
        0
102
RTVSPost2010PropOp40
 70
     1
102
RTVSPost2010Prop41ColorIndex
 90
       18
102
RTVSPost2010Prop41ColorRGB
 90
        0
102
RTVSPost2010PropOp41
 70
     1
102
RTVSPost2010Prop42
 90
       50
102
RTVSPost2010PropOp42
 70
     1
102
RTVSPost2010Prop43
 90
        3
102
RTVSPost2010PropOp43
 70
     1
102
RTVSPost2010Prop44ColorIndex
 90
        5
102
RTVSPost2010Prop44ColorRGB
 90
      255
102
RTVSPost2010PropOp44
 70
     1
102
RTVSPost2010Prop45
280
     0
102
RTVSPost2010PropOp45
 70
     1
102
RTVSPost2010Prop46
 90
       50
102
RTVSPost2010PropOp46
 70
     1
102
RTVSPost2010Prop47
 90
       50
102
RTVSPost2010PropOp47
 70
     1
102
RTVSPost2010Prop48
 90
       50
102
RTVSPost2010PropOp48
 70
     1
102
RTVSPost2010Prop49
280
     0
102
RTVSPost2010PropOp49
 70
     1
102
RTVSPost2010Prop50
 90
       50
102
RTVSPost2010PropOp50
 70
     1
102
RTVSPost2010Prop51ColorIndex
 90
      256
102
RTVSPost2010Prop51ColorRGB
 90
-16777216
102
RTVSPost2010PropOp51
 70
     0
102
RTVSPost2010Prop52
140
1.0
102
RTVSPost2010PropOp52
 70
     0
102
RTVSPost2010Prop53
 90
        2
102
RTVSPost2010PropOp53
 70
     1
102
RTVSPost2010Prop54
  1
strokes_ogs.tif
102
RTVSPost2010PropOp54
 70
     1
102
RTVSPost2010Prop55
280
     0
102
RTVSPost2010PropOp55
 70
     1
102
RTVSPost2010Prop56
140
1.0
102
RTVSPost2010PropOp56
 70
     1
102
RTVSPost2010Prop57
140
1.0
102
RTVSPost2010PropOp57
 70
     1
  0
XRECORD
  5
3C3
102
{ACAD_REACTORS
330
3C2
102
}
330
3C2
100
AcDbXrecord
280
     1
102
RTVSPropertyOp0
 70
     0
102
RTVSPropertyOp1
 70
     0
102
RTVSPropertyOp2
 70
     0
102
RTVSPropertyOp3
 70
     0
102
RTVSPropertyOp4
 70
     0
102
RTVSPropertyOp5
 70
     0
102
RTVSPropertyOp6
 70
     0
102
RTVSPropertyOp7
 70
     0
102
RTVSPropertyOp8
 70
     0
102
RTVSPropertyOp9
 70
     0
102
RTVSPropertyOp10
 70
     0
102
RTVSPropertyOp11
 70
     0
102
RTVSPropertyOp12
 70
     0
102
RTVSPropertyOp13
 70
     0
102
RTVSPropertyOp14
 70
     2
102
RTVSPropertyOp15
 70
     0
102
RTVSPropertyOp16
 70
     0
102
RTVSPropertyOp17
 70
     0
102
RTVSPropertyOp18
 70
     0
102
RTVSPropertyOp19
 70
     0
102
RTVSPropertyOp20
 70
     0
102
RTVSPropertyOp21
 70
     0
102
RTVSPropertyOp22
 70
     0
102
RTVSPropertyOp23
 70
     0
102
RTVSPropertyOp24
 70
     0
102
RTVSPropertyOp25
 70
     0
102
RTVSPropertyOp26
 70
     0
102
RTVSPropertyOp27
 70
     0
102
RTVSPropertyOp28
 70
     0
102
RTVSPropertyOp29
 70
     0
102
RTVSPropertyOp30
 70
     0
102
RTVSPropertyOp31
 70
     0
102
RTVSPropertyOp32
 70
     0
102
RTVSPropertyOp33
 70
     0
102
RTVSPropertyOp34
 70
     0
102
RTVSPropertyOp35
 70
     0
102
RTVSPropertyOp36
 70
     0
102
RTVSPropertyOp37
 70
     0
102
RTVSPropertyOp38
 70
     0
102
RTVSPropertyOp39
 70
     0
102
RTVSPropertyOp40
 70
     0
102
RTVSPropertyOp41
 70
     0
102
RTVSPropertyOp42
 70
     0
102
RTVSPropertyOp43
 70
     0
102
RTVSPropertyOp44
 70
     0
102
RTVSPropertyOp45
 70
     0
102
RTVSPropertyOp46
 70
     0
102
RTVSPropertyOp47
 70
     0
102
RTVSPropertyOp48
 70
     0
102
RTVSPropertyOp49
 70
     0
102
RTVSPropertyOp50
 70
     0
102
RTVSPropertyOp51
 70
     0
102
RTVSPropertyOp52
 70
     0
102
RTVSPropertyOp53
 70
     0
102
RTVSPropertyOp54
 70
     0
102
RTVSPropertyOp55
 70
     0
102
RTVSPropertyOp56
 70
     0
102
RTVSPropertyOp57
 70
     0
102
RTVSPost2010Prop28
280
     0
102
RTVSPost2010PropOp28
 70
     0
102
RTVSPost2010Prop29
280
     1
102
RTVSPost2010PropOp29
 70
     0
102
RTVSPost2010Prop30
280
     1
102
RTVSPost2010PropOp30
 70
     0
102
RTVSPost2010Prop31
280
     0
102
RTVSPost2010PropOp31
 70
     0
102
RTVSPost2010Prop32
280
     0
102
RTVSPost2010PropOp32
 70
     0
102
RTVSPost2010Prop33
280
     0
102
RTVSPost2010PropOp33
 70
     0
102
RTVSPost2010Prop34
280
     0
102
RTVSPost2010PropOp34
 70
     0
102
RTVSPost2010Prop35
280
     0
102
RTVSPost2010PropOp35
 70
     0
102
RTVSPost2010Prop36
280
     0
102
RTVSPost2010PropOp36
 70
     0
102
RTVSPost2010Prop37
 90
       50
102
RTVSPost2010PropOp37
 70
     0
102
RTVSPost2010Prop38
140
0.0
102
RTVSPost2010PropOp38
 70
     0
102
RTVSPost2010Prop39
140
1.0
102
RTVSPost2010PropOp39
 70
     0
102
RTVSPost2010Prop40
 90
        0
102
RTVSPost2010PropOp40
 70
     0
102
RTVSPost2010Prop41ColorIndex
 90
       18
102
RTVSPost2010Prop41ColorRGB
 90
        0
102
RTVSPost2010PropOp41
 70
     0
102
RTVSPost2010Prop42
 90
       50
102
RTVSPost2010PropOp42
 70
     0
102
RTVSPost2010Prop43
 90
        3
102
RTVSPost2010PropOp43
 70
     0
102
RTVSPost2010Prop44ColorIndex
 90
        5
102
RTVSPost2010Prop44ColorRGB
 90
      255
102
RTVSPost2010PropOp44
 70
     0
102
RTVSPost2010Prop45
280
     0
102
RTVSPost2010PropOp45
 70
     0
102
RTVSPost2010Prop46
 90
       50
102
RTVSPost2010PropOp46
 70
     0
102
RTVSPost2010Prop47
 90
       50
102
RTVSPost2010PropOp47
 70
     0
102
RTVSPost2010Prop48
 90
       50
102
RTVSPost2010PropOp48
 70
     0
102
RTVSPost2010Prop49
280
     0
102
RTVSPost2010PropOp49
 70
     0
102
RTVSPost2010Prop50
 90
       50
102
RTVSPost2010PropOp50
 70
     0
102
RTVSPost2010Prop51ColorIndex
 90
      256
102
RTVSPost2010Prop51ColorRGB
 90
-16777216
102
RTVSPost2010PropOp51
 70
     0
102
RTVSPost2010Prop52
140
1.0
102
RTVSPost2010PropOp52
 70
     0
102
RTVSPost2010Prop53
 90
        2
102
RTVSPost2010PropOp53
 70
     0
102
RTVSPost2010Prop54
  1
strokes_ogs.tif
102
RTVSPost2010PropOp54
 70
     0
102
RTVSPost2010Prop55
280
     0
102
RTVSPost2010PropOp55
 70
     0
102
RTVSPost2010Prop56
140
1.0
102
RTVSPost2010PropOp56
 70
     0
102
RTVSPost2010Prop57
140
1.0
102
RTVSPost2010PropOp57
 70
     0
  0
XRECORD
  5
3BB
102
{ACAD_REACTORS
330
3BA
102
}
330
3BA
100
AcDbXrecord
280
     1
102
RTVSPropertyOp0
 70
     1
102
RTVSPropertyOp1
 70
     1
102
RTVSPropertyOp2
 70
     1
102
RTVSPropertyOp3
 70
     1
102
RTVSPropertyOp4
 70
     1
102
RTVSPropertyOp5
 70
     1
102
RTVSPropertyOp6
 70
     1
102
RTVSPropertyOp7
 70
     1
102
RTVSPropertyOp8
 70
     1
102
RTVSPropertyOp9
 70
     1
102
RTVSPropertyOp10
 70
     1
102
RTVSPropertyOp11
 70
     1
102
RTVSPropertyOp12
 70
     1
102
RTVSPropertyOp13
 70
     1
102
RTVSPropertyOp14
 70
     1
102
RTVSPropertyOp15
 70
     1
102
RTVSPropertyOp16
 70
     1
102
RTVSPropertyOp17
 70
     1
102
RTVSPropertyOp18
 70
     1
102
RTVSPropertyOp19
 70
     1
102
RTVSPropertyOp20
 70
     1
102
RTVSPropertyOp21
 70
     1
102
RTVSPropertyOp22
 70
     1
102
RTVSPropertyOp23
 70
     1
102
RTVSPropertyOp24
 70
     1
102
RTVSPropertyOp25
 70
     1
102
RTVSPropertyOp26
 70
     1
102
RTVSPropertyOp27
 70
     1
102
RTVSPropertyOp28
 70
     1
102
RTVSPropertyOp29
 70
     1
102
RTVSPropertyOp30
 70
     1
102
RTVSPropertyOp31
 70
     1
102
RTVSPropertyOp32
 70
     1
102
RTVSPropertyOp33
 70
     1
102
RTVSPropertyOp34
 70
     1
102
RTVSPropertyOp35
 70
     1
102
RTVSPropertyOp36
 70
     1
102
RTVSPropertyOp37
 70
     1
102
RTVSPropertyOp38
 70
     1
102
RTVSPropertyOp39
 70
     1
102
RTVSPropertyOp40
 70
     1
102
RTVSPropertyOp41
 70
     1
102
RTVSPropertyOp42
 70
     1
102
RTVSPropertyOp43
 70
     1
102
RTVSPropertyOp44
 70
     1
102
RTVSPropertyOp45
 70
     1
102
RTVSPropertyOp46
 70
     1
102
RTVSPropertyOp47
 70
     1
102
RTVSPropertyOp48
 70
     1
102
RTVSPropertyOp49
 70
     1
102
RTVSPropertyOp50
 70
     1
102
RTVSPropertyOp51
 70
     0
102
RTVSPropertyOp52
 70
     0
102
RTVSPropertyOp53
 70
     1
102
RTVSPropertyOp54
 70
     1
102
RTVSPropertyOp55
 70
     1
102
RTVSPropertyOp56
 70
     1
102
RTVSPropertyOp57
 70
     1
102
RTVSPost2010Prop28
280
     0
102
RTVSPost2010PropOp28
 70
     1
102
RTVSPost2010Prop29
280
     1
102
RTVSPost2010PropOp29
 70
     1
102
RTVSPost2010Prop30
280
     1
102
RTVSPost2010PropOp30
 70
     1
102
RTVSPost2010Prop31
280
     0
102
RTVSPost2010PropOp31
 70
     1
102
RTVSPost2010Prop32
280
     0
102
RTVSPost2010PropOp32
 70
     1
102
RTVSPost2010Prop33
280
     0
102
RTVSPost2010PropOp33
 70
     1
102
RTVSPost2010Prop34
280
     0
102
RTVSPost2010PropOp34
 70
     1
102
RTVSPost2010Prop35
280
     0
102
RTVSPost2010PropOp35
 70
     1
102
RTVSPost2010Prop36
280
     0
102
RTVSPost2010PropOp36
 70
     1
102
RTVSPost2010Prop37
 90
       50
102
RTVSPost2010PropOp37
 70
     1
102
RTVSPost2010Prop38
140
0.0
102
RTVSPost2010PropOp38
 70
     1
102
RTVSPost2010Prop39
140
1.0
102
RTVSPost2010PropOp39
 70
     1
102
RTVSPost2010Prop40
 90
        0
102
RTVSPost2010PropOp40
 70
     1
102
RTVSPost2010Prop41ColorIndex
 90
       18
102
RTVSPost2010Prop41ColorRGB
 90
        0
102
RTVSPost2010PropOp41
 70
     1
102
RTVSPost2010Prop42
 90
       50
102
RTVSPost2010PropOp42
 70
     1
102
RTVSPost2010Prop43
 90
        3
102
RTVSPost2010PropOp43
 70
     1
102
RTVSPost2010Prop44ColorIndex
 90
        5
102
RTVSPost2010Prop44ColorRGB
 90
      255
102
RTVSPost2010PropOp44
 70
     1
102
RTVSPost2010Prop45
280
     0
102
RTVSPost2010PropOp45
 70
     1
102
RTVSPost2010Prop46
 90
       50
102
RTVSPost2010PropOp46
 70
     1
102
RTVSPost2010Prop47
 90
       50
102
RTVSPost2010PropOp47
 70
     1
102
RTVSPost2010Prop48
 90
       50
102
RTVSPost2010PropOp48
 70
     1
102
RTVSPost2010Prop49
280
     0
102
RTVSPost2010PropOp49
 70
     1
102
RTVSPost2010Prop50
 90
       50
102
RTVSPost2010PropOp50
 70
     1
102
RTVSPost2010Prop51ColorIndex
 90
      256
102
RTVSPost2010Prop51ColorRGB
 90
-16777216
102
RTVSPost2010PropOp51
 70
     0
102
RTVSPost2010Prop52
140
1.0
102
RTVSPost2010PropOp52
 70
     0
102
RTVSPost2010Prop53
 90
        2
102
RTVSPost2010PropOp53
 70
     1
102
RTVSPost2010Prop54
  1
strokes_ogs.tif
102
RTVSPost2010PropOp54
 70
     1
102
RTVSPost2010Prop55
280
     0
102
RTVSPost2010PropOp55
 70
     1
102
RTVSPost2010Prop56
140
1.0
102
RTVSPost2010PropOp56
 70
     1
102
RTVSPost2010Prop57
140
1.0
102
RTVSPost2010PropOp57
 70
     1
  0
XRECORD
  5
39F
102
{ACAD_REACTORS
330
39E
102
}
330
39E
100
AcDbXrecord
280
     1
102
RTVSPropertyOp0
 70
     1
102
RTVSPropertyOp1
 70
     1
102
RTVSPropertyOp2
 70
     1
102
RTVSPropertyOp3
 70
     1
102
RTVSPropertyOp4
 70
     1
102
RTVSPropertyOp5
 70
     1
102
RTVSPropertyOp6
 70
     1
102
RTVSPropertyOp7
 70
     1
102
RTVSPropertyOp8
 70
     1
102
RTVSPropertyOp9
 70
     1
102
RTVSPropertyOp10
 70
     1
102
RTVSPropertyOp11
 70
     1
102
RTVSPropertyOp12
 70
     1
102
RTVSPropertyOp13
 70
     1
102
RTVSPropertyOp14
 70
     1
102
RTVSPropertyOp15
 70
     1
102
RTVSPropertyOp16
 70
     1
102
RTVSPropertyOp17
 70
     1
102
RTVSPropertyOp18
 70
     1
102
RTVSPropertyOp19
 70
     1
102
RTVSPropertyOp20
 70
     1
102
RTVSPropertyOp21
 70
     1
102
RTVSPropertyOp22
 70
     1
102
RTVSPropertyOp23
 70
     1
102
RTVSPropertyOp24
 70
     1
102
RTVSPropertyOp25
 70
     1
102
RTVSPropertyOp26
 70
     1
102
RTVSPropertyOp27
 70
     1
102
RTVSPropertyOp28
 70
     1
102
RTVSPropertyOp29
 70
     1
102
RTVSPropertyOp30
 70
     1
102
RTVSPropertyOp31
 70
     1
102
RTVSPropertyOp32
 70
     1
102
RTVSPropertyOp33
 70
     1
102
RTVSPropertyOp34
 70
     1
102
RTVSPropertyOp35
 70
     1
102
RTVSPropertyOp36
 70
     1
102
RTVSPropertyOp37
 70
     1
102
RTVSPropertyOp38
 70
     1
102
RTVSPropertyOp39
 70
     1
102
RTVSPropertyOp40
 70
     1
102
RTVSPropertyOp41
 70
     1
102
RTVSPropertyOp42
 70
     1
102
RTVSPropertyOp43
 70
     1
102
RTVSPropertyOp44
 70
     1
102
RTVSPropertyOp45
 70
     1
102
RTVSPropertyOp46
 70
     1
102
RTVSPropertyOp47
 70
     1
102
RTVSPropertyOp48
 70
     1
102
RTVSPropertyOp49
 70
     1
102
RTVSPropertyOp50
 70
     1
102
RTVSPropertyOp51
 70
     0
102
RTVSPropertyOp52
 70
     0
102
RTVSPropertyOp53
 70
     1
102
RTVSPropertyOp54
 70
     1
102
RTVSPropertyOp55
 70
     1
102
RTVSPropertyOp56
 70
     1
102
RTVSPropertyOp57
 70
     1
102
RTVSPost2010Prop28
280
     0
102
RTVSPost2010PropOp28
 70
     1
102
RTVSPost2010Prop29
280
     1
102
RTVSPost2010PropOp29
 70
     1
102
RTVSPost2010Prop30
280
     1
102
RTVSPost2010PropOp30
 70
     1
102
RTVSPost2010Prop31
280
     0
102
RTVSPost2010PropOp31
 70
     1
102
RTVSPost2010Prop32
280
     0
102
RTVSPost2010PropOp32
 70
     1
102
RTVSPost2010Prop33
280
     0
102
RTVSPost2010PropOp33
 70
     1
102
RTVSPost2010Prop34
280
     0
102
RTVSPost2010PropOp34
 70
     1
102
RTVSPost2010Prop35
280
     0
102
RTVSPost2010PropOp35
 70
     1
102
RTVSPost2010Prop36
280
     0
102
RTVSPost2010PropOp36
 70
     1
102
RTVSPost2010Prop37
 90
       50
102
RTVSPost2010PropOp37
 70
     1
102
RTVSPost2010Prop38
140
0.0
102
RTVSPost2010PropOp38
 70
     1
102
RTVSPost2010Prop39
140
1.0
102
RTVSPost2010PropOp39
 70
     1
102
RTVSPost2010Prop40
 90
        0
102
RTVSPost2010PropOp40
 70
     1
102
RTVSPost2010Prop41ColorIndex
 90
       18
102
RTVSPost2010Prop41ColorRGB
 90
        0
102
RTVSPost2010PropOp41
 70
     1
102
RTVSPost2010Prop42
 90
       50
102
RTVSPost2010PropOp42
 70
     1
102
RTVSPost2010Prop43
 90
        3
102
RTVSPost2010PropOp43
 70
     1
102
RTVSPost2010Prop44ColorIndex
 90
        5
102
RTVSPost2010Prop44ColorRGB
 90
      255
102
RTVSPost2010PropOp44
 70
     1
102
RTVSPost2010Prop45
280
     0
102
RTVSPost2010PropOp45
 70
     1
102
RTVSPost2010Prop46
 90
       50
102
RTVSPost2010PropOp46
 70
     1
102
RTVSPost2010Prop47
 90
       50
102
RTVSPost2010PropOp47
 70
     1
102
RTVSPost2010Prop48
 90
       50
102
RTVSPost2010PropOp48
 70
     1
102
RTVSPost2010Prop49
280
     0
102
RTVSPost2010PropOp49
 70
     1
102
RTVSPost2010Prop50
 90
       50
102
RTVSPost2010PropOp50
 70
     1
102
RTVSPost2010Prop51ColorIndex
 90
      256
102
RTVSPost2010Prop51ColorRGB
 90
-16777216
102
RTVSPost2010PropOp51
 70
     0
102
RTVSPost2010Prop52
140
1.0
102
RTVSPost2010PropOp52
 70
     0
102
RTVSPost2010Prop53
 90
        2
102
RTVSPost2010PropOp53
 70
     1
102
RTVSPost2010Prop54
  1
strokes_ogs.tif
102
RTVSPost2010PropOp54
 70
     1
102
RTVSPost2010Prop55
280
     0
102
RTVSPost2010PropOp55
 70
     1
102
RTVSPost2010Prop56
140
1.0
102
RTVSPost2010PropOp56
 70
     1
102
RTVSPost2010Prop57
140
1.0
102
RTVSPost2010PropOp57
 70
     1
  0
XRECORD
  5
3A1
102
{ACAD_REACTORS
330
3A0
102
}
330
3A0
100
AcDbXrecord
280
     1
102
RTVSPropertyOp0
 70
     1
102
RTVSPropertyOp1
 70
     1
102
RTVSPropertyOp2
 70
     1
102
RTVSPropertyOp3
 70
     1
102
RTVSPropertyOp4
 70
     1
102
RTVSPropertyOp5
 70
     1
102
RTVSPropertyOp6
 70
     1
102
RTVSPropertyOp7
 70
     1
102
RTVSPropertyOp8
 70
     1
102
RTVSPropertyOp9
 70
     1
102
RTVSPropertyOp10
 70
     1
102
RTVSPropertyOp11
 70
     1
102
RTVSPropertyOp12
 70
     1
102
RTVSPropertyOp13
 70
     1
102
RTVSPropertyOp14
 70
     1
102
RTVSPropertyOp15
 70
     1
102
RTVSPropertyOp16
 70
     1
102
RTVSPropertyOp17
 70
     1
102
RTVSPropertyOp18
 70
     1
102
RTVSPropertyOp19
 70
     1
102
RTVSPropertyOp20
 70
     1
102
RTVSPropertyOp21
 70
     1
102
RTVSPropertyOp22
 70
     1
102
RTVSPropertyOp23
 70
     1
102
RTVSPropertyOp24
 70
     1
102
RTVSPropertyOp25
 70
     1
102
RTVSPropertyOp26
 70
     1
102
RTVSPropertyOp27
 70
     1
102
RTVSPropertyOp28
 70
     1
102
RTVSPropertyOp29
 70
     1
102
RTVSPropertyOp30
 70
     1
102
RTVSPropertyOp31
 70
     1
102
RTVSPropertyOp32
 70
     1
102
RTVSPropertyOp33
 70
     1
102
RTVSPropertyOp34
 70
     1
102
RTVSPropertyOp35
 70
     1
102
RTVSPropertyOp36
 70
     1
102
RTVSPropertyOp37
 70
     1
102
RTVSPropertyOp38
 70
     1
102
RTVSPropertyOp39
 70
     1
102
RTVSPropertyOp40
 70
     1
102
RTVSPropertyOp41
 70
     1
102
RTVSPropertyOp42
 70
     1
102
RTVSPropertyOp43
 70
     1
102
RTVSPropertyOp44
 70
     1
102
RTVSPropertyOp45
 70
     1
102
RTVSPropertyOp46
 70
     1
102
RTVSPropertyOp47
 70
     1
102
RTVSPropertyOp48
 70
     1
102
RTVSPropertyOp49
 70
     1
102
RTVSPropertyOp50
 70
     1
102
RTVSPropertyOp51
 70
     0
102
RTVSPropertyOp52
 70
     0
102
RTVSPropertyOp53
 70
     1
102
RTVSPropertyOp54
 70
     1
102
RTVSPropertyOp55
 70
     1
102
RTVSPropertyOp56
 70
     1
102
RTVSPropertyOp57
 70
     1
102
RTVSPost2010Prop28
280
     0
102
RTVSPost2010PropOp28
 70
     1
102
RTVSPost2010Prop29
280
     1
102
RTVSPost2010PropOp29
 70
     1
102
RTVSPost2010Prop30
280
     1
102
RTVSPost2010PropOp30
 70
     1
102
RTVSPost2010Prop31
280
     0
102
RTVSPost2010PropOp31
 70
     1
102
RTVSPost2010Prop32
280
     0
102
RTVSPost2010PropOp32
 70
     1
102
RTVSPost2010Prop33
280
     0
102
RTVSPost2010PropOp33
 70
     1
102
RTVSPost2010Prop34
280
     0
102
RTVSPost2010PropOp34
 70
     1
102
RTVSPost2010Prop35
280
     0
102
RTVSPost2010PropOp35
 70
     1
102
RTVSPost2010Prop36
280
     0
102
RTVSPost2010PropOp36
 70
     1
102
RTVSPost2010Prop37
 90
       50
102
RTVSPost2010PropOp37
 70
     1
102
RTVSPost2010Prop38
140
0.0
102
RTVSPost2010PropOp38
 70
     1
102
RTVSPost2010Prop39
140
1.0
102
RTVSPost2010PropOp39
 70
     1
102
RTVSPost2010Prop40
 90
        0
102
RTVSPost2010PropOp40
 70
     1
102
RTVSPost2010Prop41ColorIndex
 90
       18
102
RTVSPost2010Prop41ColorRGB
 90
        0
102
RTVSPost2010PropOp41
 70
     1
102
RTVSPost2010Prop42
 90
       50
102
RTVSPost2010PropOp42
 70
     1
102
RTVSPost2010Prop43
 90
        3
102
RTVSPost2010PropOp43
 70
     1
102
RTVSPost2010Prop44ColorIndex
 90
        5
102
RTVSPost2010Prop44ColorRGB
 90
      255
102
RTVSPost2010PropOp44
 70
     1
102
RTVSPost2010Prop45
280
     0
102
RTVSPost2010PropOp45
 70
     1
102
RTVSPost2010Prop46
 90
       50
102
RTVSPost2010PropOp46
 70
     1
102
RTVSPost2010Prop47
 90
       50
102
RTVSPost2010PropOp47
 70
     1
102
RTVSPost2010Prop48
 90
       50
102
RTVSPost2010PropOp48
 70
     1
102
RTVSPost2010Prop49
280
     0
102
RTVSPost2010PropOp49
 70
     1
102
RTVSPost2010Prop50
 90
       50
102
RTVSPost2010PropOp50
 70
     1
102
RTVSPost2010Prop51ColorIndex
 90
      256
102
RTVSPost2010Prop51ColorRGB
 90
-16777216
102
RTVSPost2010PropOp51
 70
     0
102
RTVSPost2010Prop52
140
1.0
102
RTVSPost2010PropOp52
 70
     0
102
RTVSPost2010Prop53
 90
        2
102
RTVSPost2010PropOp53
 70
     1
102
RTVSPost2010Prop54
  1
strokes_ogs.tif
102
RTVSPost2010PropOp54
 70
     1
102
RTVSPost2010Prop55
280
     0
102
RTVSPost2010PropOp55
 70
     1
102
RTVSPost2010Prop56
140
1.0
102
RTVSPost2010PropOp56
 70
     1
102
RTVSPost2010Prop57
140
1.0
102
RTVSPost2010PropOp57
 70
     1
  0
XRECORD
  5
3A3
102
{ACAD_REACTORS
330
3A2
102
}
330
3A2
100
AcDbXrecord
280
     1
102
RTVSPropertyOp0
 70
     1
102
RTVSPropertyOp1
 70
     1
102
RTVSPropertyOp2
 70
     1
102
RTVSPropertyOp3
 70
     1
102
RTVSPropertyOp4
 70
     1
102
RTVSPropertyOp5
 70
     1
102
RTVSPropertyOp6
 70
     1
102
RTVSPropertyOp7
 70
     1
102
RTVSPropertyOp8
 70
     1
102
RTVSPropertyOp9
 70
     1
102
RTVSPropertyOp10
 70
     1
102
RTVSPropertyOp11
 70
     1
102
RTVSPropertyOp12
 70
     1
102
RTVSPropertyOp13
 70
     1
102
RTVSPropertyOp14
 70
     1
102
RTVSPropertyOp15
 70
     1
102
RTVSPropertyOp16
 70
     1
102
RTVSPropertyOp17
 70
     1
102
RTVSPropertyOp18
 70
     1
102
RTVSPropertyOp19
 70
     1
102
RTVSPropertyOp20
 70
     1
102
RTVSPropertyOp21
 70
     1
102
RTVSPropertyOp22
 70
     1
102
RTVSPropertyOp23
 70
     1
102
RTVSPropertyOp24
 70
     1
102
RTVSPropertyOp25
 70
     1
102
RTVSPropertyOp26
 70
     1
102
RTVSPropertyOp27
 70
     1
102
RTVSPropertyOp28
 70
     1
102
RTVSPropertyOp29
 70
     1
102
RTVSPropertyOp30
 70
     1
102
RTVSPropertyOp31
 70
     1
102
RTVSPropertyOp32
 70
     1
102
RTVSPropertyOp33
 70
     1
102
RTVSPropertyOp34
 70
     1
102
RTVSPropertyOp35
 70
     1
102
RTVSPropertyOp36
 70
     1
102
RTVSPropertyOp37
 70
     1
102
RTVSPropertyOp38
 70
     1
102
RTVSPropertyOp39
 70
     1
102
RTVSPropertyOp40
 70
     1
102
RTVSPropertyOp41
 70
     1
102
RTVSPropertyOp42
 70
     1
102
RTVSPropertyOp43
 70
     1
102
RTVSPropertyOp44
 70
     1
102
RTVSPropertyOp45
 70
     1
102
RTVSPropertyOp46
 70
     1
102
RTVSPropertyOp47
 70
     1
102
RTVSPropertyOp48
 70
     1
102
RTVSPropertyOp49
 70
     1
102
RTVSPropertyOp50
 70
     1
102
RTVSPropertyOp51
 70
     0
102
RTVSPropertyOp52
 70
     0
102
RTVSPropertyOp53
 70
     1
102
RTVSPropertyOp54
 70
     1
102
RTVSPropertyOp55
 70
     1
102
RTVSPropertyOp56
 70
     1
102
RTVSPropertyOp57
 70
     1
102
RTVSPost2010Prop28
280
     0
102
RTVSPost2010PropOp28
 70
     1
102
RTVSPost2010Prop29
280
     1
102
RTVSPost2010PropOp29
 70
     1
102
RTVSPost2010Prop30
280
     1
102
RTVSPost2010PropOp30
 70
     1
102
RTVSPost2010Prop31
280
     0
102
RTVSPost2010PropOp31
 70
     1
102
RTVSPost2010Prop32
280
     0
102
RTVSPost2010PropOp32
 70
     1
102
RTVSPost2010Prop33
280
     0
102
RTVSPost2010PropOp33
 70
     1
102
RTVSPost2010Prop34
280
     0
102
RTVSPost2010PropOp34
 70
     1
102
RTVSPost2010Prop35
280
     0
102
RTVSPost2010PropOp35
 70
     1
102
RTVSPost2010Prop36
280
     0
102
RTVSPost2010PropOp36
 70
     1
102
RTVSPost2010Prop37
 90
       50
102
RTVSPost2010PropOp37
 70
     1
102
RTVSPost2010Prop38
140
0.0
102
RTVSPost2010PropOp38
 70
     1
102
RTVSPost2010Prop39
140
1.0
102
RTVSPost2010PropOp39
 70
     1
102
RTVSPost2010Prop40
 90
        0
102
RTVSPost2010PropOp40
 70
     1
102
RTVSPost2010Prop41ColorIndex
 90
       18
102
RTVSPost2010Prop41ColorRGB
 90
        0
102
RTVSPost2010PropOp41
 70
     1
102
RTVSPost2010Prop42
 90
       50
102
RTVSPost2010PropOp42
 70
     1
102
RTVSPost2010Prop43
 90
        3
102
RTVSPost2010PropOp43
 70
     1
102
RTVSPost2010Prop44ColorIndex
 90
        5
102
RTVSPost2010Prop44ColorRGB
 90
      255
102
RTVSPost2010PropOp44
 70
     1
102
RTVSPost2010Prop45
280
     0
102
RTVSPost2010PropOp45
 70
     1
102
RTVSPost2010Prop46
 90
       50
102
RTVSPost2010PropOp46
 70
     1
102
RTVSPost2010Prop47
 90
       50
102
RTVSPost2010PropOp47
 70
     1
102
RTVSPost2010Prop48
 90
       50
102
RTVSPost2010PropOp48
 70
     1
102
RTVSPost2010Prop49
280
     0
102
RTVSPost2010PropOp49
 70
     1
102
RTVSPost2010Prop50
 90
       50
102
RTVSPost2010PropOp50
 70
     1
102
RTVSPost2010Prop51ColorIndex
 90
      256
102
RTVSPost2010Prop51ColorRGB
 90
-16777216
102
RTVSPost2010PropOp51
 70
     0
102
RTVSPost2010Prop52
140
1.0
102
RTVSPost2010PropOp52
 70
     0
102
RTVSPost2010Prop53
 90
        2
102
RTVSPost2010PropOp53
 70
     1
102
RTVSPost2010Prop54
  1
strokes_ogs.tif
102
RTVSPost2010PropOp54
 70
     1
102
RTVSPost2010Prop55
280
     0
102
RTVSPost2010PropOp55
 70
     1
102
RTVSPost2010Prop56
140
1.0
102
RTVSPost2010PropOp56
 70
     1
102
RTVSPost2010Prop57
140
1.0
102
RTVSPost2010PropOp57
 70
     1
  0
XRECORD
  5
3A5
102
{ACAD_REACTORS
330
3A4
102
}
330
3A4
100
AcDbXrecord
280
     1
102
RTVSPropertyOp0
 70
     1
102
RTVSPropertyOp1
 70
     1
102
RTVSPropertyOp2
 70
     1
102
RTVSPropertyOp3
 70
     1
102
RTVSPropertyOp4
 70
     1
102
RTVSPropertyOp5
 70
     1
102
RTVSPropertyOp6
 70
     1
102
RTVSPropertyOp7
 70
     1
102
RTVSPropertyOp8
 70
     1
102
RTVSPropertyOp9
 70
     1
102
RTVSPropertyOp10
 70
     1
102
RTVSPropertyOp11
 70
     1
102
RTVSPropertyOp12
 70
     1
102
RTVSPropertyOp13
 70
     1
102
RTVSPropertyOp14
 70
     1
102
RTVSPropertyOp15
 70
     1
102
RTVSPropertyOp16
 70
     1
102
RTVSPropertyOp17
 70
     1
102
RTVSPropertyOp18
 70
     1
102
RTVSPropertyOp19
 70
     1
102
RTVSPropertyOp20
 70
     1
102
RTVSPropertyOp21
 70
     1
102
RTVSPropertyOp22
 70
     1
102
RTVSPropertyOp23
 70
     1
102
RTVSPropertyOp24
 70
     1
102
RTVSPropertyOp25
 70
     1
102
RTVSPropertyOp26
 70
     1
102
RTVSPropertyOp27
 70
     1
102
RTVSPropertyOp28
 70
     1
102
RTVSPropertyOp29
 70
     1
102
RTVSPropertyOp30
 70
     1
102
RTVSPropertyOp31
 70
     1
102
RTVSPropertyOp32
 70
     1
102
RTVSPropertyOp33
 70
     1
102
RTVSPropertyOp34
 70
     1
102
RTVSPropertyOp35
 70
     1
102
RTVSPropertyOp36
 70
     1
102
RTVSPropertyOp37
 70
     1
102
RTVSPropertyOp38
 70
     1
102
RTVSPropertyOp39
 70
     1
102
RTVSPropertyOp40
 70
     1
102
RTVSPropertyOp41
 70
     1
102
RTVSPropertyOp42
 70
     1
102
RTVSPropertyOp43
 70
     1
102
RTVSPropertyOp44
 70
     1
102
RTVSPropertyOp45
 70
     1
102
RTVSPropertyOp46
 70
     1
102
RTVSPropertyOp47
 70
     1
102
RTVSPropertyOp48
 70
     1
102
RTVSPropertyOp49
 70
     1
102
RTVSPropertyOp50
 70
     1
102
RTVSPropertyOp51
 70
     0
102
RTVSPropertyOp52
 70
     0
102
RTVSPropertyOp53
 70
     1
102
RTVSPropertyOp54
 70
     1
102
RTVSPropertyOp55
 70
     1
102
RTVSPropertyOp56
 70
     1
102
RTVSPropertyOp57
 70
     1
102
RTVSPost2010Prop28
280
     0
102
RTVSPost2010PropOp28
 70
     1
102
RTVSPost2010Prop29
280
     1
102
RTVSPost2010PropOp29
 70
     1
102
RTVSPost2010Prop30
280
     1
102
RTVSPost2010PropOp30
 70
     1
102
RTVSPost2010Prop31
280
     0
102
RTVSPost2010PropOp31
 70
     1
102
RTVSPost2010Prop32
280
     0
102
RTVSPost2010PropOp32
 70
     1
102
RTVSPost2010Prop33
280
     0
102
RTVSPost2010PropOp33
 70
     1
102
RTVSPost2010Prop34
280
     0
102
RTVSPost2010PropOp34
 70
     1
102
RTVSPost2010Prop35
280
     0
102
RTVSPost2010PropOp35
 70
     1
102
RTVSPost2010Prop36
280
     0
102
RTVSPost2010PropOp36
 70
     1
102
RTVSPost2010Prop37
 90
       50
102
RTVSPost2010PropOp37
 70
     1
102
RTVSPost2010Prop38
140
0.0
102
RTVSPost2010PropOp38
 70
     1
102
RTVSPost2010Prop39
140
1.0
102
RTVSPost2010PropOp39
 70
     1
102
RTVSPost2010Prop40
 90
        0
102
RTVSPost2010PropOp40
 70
     1
102
RTVSPost2010Prop41ColorIndex
 90
       18
102
RTVSPost2010Prop41ColorRGB
 90
        0
102
RTVSPost2010PropOp41
 70
     1
102
RTVSPost2010Prop42
 90
       50
102
RTVSPost2010PropOp42
 70
     1
102
RTVSPost2010Prop43
 90
        3
102
RTVSPost2010PropOp43
 70
     1
102
RTVSPost2010Prop44ColorIndex
 90
        5
102
RTVSPost2010Prop44ColorRGB
 90
      255
102
RTVSPost2010PropOp44
 70
     1
102
RTVSPost2010Prop45
280
     0
102
RTVSPost2010PropOp45
 70
     1
102
RTVSPost2010Prop46
 90
       50
102
RTVSPost2010PropOp46
 70
     1
102
RTVSPost2010Prop47
 90
       50
102
RTVSPost2010PropOp47
 70
     1
102
RTVSPost2010Prop48
 90
       50
102
RTVSPost2010PropOp48
 70
     1
102
RTVSPost2010Prop49
280
     0
102
RTVSPost2010PropOp49
 70
     1
102
RTVSPost2010Prop50
 90
       50
102
RTVSPost2010PropOp50
 70
     1
102
RTVSPost2010Prop51ColorIndex
 90
      256
102
RTVSPost2010Prop51ColorRGB
 90
-16777216
102
RTVSPost2010PropOp51
 70
     0
102
RTVSPost2010Prop52
140
1.0
102
RTVSPost2010PropOp52
 70
     0
102
RTVSPost2010Prop53
 90
        2
102
RTVSPost2010PropOp53
 70
     1
102
RTVSPost2010Prop54
  1
strokes_ogs.tif
102
RTVSPost2010PropOp54
 70
     1
102
RTVSPost2010Prop55
280
     0
102
RTVSPost2010PropOp55
 70
     1
102
RTVSPost2010Prop56
140
1.0
102
RTVSPost2010PropOp56
 70
     1
102
RTVSPost2010Prop57
140
1.0
102
RTVSPost2010PropOp57
 70
     1
  0
XRECORD
  5
3AB
102
{ACAD_REACTORS
330
3AA
102
}
330
3AA
100
AcDbXrecord
280
     1
102
RTVSPropertyOp0
 70
     1
102
RTVSPropertyOp1
 70
     1
102
RTVSPropertyOp2
 70
     1
102
RTVSPropertyOp3
 70
     1
102
RTVSPropertyOp4
 70
     1
102
RTVSPropertyOp5
 70
     1
102
RTVSPropertyOp6
 70
     1
102
RTVSPropertyOp7
 70
     1
102
RTVSPropertyOp8
 70
     1
102
RTVSPropertyOp9
 70
     1
102
RTVSPropertyOp10
 70
     1
102
RTVSPropertyOp11
 70
     1
102
RTVSPropertyOp12
 70
     1
102
RTVSPropertyOp13
 70
     1
102
RTVSPropertyOp14
 70
     1
102
RTVSPropertyOp15
 70
     1
102
RTVSPropertyOp16
 70
     1
102
RTVSPropertyOp17
 70
     1
102
RTVSPropertyOp18
 70
     1
102
RTVSPropertyOp19
 70
     1
102
RTVSPropertyOp20
 70
     1
102
RTVSPropertyOp21
 70
     1
102
RTVSPropertyOp22
 70
     1
102
RTVSPropertyOp23
 70
     1
102
RTVSPropertyOp24
 70
     1
102
RTVSPropertyOp25
 70
     1
102
RTVSPropertyOp26
 70
     1
102
RTVSPropertyOp27
 70
     1
102
RTVSPropertyOp28
 70
     1
102
RTVSPropertyOp29
 70
     1
102
RTVSPropertyOp30
 70
     1
102
RTVSPropertyOp31
 70
     1
102
RTVSPropertyOp32
 70
     1
102
RTVSPropertyOp33
 70
     1
102
RTVSPropertyOp34
 70
     1
102
RTVSPropertyOp35
 70
     1
102
RTVSPropertyOp36
 70
     1
102
RTVSPropertyOp37
 70
     1
102
RTVSPropertyOp38
 70
     1
102
RTVSPropertyOp39
 70
     1
102
RTVSPropertyOp40
 70
     1
102
RTVSPropertyOp41
 70
     1
102
RTVSPropertyOp42
 70
     1
102
RTVSPropertyOp43
 70
     1
102
RTVSPropertyOp44
 70
     1
102
RTVSPropertyOp45
 70
     1
102
RTVSPropertyOp46
 70
     1
102
RTVSPropertyOp47
 70
     1
102
RTVSPropertyOp48
 70
     1
102
RTVSPropertyOp49
 70
     1
102
RTVSPropertyOp50
 70
     1
102
RTVSPropertyOp51
 70
     0
102
RTVSPropertyOp52
 70
     0
102
RTVSPropertyOp53
 70
     1
102
RTVSPropertyOp54
 70
     1
102
RTVSPropertyOp55
 70
     1
102
RTVSPropertyOp56
 70
     1
102
RTVSPropertyOp57
 70
     1
102
RTVSPost2010Prop28
280
     0
102
RTVSPost2010PropOp28
 70
     1
102
RTVSPost2010Prop29
280
     1
102
RTVSPost2010PropOp29
 70
     1
102
RTVSPost2010Prop30
280
     1
102
RTVSPost2010PropOp30
 70
     1
102
RTVSPost2010Prop31
280
     0
102
RTVSPost2010PropOp31
 70
     1
102
RTVSPost2010Prop32
280
     0
102
RTVSPost2010PropOp32
 70
     1
102
RTVSPost2010Prop33
280
     0
102
RTVSPost2010PropOp33
 70
     1
102
RTVSPost2010Prop34
280
     0
102
RTVSPost2010PropOp34
 70
     1
102
RTVSPost2010Prop35
280
     0
102
RTVSPost2010PropOp35
 70
     1
102
RTVSPost2010Prop36
280
     0
102
RTVSPost2010PropOp36
 70
     1
102
RTVSPost2010Prop37
 90
       50
102
RTVSPost2010PropOp37
 70
     1
102
RTVSPost2010Prop38
140
0.0
102
RTVSPost2010PropOp38
 70
     1
102
RTVSPost2010Prop39
140
1.0
102
RTVSPost2010PropOp39
 70
     1
102
RTVSPost2010Prop40
 90
        0
102
RTVSPost2010PropOp40
 70
     1
102
RTVSPost2010Prop41ColorIndex
 90
       18
102
RTVSPost2010Prop41ColorRGB
 90
        0
102
RTVSPost2010PropOp41
 70
     1
102
RTVSPost2010Prop42
 90
       50
102
RTVSPost2010PropOp42
 70
     1
102
RTVSPost2010Prop43
 90
        3
102
RTVSPost2010PropOp43
 70
     1
102
RTVSPost2010Prop44ColorIndex
 90
        5
102
RTVSPost2010Prop44ColorRGB
 90
      255
102
RTVSPost2010PropOp44
 70
     1
102
RTVSPost2010Prop45
280
     0
102
RTVSPost2010PropOp45
 70
     1
102
RTVSPost2010Prop46
 90
       50
102
RTVSPost2010PropOp46
 70
     1
102
RTVSPost2010Prop47
 90
       50
102
RTVSPost2010PropOp47
 70
     1
102
RTVSPost2010Prop48
 90
       50
102
RTVSPost2010PropOp48
 70
     1
102
RTVSPost2010Prop49
280
     0
102
RTVSPost2010PropOp49
 70
     1
102
RTVSPost2010Prop50
 90
       50
102
RTVSPost2010PropOp50
 70
     1
102
RTVSPost2010Prop51ColorIndex
 90
      256
102
RTVSPost2010Prop51ColorRGB
 90
-16777216
102
RTVSPost2010PropOp51
 70
     0
102
RTVSPost2010Prop52
140
1.0
102
RTVSPost2010PropOp52
 70
     0
102
RTVSPost2010Prop53
 90
        2
102
RTVSPost2010PropOp53
 70
     1
102
RTVSPost2010Prop54
  1
strokes_ogs.tif
102
RTVSPost2010PropOp54
 70
     1
102
RTVSPost2010Prop55
280
     0
102
RTVSPost2010PropOp55
 70
     1
102
RTVSPost2010Prop56
140
1.0
102
RTVSPost2010PropOp56
 70
     1
102
RTVSPost2010Prop57
140
1.0
102
RTVSPost2010PropOp57
 70
     1
  0
XRECORD
  5
3BF
102
{ACAD_REACTORS
330
3BE
102
}
330
3BE
100
AcDbXrecord
280
     1
102
RTVSPropertyOp0
 70
     0
102
RTVSPropertyOp1
 70
     0
102
RTVSPropertyOp2
 70
     0
102
RTVSPropertyOp3
 70
     0
102
RTVSPropertyOp4
 70
     0
102
RTVSPropertyOp5
 70
     0
102
RTVSPropertyOp6
 70
     0
102
RTVSPropertyOp7
 70
     0
102
RTVSPropertyOp8
 70
     0
102
RTVSPropertyOp9
 70
     0
102
RTVSPropertyOp10
 70
     0
102
RTVSPropertyOp11
 70
     0
102
RTVSPropertyOp12
 70
     0
102
RTVSPropertyOp13
 70
     0
102
RTVSPropertyOp14
 70
     2
102
RTVSPropertyOp15
 70
     0
102
RTVSPropertyOp16
 70
     0
102
RTVSPropertyOp17
 70
     0
102
RTVSPropertyOp18
 70
     0
102
RTVSPropertyOp19
 70
     0
102
RTVSPropertyOp20
 70
     0
102
RTVSPropertyOp21
 70
     0
102
RTVSPropertyOp22
 70
     0
102
RTVSPropertyOp23
 70
     0
102
RTVSPropertyOp24
 70
     0
102
RTVSPropertyOp25
 70
     0
102
RTVSPropertyOp26
 70
     0
102
RTVSPropertyOp27
 70
     0
102
RTVSPropertyOp28
 70
     0
102
RTVSPropertyOp29
 70
     0
102
RTVSPropertyOp30
 70
     0
102
RTVSPropertyOp31
 70
     0
102
RTVSPropertyOp32
 70
     0
102
RTVSPropertyOp33
 70
     0
102
RTVSPropertyOp34
 70
     0
102
RTVSPropertyOp35
 70
     0
102
RTVSPropertyOp36
 70
     0
102
RTVSPropertyOp37
 70
     0
102
RTVSPropertyOp38
 70
     0
102
RTVSPropertyOp39
 70
     0
102
RTVSPropertyOp40
 70
     0
102
RTVSPropertyOp41
 70
     0
102
RTVSPropertyOp42
 70
     0
102
RTVSPropertyOp43
 70
     0
102
RTVSPropertyOp44
 70
     0
102
RTVSPropertyOp45
 70
     0
102
RTVSPropertyOp46
 70
     0
102
RTVSPropertyOp47
 70
     0
102
RTVSPropertyOp48
 70
     0
102
RTVSPropertyOp49
 70
     0
102
RTVSPropertyOp50
 70
     0
102
RTVSPropertyOp51
 70
     0
102
RTVSPropertyOp52
 70
     0
102
RTVSPropertyOp53
 70
     0
102
RTVSPropertyOp54
 70
     0
102
RTVSPropertyOp55
 70
     0
102
RTVSPropertyOp56
 70
     0
102
RTVSPropertyOp57
 70
     0
102
RTVSPost2010Prop28
280
     0
102
RTVSPost2010PropOp28
 70
     0
102
RTVSPost2010Prop29
280
     1
102
RTVSPost2010PropOp29
 70
     0
102
RTVSPost2010Prop30
280
     1
102
RTVSPost2010PropOp30
 70
     0
102
RTVSPost2010Prop31
280
     0
102
RTVSPost2010PropOp31
 70
     0
102
RTVSPost2010Prop32
280
     0
102
RTVSPost2010PropOp32
 70
     0
102
RTVSPost2010Prop33
280
     0
102
RTVSPost2010PropOp33
 70
     0
102
RTVSPost2010Prop34
280
     0
102
RTVSPost2010PropOp34
 70
     0
102
RTVSPost2010Prop35
280
     0
102
RTVSPost2010PropOp35
 70
     0
102
RTVSPost2010Prop36
280
     0
102
RTVSPost2010PropOp36
 70
     0
102
RTVSPost2010Prop37
 90
       50
102
RTVSPost2010PropOp37
 70
     0
102
RTVSPost2010Prop38
140
0.0
102
RTVSPost2010PropOp38
 70
     0
102
RTVSPost2010Prop39
140
1.0
102
RTVSPost2010PropOp39
 70
     0
102
RTVSPost2010Prop40
 90
        0
102
RTVSPost2010PropOp40
 70
     0
102
RTVSPost2010Prop41ColorIndex
 90
       18
102
RTVSPost2010Prop41ColorRGB
 90
        0
102
RTVSPost2010PropOp41
 70
     0
102
RTVSPost2010Prop42
 90
       50
102
RTVSPost2010PropOp42
 70
     0
102
RTVSPost2010Prop43
 90
        3
102
RTVSPost2010PropOp43
 70
     0
102
RTVSPost2010Prop44ColorIndex
 90
        5
102
RTVSPost2010Prop44ColorRGB
 90
      255
102
RTVSPost2010PropOp44
 70
     0
102
RTVSPost2010Prop45
280
     0
102
RTVSPost2010PropOp45
 70
     0
102
RTVSPost2010Prop46
 90
       50
102
RTVSPost2010PropOp46
 70
     0
102
RTVSPost2010Prop47
 90
       50
102
RTVSPost2010PropOp47
 70
     0
102
RTVSPost2010Prop48
 90
       50
102
RTVSPost2010PropOp48
 70
     0
102
RTVSPost2010Prop49
280
     0
102
RTVSPost2010PropOp49
 70
     0
102
RTVSPost2010Prop50
 90
       50
102
RTVSPost2010PropOp50
 70
     0
102
RTVSPost2010Prop51ColorIndex
 90
      256
102
RTVSPost2010Prop51ColorRGB
 90
-16777216
102
RTVSPost2010PropOp51
 70
     0
102
RTVSPost2010Prop52
140
1.0
102
RTVSPost2010PropOp52
 70
     0
102
RTVSPost2010Prop53
 90
        2
102
RTVSPost2010PropOp53
 70
     0
102
RTVSPost2010Prop54
  1
strokes_ogs.tif
102
RTVSPost2010PropOp54
 70
     0
102
RTVSPost2010Prop55
280
     0
102
RTVSPost2010PropOp55
 70
     0
102
RTVSPost2010Prop56
140
1.0
102
RTVSPost2010PropOp56
 70
     0
102
RTVSPost2010Prop57
140
1.0
102
RTVSPost2010PropOp57
 70
     0
  0
XRECORD
  5
3B9
102
{ACAD_REACTORS
330
3B8
102
}
330
3B8
100
AcDbXrecord
280
     1
102
RTVSPropertyOp0
 70
     1
102
RTVSPropertyOp1
 70
     1
102
RTVSPropertyOp2
 70
     1
102
RTVSPropertyOp3
 70
     1
102
RTVSPropertyOp4
 70
     1
102
RTVSPropertyOp5
 70
     1
102
RTVSPropertyOp6
 70
     1
102
RTVSPropertyOp7
 70
     1
102
RTVSPropertyOp8
 70
     1
102
RTVSPropertyOp9
 70
     1
102
RTVSPropertyOp10
 70
     1
102
RTVSPropertyOp11
 70
     1
102
RTVSPropertyOp12
 70
     1
102
RTVSPropertyOp13
 70
     1
102
RTVSPropertyOp14
 70
     1
102
RTVSPropertyOp15
 70
     1
102
RTVSPropertyOp16
 70
     1
102
RTVSPropertyOp17
 70
     1
102
RTVSPropertyOp18
 70
     1
102
RTVSPropertyOp19
 70
     1
102
RTVSPropertyOp20
 70
     1
102
RTVSPropertyOp21
 70
     1
102
RTVSPropertyOp22
 70
     1
102
RTVSPropertyOp23
 70
     1
102
RTVSPropertyOp24
 70
     1
102
RTVSPropertyOp25
 70
     1
102
RTVSPropertyOp26
 70
     1
102
RTVSPropertyOp27
 70
     1
102
RTVSPropertyOp28
 70
     1
102
RTVSPropertyOp29
 70
     1
102
RTVSPropertyOp30
 70
     1
102
RTVSPropertyOp31
 70
     1
102
RTVSPropertyOp32
 70
     1
102
RTVSPropertyOp33
 70
     1
102
RTVSPropertyOp34
 70
     1
102
RTVSPropertyOp35
 70
     1
102
RTVSPropertyOp36
 70
     1
102
RTVSPropertyOp37
 70
     1
102
RTVSPropertyOp38
 70
     1
102
RTVSPropertyOp39
 70
     1
102
RTVSPropertyOp40
 70
     1
102
RTVSPropertyOp41
 70
     1
102
RTVSPropertyOp42
 70
     1
102
RTVSPropertyOp43
 70
     1
102
RTVSPropertyOp44
 70
     1
102
RTVSPropertyOp45
 70
     1
102
RTVSPropertyOp46
 70
     1
102
RTVSPropertyOp47
 70
     1
102
RTVSPropertyOp48
 70
     1
102
RTVSPropertyOp49
 70
     1
102
RTVSPropertyOp50
 70
     1
102
RTVSPropertyOp51
 70
     0
102
RTVSPropertyOp52
 70
     0
102
RTVSPropertyOp53
 70
     1
102
RTVSPropertyOp54
 70
     1
102
RTVSPropertyOp55
 70
     1
102
RTVSPropertyOp56
 70
     1
102
RTVSPropertyOp57
 70
     1
102
RTVSPost2010Prop28
280
     0
102
RTVSPost2010PropOp28
 70
     1
102
RTVSPost2010Prop29
280
     1
102
RTVSPost2010PropOp29
 70
     1
102
RTVSPost2010Prop30
280
     1
102
RTVSPost2010PropOp30
 70
     1
102
RTVSPost2010Prop31
280
     0
102
RTVSPost2010PropOp31
 70
     1
102
RTVSPost2010Prop32
280
     0
102
RTVSPost2010PropOp32
 70
     1
102
RTVSPost2010Prop33
280
     0
102
RTVSPost2010PropOp33
 70
     1
102
RTVSPost2010Prop34
280
     0
102
RTVSPost2010PropOp34
 70
     1
102
RTVSPost2010Prop35
280
     0
102
RTVSPost2010PropOp35
 70
     1
102
RTVSPost2010Prop36
280
     0
102
RTVSPost2010PropOp36
 70
     1
102
RTVSPost2010Prop37
 90
       50
102
RTVSPost2010PropOp37
 70
     1
102
RTVSPost2010Prop38
140
0.0
102
RTVSPost2010PropOp38
 70
     1
102
RTVSPost2010Prop39
140
1.0
102
RTVSPost2010PropOp39
 70
     1
102
RTVSPost2010Prop40
 90
        0
102
RTVSPost2010PropOp40
 70
     1
102
RTVSPost2010Prop41ColorIndex
 90
       18
102
RTVSPost2010Prop41ColorRGB
 90
        0
102
RTVSPost2010PropOp41
 70
     1
102
RTVSPost2010Prop42
 90
       50
102
RTVSPost2010PropOp42
 70
     1
102
RTVSPost2010Prop43
 90
        3
102
RTVSPost2010PropOp43
 70
     1
102
RTVSPost2010Prop44ColorIndex
 90
        5
102
RTVSPost2010Prop44ColorRGB
 90
      255
102
RTVSPost2010PropOp44
 70
     1
102
RTVSPost2010Prop45
280
     0
102
RTVSPost2010PropOp45
 70
     1
102
RTVSPost2010Prop46
 90
       50
102
RTVSPost2010PropOp46
 70
     1
102
RTVSPost2010Prop47
 90
       50
102
RTVSPost2010PropOp47
 70
     1
102
RTVSPost2010Prop48
 90
       50
102
RTVSPost2010PropOp48
 70
     1
102
RTVSPost2010Prop49
280
     0
102
RTVSPost2010PropOp49
 70
     1
102
RTVSPost2010Prop50
 90
       50
102
RTVSPost2010PropOp50
 70
     1
102
RTVSPost2010Prop51ColorIndex
 90
      256
102
RTVSPost2010Prop51ColorRGB
 90
-16777216
102
RTVSPost2010PropOp51
 70
     0
102
RTVSPost2010Prop52
140
1.0
102
RTVSPost2010PropOp52
 70
     0
102
RTVSPost2010Prop53
 90
        2
102
RTVSPost2010PropOp53
 70
     1
102
RTVSPost2010Prop54
  1
strokes_ogs.tif
102
RTVSPost2010PropOp54
 70
     1
102
RTVSPost2010Prop55
280
     0
102
RTVSPost2010PropOp55
 70
     1
102
RTVSPost2010Prop56
140
1.0
102
RTVSPost2010PropOp56
 70
     1
102
RTVSPost2010Prop57
140
1.0
102
RTVSPost2010PropOp57
 70
     1
  0
XRECORD
  5
3C1
102
{ACAD_REACTORS
330
3C0
102
}
330
3C0
100
AcDbXrecord
280
     1
102
RTVSPropertyOp0
 70
     0
102
RTVSPropertyOp1
 70
     0
102
RTVSPropertyOp2
 70
     0
102
RTVSPropertyOp3
 70
     0
102
RTVSPropertyOp4
 70
     0
102
RTVSPropertyOp5
 70
     0
102
RTVSPropertyOp6
 70
     0
102
RTVSPropertyOp7
 70
     0
102
RTVSPropertyOp8
 70
     0
102
RTVSPropertyOp9
 70
     0
102
RTVSPropertyOp10
 70
     0
102
RTVSPropertyOp11
 70
     0
102
RTVSPropertyOp12
 70
     0
102
RTVSPropertyOp13
 70
     0
102
RTVSPropertyOp14
 70
     2
102
RTVSPropertyOp15
 70
     0
102
RTVSPropertyOp16
 70
     0
102
RTVSPropertyOp17
 70
     0
102
RTVSPropertyOp18
 70
     0
102
RTVSPropertyOp19
 70
     0
102
RTVSPropertyOp20
 70
     0
102
RTVSPropertyOp21
 70
     0
102
RTVSPropertyOp22
 70
     0
102
RTVSPropertyOp23
 70
     0
102
RTVSPropertyOp24
 70
     0
102
RTVSPropertyOp25
 70
     0
102
RTVSPropertyOp26
 70
     0
102
RTVSPropertyOp27
 70
     0
102
RTVSPropertyOp28
 70
     0
102
RTVSPropertyOp29
 70
     0
102
RTVSPropertyOp30
 70
     0
102
RTVSPropertyOp31
 70
     0
102
RTVSPropertyOp32
 70
     0
102
RTVSPropertyOp33
 70
     0
102
RTVSPropertyOp34
 70
     0
102
RTVSPropertyOp35
 70
     0
102
RTVSPropertyOp36
 70
     0
102
RTVSPropertyOp37
 70
     0
102
RTVSPropertyOp38
 70
     0
102
RTVSPropertyOp39
 70
     0
102
RTVSPropertyOp40
 70
     0
102
RTVSPropertyOp41
 70
     0
102
RTVSPropertyOp42
 70
     0
102
RTVSPropertyOp43
 70
     0
102
RTVSPropertyOp44
 70
     0
102
RTVSPropertyOp45
 70
     0
102
RTVSPropertyOp46
 70
     0
102
RTVSPropertyOp47
 70
     0
102
RTVSPropertyOp48
 70
     0
102
RTVSPropertyOp49
 70
     0
102
RTVSPropertyOp50
 70
     0
102
RTVSPropertyOp51
 70
     0
102
RTVSPropertyOp52
 70
     0
102
RTVSPropertyOp53
 70
     0
102
RTVSPropertyOp54
 70
     0
102
RTVSPropertyOp55
 70
     0
102
RTVSPropertyOp56
 70
     0
102
RTVSPropertyOp57
 70
     0
102
RTVSPost2010Prop28
280
     0
102
RTVSPost2010PropOp28
 70
     0
102
RTVSPost2010Prop29
280
     1
102
RTVSPost2010PropOp29
 70
     0
102
RTVSPost2010Prop30
280
     1
102
RTVSPost2010PropOp30
 70
     0
102
RTVSPost2010Prop31
280
     0
102
RTVSPost2010PropOp31
 70
     0
102
RTVSPost2010Prop32
280
     0
102
RTVSPost2010PropOp32
 70
     0
102
RTVSPost2010Prop33
280
     0
102
RTVSPost2010PropOp33
 70
     0
102
RTVSPost2010Prop34
280
     0
102
RTVSPost2010PropOp34
 70
     0
102
RTVSPost2010Prop35
280
     0
102
RTVSPost2010PropOp35
 70
     0
102
RTVSPost2010Prop36
280
     0
102
RTVSPost2010PropOp36
 70
     0
102
RTVSPost2010Prop37
 90
       50
102
RTVSPost2010PropOp37
 70
     0
102
RTVSPost2010Prop38
140
0.0
102
RTVSPost2010PropOp38
 70
     0
102
RTVSPost2010Prop39
140
1.0
102
RTVSPost2010PropOp39
 70
     0
102
RTVSPost2010Prop40
 90
        0
102
RTVSPost2010PropOp40
 70
     0
102
RTVSPost2010Prop41ColorIndex
 90
       18
102
RTVSPost2010Prop41ColorRGB
 90
        0
102
RTVSPost2010PropOp41
 70
     0
102
RTVSPost2010Prop42
 90
       50
102
RTVSPost2010PropOp42
 70
     0
102
RTVSPost2010Prop43
 90
        3
102
RTVSPost2010PropOp43
 70
     0
102
RTVSPost2010Prop44ColorIndex
 90
        5
102
RTVSPost2010Prop44ColorRGB
 90
      255
102
RTVSPost2010PropOp44
 70
     0
102
RTVSPost2010Prop45
280
     0
102
RTVSPost2010PropOp45
 70
     0
102
RTVSPost2010Prop46
 90
       50
102
RTVSPost2010PropOp46
 70
     0
102
RTVSPost2010Prop47
 90
       50
102
RTVSPost2010PropOp47
 70
     0
102
RTVSPost2010Prop48
 90
       50
102
RTVSPost2010PropOp48
 70
     0
102
RTVSPost2010Prop49
280
     0
102
RTVSPost2010PropOp49
 70
     0
102
RTVSPost2010Prop50
 90
       50
102
RTVSPost2010PropOp50
 70
     0
102
RTVSPost2010Prop51ColorIndex
 90
      256
102
RTVSPost2010Prop51ColorRGB
 90
-16777216
102
RTVSPost2010PropOp51
 70
     0
102
RTVSPost2010Prop52
140
1.0
102
RTVSPost2010PropOp52
 70
     0
102
RTVSPost2010Prop53
 90
        2
102
RTVSPost2010PropOp53
 70
     0
102
RTVSPost2010Prop54
  1
strokes_ogs.tif
102
RTVSPost2010PropOp54
 70
     0
102
RTVSPost2010Prop55
280
     0
102
RTVSPost2010PropOp55
 70
     0
102
RTVSPost2010Prop56
140
1.0
102
RTVSPost2010PropOp56
 70
     0
102
RTVSPost2010Prop57
140
1.0
102
RTVSPost2010PropOp57
 70
     0
  0
XRECORD
  5
3AF
102
{ACAD_REACTORS
330
3AE
102
}
330
3AE
100
AcDbXrecord
280
     1
102
RTVSPropertyOp0
 70
     1
102
RTVSPropertyOp1
 70
     1
102
RTVSPropertyOp2
 70
     1
102
RTVSPropertyOp3
 70
     1
102
RTVSPropertyOp4
 70
     1
102
RTVSPropertyOp5
 70
     1
102
RTVSPropertyOp6
 70
     1
102
RTVSPropertyOp7
 70
     1
102
RTVSPropertyOp8
 70
     1
102
RTVSPropertyOp9
 70
     1
102
RTVSPropertyOp10
 70
     1
102
RTVSPropertyOp11
 70
     1
102
RTVSPropertyOp12
 70
     1
102
RTVSPropertyOp13
 70
     1
102
RTVSPropertyOp14
 70
     1
102
RTVSPropertyOp15
 70
     1
102
RTVSPropertyOp16
 70
     1
102
RTVSPropertyOp17
 70
     1
102
RTVSPropertyOp18
 70
     1
102
RTVSPropertyOp19
 70
     1
102
RTVSPropertyOp20
 70
     1
102
RTVSPropertyOp21
 70
     1
102
RTVSPropertyOp22
 70
     1
102
RTVSPropertyOp23
 70
     1
102
RTVSPropertyOp24
 70
     1
102
RTVSPropertyOp25
 70
     1
102
RTVSPropertyOp26
 70
     1
102
RTVSPropertyOp27
 70
     1
102
RTVSPropertyOp28
 70
     1
102
RTVSPropertyOp29
 70
     1
102
RTVSPropertyOp30
 70
     1
102
RTVSPropertyOp31
 70
     1
102
RTVSPropertyOp32
 70
     1
102
RTVSPropertyOp33
 70
     1
102
RTVSPropertyOp34
 70
     1
102
RTVSPropertyOp35
 70
     1
102
RTVSPropertyOp36
 70
     1
102
RTVSPropertyOp37
 70
     1
102
RTVSPropertyOp38
 70
     1
102
RTVSPropertyOp39
 70
     1
102
RTVSPropertyOp40
 70
     1
102
RTVSPropertyOp41
 70
     1
102
RTVSPropertyOp42
 70
     1
102
RTVSPropertyOp43
 70
     1
102
RTVSPropertyOp44
 70
     1
102
RTVSPropertyOp45
 70
     1
102
RTVSPropertyOp46
 70
     1
102
RTVSPropertyOp47
 70
     1
102
RTVSPropertyOp48
 70
     1
102
RTVSPropertyOp49
 70
     1
102
RTVSPropertyOp50
 70
     1
102
RTVSPropertyOp51
 70
     0
102
RTVSPropertyOp52
 70
     0
102
RTVSPropertyOp53
 70
     1
102
RTVSPropertyOp54
 70
     1
102
RTVSPropertyOp55
 70
     1
102
RTVSPropertyOp56
 70
     1
102
RTVSPropertyOp57
 70
     1
102
RTVSPost2010Prop28
280
     0
102
RTVSPost2010PropOp28
 70
     1
102
RTVSPost2010Prop29
280
     1
102
RTVSPost2010PropOp29
 70
     1
102
RTVSPost2010Prop30
280
     1
102
RTVSPost2010PropOp30
 70
     1
102
RTVSPost2010Prop31
280
     0
102
RTVSPost2010PropOp31
 70
     1
102
RTVSPost2010Prop32
280
     0
102
RTVSPost2010PropOp32
 70
     1
102
RTVSPost2010Prop33
280
     0
102
RTVSPost2010PropOp33
 70
     1
102
RTVSPost2010Prop34
280
     0
102
RTVSPost2010PropOp34
 70
     1
102
RTVSPost2010Prop35
280
     0
102
RTVSPost2010PropOp35
 70
     1
102
RTVSPost2010Prop36
280
     0
102
RTVSPost2010PropOp36
 70
     1
102
RTVSPost2010Prop37
 90
       50
102
RTVSPost2010PropOp37
 70
     1
102
RTVSPost2010Prop38
140
0.0
102
RTVSPost2010PropOp38
 70
     1
102
RTVSPost2010Prop39
140
1.0
102
RTVSPost2010PropOp39
 70
     1
102
RTVSPost2010Prop40
 90
        0
102
RTVSPost2010PropOp40
 70
     1
102
RTVSPost2010Prop41ColorIndex
 90
       18
102
RTVSPost2010Prop41ColorRGB
 90
        0
102
RTVSPost2010PropOp41
 70
     1
102
RTVSPost2010Prop42
 90
       50
102
RTVSPost2010PropOp42
 70
     1
102
RTVSPost2010Prop43
 90
        3
102
RTVSPost2010PropOp43
 70
     1
102
RTVSPost2010Prop44ColorIndex
 90
        5
102
RTVSPost2010Prop44ColorRGB
 90
      255
102
RTVSPost2010PropOp44
 70
     1
102
RTVSPost2010Prop45
280
     0
102
RTVSPost2010PropOp45
 70
     1
102
RTVSPost2010Prop46
 90
       50
102
RTVSPost2010PropOp46
 70
     1
102
RTVSPost2010Prop47
 90
       50
102
RTVSPost2010PropOp47
 70
     1
102
RTVSPost2010Prop48
 90
       50
102
RTVSPost2010PropOp48
 70
     1
102
RTVSPost2010Prop49
280
     0
102
RTVSPost2010PropOp49
 70
     1
102
RTVSPost2010Prop50
 90
       50
102
RTVSPost2010PropOp50
 70
     1
102
RTVSPost2010Prop51ColorIndex
 90
      256
102
RTVSPost2010Prop51ColorRGB
 90
-16777216
102
RTVSPost2010PropOp51
 70
     0
102
RTVSPost2010Prop52
140
1.0
102
RTVSPost2010PropOp52
 70
     0
102
RTVSPost2010Prop53
 90
        2
102
RTVSPost2010PropOp53
 70
     1
102
RTVSPost2010Prop54
  1
strokes_ogs.tif
102
RTVSPost2010PropOp54
 70
     1
102
RTVSPost2010Prop55
280
     0
102
RTVSPost2010PropOp55
 70
     1
102
RTVSPost2010Prop56
140
1.0
102
RTVSPost2010PropOp56
 70
     1
102
RTVSPost2010Prop57
140
1.0
102
RTVSPost2010PropOp57
 70
     1
  0
XRECORD
  5
3CD
102
{ACAD_REACTORS
330
3CC
102
}
330
3CC
100
AcDbXrecord
280
     1
102
RTVSPropertyOp0
 70
     1
102
RTVSPropertyOp1
 70
     1
102
RTVSPropertyOp2
 70
     1
102
RTVSPropertyOp3
 70
     1
102
RTVSPropertyOp4
 70
     1
102
RTVSPropertyOp5
 70
     1
102
RTVSPropertyOp6
 70
     1
102
RTVSPropertyOp7
 70
     1
102
RTVSPropertyOp8
 70
     1
102
RTVSPropertyOp9
 70
     1
102
RTVSPropertyOp10
 70
     1
102
RTVSPropertyOp11
 70
     1
102
RTVSPropertyOp12
 70
     1
102
RTVSPropertyOp13
 70
     1
102
RTVSPropertyOp14
 70
     1
102
RTVSPropertyOp15
 70
     1
102
RTVSPropertyOp16
 70
     1
102
RTVSPropertyOp17
 70
     1
102
RTVSPropertyOp18
 70
     1
102
RTVSPropertyOp19
 70
     1
102
RTVSPropertyOp20
 70
     1
102
RTVSPropertyOp21
 70
     1
102
RTVSPropertyOp22
 70
     1
102
RTVSPropertyOp23
 70
     1
102
RTVSPropertyOp24
 70
     1
102
RTVSPropertyOp25
 70
     1
102
RTVSPropertyOp26
 70
     1
102
RTVSPropertyOp27
 70
     1
102
RTVSPropertyOp28
 70
     1
102
RTVSPropertyOp29
 70
     1
102
RTVSPropertyOp30
 70
     1
102
RTVSPropertyOp31
 70
     1
102
RTVSPropertyOp32
 70
     1
102
RTVSPropertyOp33
 70
     1
102
RTVSPropertyOp34
 70
     1
102
RTVSPropertyOp35
 70
     1
102
RTVSPropertyOp36
 70
     1
102
RTVSPropertyOp37
 70
     1
102
RTVSPropertyOp38
 70
     1
102
RTVSPropertyOp39
 70
     1
102
RTVSPropertyOp40
 70
     1
102
RTVSPropertyOp41
 70
     1
102
RTVSPropertyOp42
 70
     1
102
RTVSPropertyOp43
 70
     1
102
RTVSPropertyOp44
 70
     1
102
RTVSPropertyOp45
 70
     1
102
RTVSPropertyOp46
 70
     1
102
RTVSPropertyOp47
 70
     1
102
RTVSPropertyOp48
 70
     1
102
RTVSPropertyOp49
 70
     1
102
RTVSPropertyOp50
 70
     1
102
RTVSPropertyOp51
 70
     0
102
RTVSPropertyOp52
 70
     0
102
RTVSPropertyOp53
 70
     1
102
RTVSPropertyOp54
 70
     1
102
RTVSPropertyOp55
 70
     1
102
RTVSPropertyOp56
 70
     1
102
RTVSPropertyOp57
 70
     1
102
RTVSPost2010Prop28
280
     0
102
RTVSPost2010PropOp28
 70
     1
102
RTVSPost2010Prop29
280
     1
102
RTVSPost2010PropOp29
 70
     1
102
RTVSPost2010Prop30
280
     1
102
RTVSPost2010PropOp30
 70
     1
102
RTVSPost2010Prop31
280
     0
102
RTVSPost2010PropOp31
 70
     1
102
RTVSPost2010Prop32
280
     0
102
RTVSPost2010PropOp32
 70
     1
102
RTVSPost2010Prop33
280
     0
102
RTVSPost2010PropOp33
 70
     1
102
RTVSPost2010Prop34
280
     0
102
RTVSPost2010PropOp34
 70
     1
102
RTVSPost2010Prop35
280
     0
102
RTVSPost2010PropOp35
 70
     1
102
RTVSPost2010Prop36
280
     0
102
RTVSPost2010PropOp36
 70
     1
102
RTVSPost2010Prop37
 90
       50
102
RTVSPost2010PropOp37
 70
     1
102
RTVSPost2010Prop38
140
0.0
102
RTVSPost2010PropOp38
 70
     1
102
RTVSPost2010Prop39
140
1.0
102
RTVSPost2010PropOp39
 70
     1
102
RTVSPost2010Prop40
 90
        0
102
RTVSPost2010PropOp40
 70
     1
102
RTVSPost2010Prop41ColorIndex
 90
       18
102
RTVSPost2010Prop41ColorRGB
 90
        0
102
RTVSPost2010PropOp41
 70
     1
102
RTVSPost2010Prop42
 90
       50
102
RTVSPost2010PropOp42
 70
     1
102
RTVSPost2010Prop43
 90
        3
102
RTVSPost2010PropOp43
 70
     1
102
RTVSPost2010Prop44ColorIndex
 90
        5
102
RTVSPost2010Prop44ColorRGB
 90
      255
102
RTVSPost2010PropOp44
 70
     1
102
RTVSPost2010Prop45
280
     0
102
RTVSPost2010PropOp45
 70
     1
102
RTVSPost2010Prop46
 90
       50
102
RTVSPost2010PropOp46
 70
     1
102
RTVSPost2010Prop47
 90
       50
102
RTVSPost2010PropOp47
 70
     1
102
RTVSPost2010Prop48
 90
       50
102
RTVSPost2010PropOp48
 70
     1
102
RTVSPost2010Prop49
280
     0
102
RTVSPost2010PropOp49
 70
     1
102
RTVSPost2010Prop50
 90
       50
102
RTVSPost2010PropOp50
 70
     1
102
RTVSPost2010Prop51ColorIndex
 90
      256
102
RTVSPost2010Prop51ColorRGB
 90
-16777216
102
RTVSPost2010PropOp51
 70
     0
102
RTVSPost2010Prop52
140
1.0
102
RTVSPost2010PropOp52
 70
     0
102
RTVSPost2010Prop53
 90
        2
102
RTVSPost2010PropOp53
 70
     1
102
RTVSPost2010Prop54
  1
strokes_ogs.tif
102
RTVSPost2010PropOp54
 70
     1
102
RTVSPost2010Prop55
280
     0
102
RTVSPost2010PropOp55
 70
     1
102
RTVSPost2010Prop56
140
1.0
102
RTVSPost2010PropOp56
 70
     1
102
RTVSPost2010Prop57
140
1.0
102
RTVSPost2010PropOp57
 70
     1
  0
XRECORD
  5
3CB
102
{ACAD_REACTORS
330
3CA
102
}
330
3CA
100
AcDbXrecord
280
     1
102
RTVSPropertyOp0
 70
     1
102
RTVSPropertyOp1
 70
     1
102
RTVSPropertyOp2
 70
     1
102
RTVSPropertyOp3
 70
     1
102
RTVSPropertyOp4
 70
     1
102
RTVSPropertyOp5
 70
     1
102
RTVSPropertyOp6
 70
     1
102
RTVSPropertyOp7
 70
     1
102
RTVSPropertyOp8
 70
     1
102
RTVSPropertyOp9
 70
     1
102
RTVSPropertyOp10
 70
     1
102
RTVSPropertyOp11
 70
     1
102
RTVSPropertyOp12
 70
     1
102
RTVSPropertyOp13
 70
     1
102
RTVSPropertyOp14
 70
     1
102
RTVSPropertyOp15
 70
     1
102
RTVSPropertyOp16
 70
     1
102
RTVSPropertyOp17
 70
     1
102
RTVSPropertyOp18
 70
     1
102
RTVSPropertyOp19
 70
     1
102
RTVSPropertyOp20
 70
     1
102
RTVSPropertyOp21
 70
     1
102
RTVSPropertyOp22
 70
     1
102
RTVSPropertyOp23
 70
     1
102
RTVSPropertyOp24
 70
     1
102
RTVSPropertyOp25
 70
     1
102
RTVSPropertyOp26
 70
     1
102
RTVSPropertyOp27
 70
     1
102
RTVSPropertyOp28
 70
     1
102
RTVSPropertyOp29
 70
     1
102
RTVSPropertyOp30
 70
     1
102
RTVSPropertyOp31
 70
     1
102
RTVSPropertyOp32
 70
     1
102
RTVSPropertyOp33
 70
     1
102
RTVSPropertyOp34
 70
     1
102
RTVSPropertyOp35
 70
     1
102
RTVSPropertyOp36
 70
     1
102
RTVSPropertyOp37
 70
     1
102
RTVSPropertyOp38
 70
     1
102
RTVSPropertyOp39
 70
     1
102
RTVSPropertyOp40
 70
     1
102
RTVSPropertyOp41
 70
     1
102
RTVSPropertyOp42
 70
     1
102
RTVSPropertyOp43
 70
     1
102
RTVSPropertyOp44
 70
     1
102
RTVSPropertyOp45
 70
     1
102
RTVSPropertyOp46
 70
     1
102
RTVSPropertyOp47
 70
     1
102
RTVSPropertyOp48
 70
     1
102
RTVSPropertyOp49
 70
     1
102
RTVSPropertyOp50
 70
     1
102
RTVSPropertyOp51
 70
     0
102
RTVSPropertyOp52
 70
     0
102
RTVSPropertyOp53
 70
     1
102
RTVSPropertyOp54
 70
     1
102
RTVSPropertyOp55
 70
     1
102
RTVSPropertyOp56
 70
     1
102
RTVSPropertyOp57
 70
     1
102
RTVSPost2010Prop28
280
     0
102
RTVSPost2010PropOp28
 70
     1
102
RTVSPost2010Prop29
280
     1
102
RTVSPost2010PropOp29
 70
     1
102
RTVSPost2010Prop30
280
     1
102
RTVSPost2010PropOp30
 70
     1
102
RTVSPost2010Prop31
280
     0
102
RTVSPost2010PropOp31
 70
     1
102
RTVSPost2010Prop32
280
     0
102
RTVSPost2010PropOp32
 70
     1
102
RTVSPost2010Prop33
280
     0
102
RTVSPost2010PropOp33
 70
     1
102
RTVSPost2010Prop34
280
     0
102
RTVSPost2010PropOp34
 70
     1
102
RTVSPost2010Prop35
280
     0
102
RTVSPost2010PropOp35
 70
     1
102
RTVSPost2010Prop36
280
     0
102
RTVSPost2010PropOp36
 70
     1
102
RTVSPost2010Prop37
 90
       50
102
RTVSPost2010PropOp37
 70
     1
102
RTVSPost2010Prop38
140
0.0
102
RTVSPost2010PropOp38
 70
     1
102
RTVSPost2010Prop39
140
1.0
102
RTVSPost2010PropOp39
 70
     1
102
RTVSPost2010Prop40
 90
        0
102
RTVSPost2010PropOp40
 70
     1
102
RTVSPost2010Prop41ColorIndex
 90
       18
102
RTVSPost2010Prop41ColorRGB
 90
        0
102
RTVSPost2010PropOp41
 70
     1
102
RTVSPost2010Prop42
 90
       50
102
RTVSPost2010PropOp42
 70
     1
102
RTVSPost2010Prop43
 90
        3
102
RTVSPost2010PropOp43
 70
     1
102
RTVSPost2010Prop44ColorIndex
 90
        5
102
RTVSPost2010Prop44ColorRGB
 90
      255
102
RTVSPost2010PropOp44
 70
     1
102
RTVSPost2010Prop45
280
     0
102
RTVSPost2010PropOp45
 70
     1
102
RTVSPost2010Prop46
 90
       50
102
RTVSPost2010PropOp46
 70
     1
102
RTVSPost2010Prop47
 90
       50
102
RTVSPost2010PropOp47
 70
     1
102
RTVSPost2010Prop48
 90
       50
102
RTVSPost2010PropOp48
 70
     1
102
RTVSPost2010Prop49
280
     0
102
RTVSPost2010PropOp49
 70
     1
102
RTVSPost2010Prop50
 90
       50
102
RTVSPost2010PropOp50
 70
     1
102
RTVSPost2010Prop51ColorIndex
 90
      256
102
RTVSPost2010Prop51ColorRGB
 90
-16777216
102
RTVSPost2010PropOp51
 70
     0
102
RTVSPost2010Prop52
140
1.0
102
RTVSPost2010PropOp52
 70
     0
102
RTVSPost2010Prop53
 90
        2
102
RTVSPost2010PropOp53
 70
     1
102
RTVSPost2010Prop54
  1
strokes_ogs.tif
102
RTVSPost2010PropOp54
 70
     1
102
RTVSPost2010Prop55
280
     0
102
RTVSPost2010PropOp55
 70
     1
102
RTVSPost2010Prop56
140
1.0
102
RTVSPost2010PropOp56
 70
     1
102
RTVSPost2010Prop57
140
1.0
102
RTVSPost2010PropOp57
 70
     1
  0
XRECORD
  5
3C5
102
{ACAD_REACTORS
330
3C4
102
}
330
3C4
100
AcDbXrecord
280
     1
102
RTVSPropertyOp0
 70
     1
102
RTVSPropertyOp1
 70
     1
102
RTVSPropertyOp2
 70
     1
102
RTVSPropertyOp3
 70
     1
102
RTVSPropertyOp4
 70
     1
102
RTVSPropertyOp5
 70
     1
102
RTVSPropertyOp6
 70
     1
102
RTVSPropertyOp7
 70
     1
102
RTVSPropertyOp8
 70
     1
102
RTVSPropertyOp9
 70
     1
102
RTVSPropertyOp10
 70
     1
102
RTVSPropertyOp11
 70
     1
102
RTVSPropertyOp12
 70
     1
102
RTVSPropertyOp13
 70
     1
102
RTVSPropertyOp14
 70
     1
102
RTVSPropertyOp15
 70
     1
102
RTVSPropertyOp16
 70
     1
102
RTVSPropertyOp17
 70
     1
102
RTVSPropertyOp18
 70
     1
102
RTVSPropertyOp19
 70
     1
102
RTVSPropertyOp20
 70
     1
102
RTVSPropertyOp21
 70
     1
102
RTVSPropertyOp22
 70
     1
102
RTVSPropertyOp23
 70
     1
102
RTVSPropertyOp24
 70
     1
102
RTVSPropertyOp25
 70
     1
102
RTVSPropertyOp26
 70
     1
102
RTVSPropertyOp27
 70
     1
102
RTVSPropertyOp28
 70
     1
102
RTVSPropertyOp29
 70
     1
102
RTVSPropertyOp30
 70
     1
102
RTVSPropertyOp31
 70
     1
102
RTVSPropertyOp32
 70
     1
102
RTVSPropertyOp33
 70
     1
102
RTVSPropertyOp34
 70
     1
102
RTVSPropertyOp35
 70
     1
102
RTVSPropertyOp36
 70
     1
102
RTVSPropertyOp37
 70
     1
102
RTVSPropertyOp38
 70
     1
102
RTVSPropertyOp39
 70
     1
102
RTVSPropertyOp40
 70
     1
102
RTVSPropertyOp41
 70
     1
102
RTVSPropertyOp42
 70
     1
102
RTVSPropertyOp43
 70
     1
102
RTVSPropertyOp44
 70
     1
102
RTVSPropertyOp45
 70
     1
102
RTVSPropertyOp46
 70
     1
102
RTVSPropertyOp47
 70
     1
102
RTVSPropertyOp48
 70
     1
102
RTVSPropertyOp49
 70
     1
102
RTVSPropertyOp50
 70
     1
102
RTVSPropertyOp51
 70
     0
102
RTVSPropertyOp52
 70
     0
102
RTVSPropertyOp53
 70
     1
102
RTVSPropertyOp54
 70
     1
102
RTVSPropertyOp55
 70
     1
102
RTVSPropertyOp56
 70
     1
102
RTVSPropertyOp57
 70
     1
102
RTVSPost2010Prop28
280
     0
102
RTVSPost2010PropOp28
 70
     1
102
RTVSPost2010Prop29
280
     1
102
RTVSPost2010PropOp29
 70
     1
102
RTVSPost2010Prop30
280
     1
102
RTVSPost2010PropOp30
 70
     1
102
RTVSPost2010Prop31
280
     0
102
RTVSPost2010PropOp31
 70
     1
102
RTVSPost2010Prop32
280
     0
102
RTVSPost2010PropOp32
 70
     1
102
RTVSPost2010Prop33
280
     0
102
RTVSPost2010PropOp33
 70
     1
102
RTVSPost2010Prop34
280
     0
102
RTVSPost2010PropOp34
 70
     1
102
RTVSPost2010Prop35
280
     0
102
RTVSPost2010PropOp35
 70
     1
102
RTVSPost2010Prop36
280
     0
102
RTVSPost2010PropOp36
 70
     1
102
RTVSPost2010Prop37
 90
       50
102
RTVSPost2010PropOp37
 70
     1
102
RTVSPost2010Prop38
140
0.0
102
RTVSPost2010PropOp38
 70
     1
102
RTVSPost2010Prop39
140
1.0
102
RTVSPost2010PropOp39
 70
     1
102
RTVSPost2010Prop40
 90
        0
102
RTVSPost2010PropOp40
 70
     1
102
RTVSPost2010Prop41ColorIndex
 90
       18
102
RTVSPost2010Prop41ColorRGB
 90
        0
102
RTVSPost2010PropOp41
 70
     1
102
RTVSPost2010Prop42
 90
       50
102
RTVSPost2010PropOp42
 70
     1
102
RTVSPost2010Prop43
 90
        3
102
RTVSPost2010PropOp43
 70
     1
102
RTVSPost2010Prop44ColorIndex
 90
        5
102
RTVSPost2010Prop44ColorRGB
 90
      255
102
RTVSPost2010PropOp44
 70
     1
102
RTVSPost2010Prop45
280
     0
102
RTVSPost2010PropOp45
 70
     1
102
RTVSPost2010Prop46
 90
       50
102
RTVSPost2010PropOp46
 70
     1
102
RTVSPost2010Prop47
 90
       50
102
RTVSPost2010PropOp47
 70
     1
102
RTVSPost2010Prop48
 90
       50
102
RTVSPost2010PropOp48
 70
     1
102
RTVSPost2010Prop49
280
     0
102
RTVSPost2010PropOp49
 70
     1
102
RTVSPost2010Prop50
 90
       50
102
RTVSPost2010PropOp50
 70
     1
102
RTVSPost2010Prop51ColorIndex
 90
      256
102
RTVSPost2010Prop51ColorRGB
 90
-16777216
102
RTVSPost2010PropOp51
 70
     0
102
RTVSPost2010Prop52
140
1.0
102
RTVSPost2010PropOp52
 70
     0
102
RTVSPost2010Prop53
 90
        2
102
RTVSPost2010PropOp53
 70
     1
102
RTVSPost2010Prop54
  1
strokes_ogs.tif
102
RTVSPost2010PropOp54
 70
     1
102
RTVSPost2010Prop55
280
     0
102
RTVSPost2010PropOp55
 70
     1
102
RTVSPost2010Prop56
140
1.0
102
RTVSPost2010PropOp56
 70
     1
102
RTVSPost2010Prop57
140
1.0
102
RTVSPost2010PropOp57
 70
     1
  0
XRECORD
  5
3C7
102
{ACAD_REACTORS
330
3C6
102
}
330
3C6
100
AcDbXrecord
280
     1
102
RTVSPropertyOp0
 70
     1
102
RTVSPropertyOp1
 70
     1
102
RTVSPropertyOp2
 70
     1
102
RTVSPropertyOp3
 70
     1
102
RTVSPropertyOp4
 70
     1
102
RTVSPropertyOp5
 70
     1
102
RTVSPropertyOp6
 70
     1
102
RTVSPropertyOp7
 70
     1
102
RTVSPropertyOp8
 70
     1
102
RTVSPropertyOp9
 70
     1
102
RTVSPropertyOp10
 70
     1
102
RTVSPropertyOp11
 70
     1
102
RTVSPropertyOp12
 70
     1
102
RTVSPropertyOp13
 70
     1
102
RTVSPropertyOp14
 70
     1
102
RTVSPropertyOp15
 70
     1
102
RTVSPropertyOp16
 70
     1
102
RTVSPropertyOp17
 70
     1
102
RTVSPropertyOp18
 70
     1
102
RTVSPropertyOp19
 70
     1
102
RTVSPropertyOp20
 70
     1
102
RTVSPropertyOp21
 70
     1
102
RTVSPropertyOp22
 70
     1
102
RTVSPropertyOp23
 70
     1
102
RTVSPropertyOp24
 70
     1
102
RTVSPropertyOp25
 70
     1
102
RTVSPropertyOp26
 70
     1
102
RTVSPropertyOp27
 70
     1
102
RTVSPropertyOp28
 70
     1
102
RTVSPropertyOp29
 70
     1
102
RTVSPropertyOp30
 70
     1
102
RTVSPropertyOp31
 70
     1
102
RTVSPropertyOp32
 70
     1
102
RTVSPropertyOp33
 70
     1
102
RTVSPropertyOp34
 70
     1
102
RTVSPropertyOp35
 70
     1
102
RTVSPropertyOp36
 70
     1
102
RTVSPropertyOp37
 70
     1
102
RTVSPropertyOp38
 70
     1
102
RTVSPropertyOp39
 70
     1
102
RTVSPropertyOp40
 70
     1
102
RTVSPropertyOp41
 70
     1
102
RTVSPropertyOp42
 70
     1
102
RTVSPropertyOp43
 70
     1
102
RTVSPropertyOp44
 70
     1
102
RTVSPropertyOp45
 70
     1
102
RTVSPropertyOp46
 70
     1
102
RTVSPropertyOp47
 70
     1
102
RTVSPropertyOp48
 70
     1
102
RTVSPropertyOp49
 70
     1
102
RTVSPropertyOp50
 70
     1
102
RTVSPropertyOp51
 70
     0
102
RTVSPropertyOp52
 70
     0
102
RTVSPropertyOp53
 70
     1
102
RTVSPropertyOp54
 70
     1
102
RTVSPropertyOp55
 70
     1
102
RTVSPropertyOp56
 70
     1
102
RTVSPropertyOp57
 70
     1
102
RTVSPost2010Prop28
280
     0
102
RTVSPost2010PropOp28
 70
     1
102
RTVSPost2010Prop29
280
     1
102
RTVSPost2010PropOp29
 70
     1
102
RTVSPost2010Prop30
280
     1
102
RTVSPost2010PropOp30
 70
     1
102
RTVSPost2010Prop31
280
     0
102
RTVSPost2010PropOp31
 70
     1
102
RTVSPost2010Prop32
280
     0
102
RTVSPost2010PropOp32
 70
     1
102
RTVSPost2010Prop33
280
     0
102
RTVSPost2010PropOp33
 70
     1
102
RTVSPost2010Prop34
280
     0
102
RTVSPost2010PropOp34
 70
     1
102
RTVSPost2010Prop35
280
     0
102
RTVSPost2010PropOp35
 70
     1
102
RTVSPost2010Prop36
280
     0
102
RTVSPost2010PropOp36
 70
     1
102
RTVSPost2010Prop37
 90
       50
102
RTVSPost2010PropOp37
 70
     1
102
RTVSPost2010Prop38
140
0.0
102
RTVSPost2010PropOp38
 70
     1
102
RTVSPost2010Prop39
140
1.0
102
RTVSPost2010PropOp39
 70
     1
102
RTVSPost2010Prop40
 90
        0
102
RTVSPost2010PropOp40
 70
     1
102
RTVSPost2010Prop41ColorIndex
 90
       18
102
RTVSPost2010Prop41ColorRGB
 90
        0
102
RTVSPost2010PropOp41
 70
     1
102
RTVSPost2010Prop42
 90
       50
102
RTVSPost2010PropOp42
 70
     1
102
RTVSPost2010Prop43
 90
        3
102
RTVSPost2010PropOp43
 70
     1
102
RTVSPost2010Prop44ColorIndex
 90
        5
102
RTVSPost2010Prop44ColorRGB
 90
      255
102
RTVSPost2010PropOp44
 70
     1
102
RTVSPost2010Prop45
280
     0
102
RTVSPost2010PropOp45
 70
     1
102
RTVSPost2010Prop46
 90
       50
102
RTVSPost2010PropOp46
 70
     1
102
RTVSPost2010Prop47
 90
       50
102
RTVSPost2010PropOp47
 70
     1
102
RTVSPost2010Prop48
 90
       50
102
RTVSPost2010PropOp48
 70
     1
102
RTVSPost2010Prop49
280
     0
102
RTVSPost2010PropOp49
 70
     1
102
RTVSPost2010Prop50
 90
       50
102
RTVSPost2010PropOp50
 70
     1
102
RTVSPost2010Prop51ColorIndex
 90
      256
102
RTVSPost2010Prop51ColorRGB
 90
-16777216
102
RTVSPost2010PropOp51
 70
     0
102
RTVSPost2010Prop52
140
1.0
102
RTVSPost2010PropOp52
 70
     0
102
RTVSPost2010Prop53
 90
        2
102
RTVSPost2010PropOp53
 70
     1
102
RTVSPost2010Prop54
  1
strokes_ogs.tif
102
RTVSPost2010PropOp54
 70
     1
102
RTVSPost2010Prop55
280
     0
102
RTVSPost2010PropOp55
 70
     1
102
RTVSPost2010Prop56
140
1.0
102
RTVSPost2010PropOp56
 70
     1
102
RTVSPost2010Prop57
140
1.0
102
RTVSPost2010PropOp57
 70
     1
  0
XRECORD
  5
3B7
102
{ACAD_REACTORS
330
3B6
102
}
330
3B6
100
AcDbXrecord
280
     1
102
RTVSPropertyOp0
 70
     1
102
RTVSPropertyOp1
 70
     1
102
RTVSPropertyOp2
 70
     1
102
RTVSPropertyOp3
 70
     1
102
RTVSPropertyOp4
 70
     1
102
RTVSPropertyOp5
 70
     1
102
RTVSPropertyOp6
 70
     1
102
RTVSPropertyOp7
 70
     1
102
RTVSPropertyOp8
 70
     1
102
RTVSPropertyOp9
 70
     1
102
RTVSPropertyOp10
 70
     1
102
RTVSPropertyOp11
 70
     1
102
RTVSPropertyOp12
 70
     1
102
RTVSPropertyOp13
 70
     1
102
RTVSPropertyOp14
 70
     1
102
RTVSPropertyOp15
 70
     1
102
RTVSPropertyOp16
 70
     1
102
RTVSPropertyOp17
 70
     1
102
RTVSPropertyOp18
 70
     1
102
RTVSPropertyOp19
 70
     1
102
RTVSPropertyOp20
 70
     1
102
RTVSPropertyOp21
 70
     1
102
RTVSPropertyOp22
 70
     1
102
RTVSPropertyOp23
 70
     1
102
RTVSPropertyOp24
 70
     1
102
RTVSPropertyOp25
 70
     1
102
RTVSPropertyOp26
 70
     1
102
RTVSPropertyOp27
 70
     1
102
RTVSPropertyOp28
 70
     1
102
RTVSPropertyOp29
 70
     1
102
RTVSPropertyOp30
 70
     1
102
RTVSPropertyOp31
 70
     1
102
RTVSPropertyOp32
 70
     1
102
RTVSPropertyOp33
 70
     1
102
RTVSPropertyOp34
 70
     1
102
RTVSPropertyOp35
 70
     1
102
RTVSPropertyOp36
 70
     1
102
RTVSPropertyOp37
 70
     1
102
RTVSPropertyOp38
 70
     1
102
RTVSPropertyOp39
 70
     1
102
RTVSPropertyOp40
 70
     1
102
RTVSPropertyOp41
 70
     1
102
RTVSPropertyOp42
 70
     1
102
RTVSPropertyOp43
 70
     1
102
RTVSPropertyOp44
 70
     1
102
RTVSPropertyOp45
 70
     1
102
RTVSPropertyOp46
 70
     1
102
RTVSPropertyOp47
 70
     1
102
RTVSPropertyOp48
 70
     1
102
RTVSPropertyOp49
 70
     1
102
RTVSPropertyOp50
 70
     1
102
RTVSPropertyOp51
 70
     0
102
RTVSPropertyOp52
 70
     0
102
RTVSPropertyOp53
 70
     1
102
RTVSPropertyOp54
 70
     1
102
RTVSPropertyOp55
 70
     1
102
RTVSPropertyOp56
 70
     1
102
RTVSPropertyOp57
 70
     1
102
RTVSPost2010Prop28
280
     0
102
RTVSPost2010PropOp28
 70
     1
102
RTVSPost2010Prop29
280
     1
102
RTVSPost2010PropOp29
 70
     1
102
RTVSPost2010Prop30
280
     1
102
RTVSPost2010PropOp30
 70
     1
102
RTVSPost2010Prop31
280
     0
102
RTVSPost2010PropOp31
 70
     1
102
RTVSPost2010Prop32
280
     0
102
RTVSPost2010PropOp32
 70
     1
102
RTVSPost2010Prop33
280
     0
102
RTVSPost2010PropOp33
 70
     1
102
RTVSPost2010Prop34
280
     0
102
RTVSPost2010PropOp34
 70
     1
102
RTVSPost2010Prop35
280
     0
102
RTVSPost2010PropOp35
 70
     1
102
RTVSPost2010Prop36
280
     0
102
RTVSPost2010PropOp36
 70
     1
102
RTVSPost2010Prop37
 90
       50
102
RTVSPost2010PropOp37
 70
     1
102
RTVSPost2010Prop38
140
0.0
102
RTVSPost2010PropOp38
 70
     1
102
RTVSPost2010Prop39
140
1.0
102
RTVSPost2010PropOp39
 70
     1
102
RTVSPost2010Prop40
 90
        0
102
RTVSPost2010PropOp40
 70
     1
102
RTVSPost2010Prop41ColorIndex
 90
       18
102
RTVSPost2010Prop41ColorRGB
 90
        0
102
RTVSPost2010PropOp41
 70
     1
102
RTVSPost2010Prop42
 90
       50
102
RTVSPost2010PropOp42
 70
     1
102
RTVSPost2010Prop43
 90
        3
102
RTVSPost2010PropOp43
 70
     1
102
RTVSPost2010Prop44ColorIndex
 90
        5
102
RTVSPost2010Prop44ColorRGB
 90
      255
102
RTVSPost2010PropOp44
 70
     1
102
RTVSPost2010Prop45
280
     0
102
RTVSPost2010PropOp45
 70
     1
102
RTVSPost2010Prop46
 90
       50
102
RTVSPost2010PropOp46
 70
     1
102
RTVSPost2010Prop47
 90
       50
102
RTVSPost2010PropOp47
 70
     1
102
RTVSPost2010Prop48
 90
       50
102
RTVSPost2010PropOp48
 70
     1
102
RTVSPost2010Prop49
280
     0
102
RTVSPost2010PropOp49
 70
     1
102
RTVSPost2010Prop50
 90
       50
102
RTVSPost2010PropOp50
 70
     1
102
RTVSPost2010Prop51ColorIndex
 90
      256
102
RTVSPost2010Prop51ColorRGB
 90
-16777216
102
RTVSPost2010PropOp51
 70
     0
102
RTVSPost2010Prop52
140
1.0
102
RTVSPost2010PropOp52
 70
     0
102
RTVSPost2010Prop53
 90
        2
102
RTVSPost2010PropOp53
 70
     1
102
RTVSPost2010Prop54
  1
strokes_ogs.tif
102
RTVSPost2010PropOp54
 70
     1
102
RTVSPost2010Prop55
280
     0
102
RTVSPost2010PropOp55
 70
     1
102
RTVSPost2010Prop56
140
1.0
102
RTVSPost2010PropOp56
 70
     1
102
RTVSPost2010Prop57
140
1.0
102
RTVSPost2010PropOp57
 70
     1
  0
XRECORD
  5
3A9
102
{ACAD_REACTORS
330
3A8
102
}
330
3A8
100
AcDbXrecord
280
     1
102
RTVSPropertyOp0
 70
     1
102
RTVSPropertyOp1
 70
     1
102
RTVSPropertyOp2
 70
     1
102
RTVSPropertyOp3
 70
     1
102
RTVSPropertyOp4
 70
     1
102
RTVSPropertyOp5
 70
     1
102
RTVSPropertyOp6
 70
     1
102
RTVSPropertyOp7
 70
     1
102
RTVSPropertyOp8
 70
     1
102
RTVSPropertyOp9
 70
     1
102
RTVSPropertyOp10
 70
     1
102
RTVSPropertyOp11
 70
     1
102
RTVSPropertyOp12
 70
     1
102
RTVSPropertyOp13
 70
     1
102
RTVSPropertyOp14
 70
     1
102
RTVSPropertyOp15
 70
     1
102
RTVSPropertyOp16
 70
     1
102
RTVSPropertyOp17
 70
     1
102
RTVSPropertyOp18
 70
     1
102
RTVSPropertyOp19
 70
     1
102
RTVSPropertyOp20
 70
     1
102
RTVSPropertyOp21
 70
     1
102
RTVSPropertyOp22
 70
     1
102
RTVSPropertyOp23
 70
     1
102
RTVSPropertyOp24
 70
     1
102
RTVSPropertyOp25
 70
     1
102
RTVSPropertyOp26
 70
     1
102
RTVSPropertyOp27
 70
     1
102
RTVSPropertyOp28
 70
     1
102
RTVSPropertyOp29
 70
     1
102
RTVSPropertyOp30
 70
     1
102
RTVSPropertyOp31
 70
     1
102
RTVSPropertyOp32
 70
     1
102
RTVSPropertyOp33
 70
     1
102
RTVSPropertyOp34
 70
     1
102
RTVSPropertyOp35
 70
     1
102
RTVSPropertyOp36
 70
     1
102
RTVSPropertyOp37
 70
     1
102
RTVSPropertyOp38
 70
     1
102
RTVSPropertyOp39
 70
     1
102
RTVSPropertyOp40
 70
     1
102
RTVSPropertyOp41
 70
     1
102
RTVSPropertyOp42
 70
     1
102
RTVSPropertyOp43
 70
     1
102
RTVSPropertyOp44
 70
     1
102
RTVSPropertyOp45
 70
     1
102
RTVSPropertyOp46
 70
     1
102
RTVSPropertyOp47
 70
     1
102
RTVSPropertyOp48
 70
     1
102
RTVSPropertyOp49
 70
     1
102
RTVSPropertyOp50
 70
     1
102
RTVSPropertyOp51
 70
     0
102
RTVSPropertyOp52
 70
     0
102
RTVSPropertyOp53
 70
     1
102
RTVSPropertyOp54
 70
     1
102
RTVSPropertyOp55
 70
     1
102
RTVSPropertyOp56
 70
     1
102
RTVSPropertyOp57
 70
     1
102
RTVSPost2010Prop28
280
     0
102
RTVSPost2010PropOp28
 70
     1
102
RTVSPost2010Prop29
280
     1
102
RTVSPost2010PropOp29
 70
     1
102
RTVSPost2010Prop30
280
     1
102
RTVSPost2010PropOp30
 70
     1
102
RTVSPost2010Prop31
280
     0
102
RTVSPost2010PropOp31
 70
     1
102
RTVSPost2010Prop32
280
     0
102
RTVSPost2010PropOp32
 70
     1
102
RTVSPost2010Prop33
280
     0
102
RTVSPost2010PropOp33
 70
     1
102
RTVSPost2010Prop34
280
     0
102
RTVSPost2010PropOp34
 70
     1
102
RTVSPost2010Prop35
280
     0
102
RTVSPost2010PropOp35
 70
     1
102
RTVSPost2010Prop36
280
     0
102
RTVSPost2010PropOp36
 70
     1
102
RTVSPost2010Prop37
 90
       50
102
RTVSPost2010PropOp37
 70
     1
102
RTVSPost2010Prop38
140
0.0
102
RTVSPost2010PropOp38
 70
     1
102
RTVSPost2010Prop39
140
1.0
102
RTVSPost2010PropOp39
 70
     1
102
RTVSPost2010Prop40
 90
        0
102
RTVSPost2010PropOp40
 70
     1
102
RTVSPost2010Prop41ColorIndex
 90
       18
102
RTVSPost2010Prop41ColorRGB
 90
        0
102
RTVSPost2010PropOp41
 70
     1
102
RTVSPost2010Prop42
 90
       50
102
RTVSPost2010PropOp42
 70
     1
102
RTVSPost2010Prop43
 90
        3
102
RTVSPost2010PropOp43
 70
     1
102
RTVSPost2010Prop44ColorIndex
 90
        5
102
RTVSPost2010Prop44ColorRGB
 90
      255
102
RTVSPost2010PropOp44
 70
     1
102
RTVSPost2010Prop45
280
     0
102
RTVSPost2010PropOp45
 70
     1
102
RTVSPost2010Prop46
 90
       50
102
RTVSPost2010PropOp46
 70
     1
102
RTVSPost2010Prop47
 90
       50
102
RTVSPost2010PropOp47
 70
     1
102
RTVSPost2010Prop48
 90
       50
102
RTVSPost2010PropOp48
 70
     1
102
RTVSPost2010Prop49
280
     0
102
RTVSPost2010PropOp49
 70
     1
102
RTVSPost2010Prop50
 90
       50
102
RTVSPost2010PropOp50
 70
     1
102
RTVSPost2010Prop51ColorIndex
 90
      256
102
RTVSPost2010Prop51ColorRGB
 90
-16777216
102
RTVSPost2010PropOp51
 70
     0
102
RTVSPost2010Prop52
140
1.0
102
RTVSPost2010PropOp52
 70
     0
102
RTVSPost2010Prop53
 90
        2
102
RTVSPost2010PropOp53
 70
     1
102
RTVSPost2010Prop54
  1
strokes_ogs.tif
102
RTVSPost2010PropOp54
 70
     1
102
RTVSPost2010Prop55
280
     0
102
RTVSPost2010PropOp55
 70
     1
102
RTVSPost2010Prop56
140
1.0
102
RTVSPost2010PropOp56
 70
     1
102
RTVSPost2010Prop57
140
1.0
102
RTVSPost2010PropOp57
 70
     1
  0
XRECORD
  5
3C9
102
{ACAD_REACTORS
330
3C8
102
}
330
3C8
100
AcDbXrecord
280
     1
102
RTVSPropertyOp0
 70
     1
102
RTVSPropertyOp1
 70
     1
102
RTVSPropertyOp2
 70
     1
102
RTVSPropertyOp3
 70
     1
102
RTVSPropertyOp4
 70
     1
102
RTVSPropertyOp5
 70
     1
102
RTVSPropertyOp6
 70
     1
102
RTVSPropertyOp7
 70
     1
102
RTVSPropertyOp8
 70
     1
102
RTVSPropertyOp9
 70
     1
102
RTVSPropertyOp10
 70
     1
102
RTVSPropertyOp11
 70
     1
102
RTVSPropertyOp12
 70
     1
102
RTVSPropertyOp13
 70
     1
102
RTVSPropertyOp14
 70
     1
102
RTVSPropertyOp15
 70
     1
102
RTVSPropertyOp16
 70
     1
102
RTVSPropertyOp17
 70
     1
102
RTVSPropertyOp18
 70
     1
102
RTVSPropertyOp19
 70
     1
102
RTVSPropertyOp20
 70
     1
102
RTVSPropertyOp21
 70
     1
102
RTVSPropertyOp22
 70
     1
102
RTVSPropertyOp23
 70
     1
102
RTVSPropertyOp24
 70
     1
102
RTVSPropertyOp25
 70
     1
102
RTVSPropertyOp26
 70
     1
102
RTVSPropertyOp27
 70
     1
102
RTVSPropertyOp28
 70
     1
102
RTVSPropertyOp29
 70
     1
102
RTVSPropertyOp30
 70
     1
102
RTVSPropertyOp31
 70
     1
102
RTVSPropertyOp32
 70
     1
102
RTVSPropertyOp33
 70
     1
102
RTVSPropertyOp34
 70
     1
102
RTVSPropertyOp35
 70
     1
102
RTVSPropertyOp36
 70
     1
102
RTVSPropertyOp37
 70
     1
102
RTVSPropertyOp38
 70
     1
102
RTVSPropertyOp39
 70
     1
102
RTVSPropertyOp40
 70
     1
102
RTVSPropertyOp41
 70
     1
102
RTVSPropertyOp42
 70
     1
102
RTVSPropertyOp43
 70
     1
102
RTVSPropertyOp44
 70
     1
102
RTVSPropertyOp45
 70
     1
102
RTVSPropertyOp46
 70
     1
102
RTVSPropertyOp47
 70
     1
102
RTVSPropertyOp48
 70
     1
102
RTVSPropertyOp49
 70
     1
102
RTVSPropertyOp50
 70
     1
102
RTVSPropertyOp51
 70
     0
102
RTVSPropertyOp52
 70
     0
102
RTVSPropertyOp53
 70
     1
102
RTVSPropertyOp54
 70
     1
102
RTVSPropertyOp55
 70
     1
102
RTVSPropertyOp56
 70
     1
102
RTVSPropertyOp57
 70
     1
102
RTVSPost2010Prop28
280
     0
102
RTVSPost2010PropOp28
 70
     1
102
RTVSPost2010Prop29
280
     1
102
RTVSPost2010PropOp29
 70
     1
102
RTVSPost2010Prop30
280
     1
102
RTVSPost2010PropOp30
 70
     1
102
RTVSPost2010Prop31
280
     0
102
RTVSPost2010PropOp31
 70
     1
102
RTVSPost2010Prop32
280
     0
102
RTVSPost2010PropOp32
 70
     1
102
RTVSPost2010Prop33
280
     0
102
RTVSPost2010PropOp33
 70
     1
102
RTVSPost2010Prop34
280
     0
102
RTVSPost2010PropOp34
 70
     1
102
RTVSPost2010Prop35
280
     0
102
RTVSPost2010PropOp35
 70
     1
102
RTVSPost2010Prop36
280
     0
102
RTVSPost2010PropOp36
 70
     1
102
RTVSPost2010Prop37
 90
       50
102
RTVSPost2010PropOp37
 70
     1
102
RTVSPost2010Prop38
140
0.0
102
RTVSPost2010PropOp38
 70
     1
102
RTVSPost2010Prop39
140
1.0
102
RTVSPost2010PropOp39
 70
     1
102
RTVSPost2010Prop40
 90
        0
102
RTVSPost2010PropOp40
 70
     1
102
RTVSPost2010Prop41ColorIndex
 90
       18
102
RTVSPost2010Prop41ColorRGB
 90
        0
102
RTVSPost2010PropOp41
 70
     1
102
RTVSPost2010Prop42
 90
       50
102
RTVSPost2010PropOp42
 70
     1
102
RTVSPost2010Prop43
 90
        3
102
RTVSPost2010PropOp43
 70
     1
102
RTVSPost2010Prop44ColorIndex
 90
        5
102
RTVSPost2010Prop44ColorRGB
 90
      255
102
RTVSPost2010PropOp44
 70
     1
102
RTVSPost2010Prop45
280
     0
102
RTVSPost2010PropOp45
 70
     1
102
RTVSPost2010Prop46
 90
       50
102
RTVSPost2010PropOp46
 70
     1
102
RTVSPost2010Prop47
 90
       50
102
RTVSPost2010PropOp47
 70
     1
102
RTVSPost2010Prop48
 90
       50
102
RTVSPost2010PropOp48
 70
     1
102
RTVSPost2010Prop49
280
     0
102
RTVSPost2010PropOp49
 70
     1
102
RTVSPost2010Prop50
 90
       50
102
RTVSPost2010PropOp50
 70
     1
102
RTVSPost2010Prop51ColorIndex
 90
      256
102
RTVSPost2010Prop51ColorRGB
 90
-16777216
102
RTVSPost2010PropOp51
 70
     0
102
RTVSPost2010Prop52
140
1.0
102
RTVSPost2010PropOp52
 70
     0
102
RTVSPost2010Prop53
 90
        2
102
RTVSPost2010PropOp53
 70
     1
102
RTVSPost2010Prop54
  1
strokes_ogs.tif
102
RTVSPost2010PropOp54
 70
     1
102
RTVSPost2010Prop55
280
     0
102
RTVSPost2010PropOp55
 70
     1
102
RTVSPost2010Prop56
140
1.0
102
RTVSPost2010PropOp56
 70
     1
102
RTVSPost2010Prop57
140
1.0
102
RTVSPost2010PropOp57
 70
     1
  0
ENDSEC
  0
EOF
