  0
SECTION
  2
HEADER
  9
$ACADVER
  1
AC1015
  9
$ACADMAINTVER
 70
     6
  9
$DWGCODEPAGE
  3
ANSI_1252
  9
$INSBASE
 10
0.0
 20
0.0
 30
0.0
  9
$EXTMIN
 10
1.000000000000000E+20
 20
1.000000000000000E+20
 30
1.000000000000000E+20
  9
$EXTMAX
 10
-1.000000000000000E+20
 20
-1.000000000000000E+20
 30
-1.000000000000000E+20
  9
$LIMMIN
 10
0.0
 20
0.0
  9
$LIMMAX
 10
420.0
 20
297.0
  9
$ORTHOMODE
 70
     0
  9
$REGENMODE
 70
     1
  9
$FILLMODE
 70
     1
  9
$QTEXTMODE
 70
     0
  9
$MIRRTEXT
 70
     1
  9
$LTSCALE
 40
1.0
  9
$ATTMODE
 70
     1
  9
$TEXTSIZE
 40
2.5
  9
$TRACEWID
 40
1.0
  9
$TEXTSTYLE
  7
Standard
  9
$CLAYER
  8
Flansch KST 1101
  9
$CELTYPE
  6
ByLayer
  9
$CECOLOR
 62
   256
  9
$CELTSCALE
 40
1.0
  9
$DISPSILH
 70
     0
  9
$DIMSCALE
 40
1.0
  9
$DIMASZ
 40
2.5
  9
$DIMEXO
 40
0.625
  9
$DIMDLI
 40
3.75
  9
$DIMRND
 40
0.0
  9
$DIMDLE
 40
0.0
  9
$DIMEXE
 40
1.25
  9
$DIMTP
 40
0.0
  9
$DIMTM
 40
0.0
  9
$DIMTXT
 40
2.5
  9
$DIMCEN
 40
2.5
  9
$DIMTSZ
 40
0.0
  9
$DIMTOL
 70
     0
  9
$DIMLIM
 70
     0
  9
$DIMTIH
 70
     0
  9
$DIMTOH
 70
     0
  9
$DIMSE1
 70
     0
  9
$DIMSE2
 70
     0
  9
$DIMTAD
 70
     1
  9
$DIMZIN
 70
     8
  9
$DIMBLK
  1

  9
$DIMASO
 70
     1
  9
$DIMSHO
 70
     1
  9
$DIMPOST
  1

  9
$DIMAPOST
  1

  9
$DIMALT
 70
     0
  9
$DIMALTD
 70
     3
  9
$DIMALTF
 40
0.03937007874016
  9
$DIMLFAC
 40
1.0
  9
$DIMTOFL
 70
     1
  9
$DIMTVP
 40
0.0
  9
$DIMTIX
 70
     0
  9
$DIMSOXD
 70
     0
  9
$DIMSAH
 70
     0
  9
$DIMBLK1
  1

  9
$DIMBLK2
  1

  9
$DIMSTYLE
  2
ISO-25
  9
$DIMCLRD
 70
     0
  9
$DIMCLRE
 70
     0
  9
$DIMCLRT
 70
     0
  9
$DIMTFAC
 40
1.0
  9
$DIMGAP
 40
0.625
  9
$DIMJUST
 70
     0
  9
$DIMSD1
 70
     0
  9
$DIMSD2
 70
     0
  9
$DIMTOLJ
 70
     0
  9
$DIMTZIN
 70
     8
  9
$DIMALTZ
 70
     0
  9
$DIMALTTZ
 70
     0
  9
$DIMUPT
 70
     0
  9
$DIMDEC
 70
     2
  9
$DIMTDEC
 70
     2
  9
$DIMALTU
 70
     2
  9
$DIMALTTD
 70
     3
  9
$DIMTXSTY
  7
Standard
  9
$DIMAUNIT
 70
     0
  9
$DIMADEC
 70
     0
  9
$DIMALTRND
 40
0.0
  9
$DIMAZIN
 70
     0
  9
$DIMDSEP
 70
    46
  9
$DIMATFIT
 70
     3
  9
$DIMFRAC
 70
     0
  9
$DIMLDRBLK
  1

  9
$DIMLUNIT
 70
     2
  9
$DIMLWD
 70
    -2
  9
$DIMLWE
 70
    -2
  9
$DIMTMOVE
 70
     0
  9
$LUNITS
 70
     2
  9
$LUPREC
 70
     4
  9
$SKETCHINC
 40
1.0
  9
$FILLETRAD
 40
10.0
  9
$AUNITS
 70
     0
  9
$AUPREC
 70
     0
  9
$MENU
  1
.
  9
$ELEVATION
 40
0.0
  9
$PELEVATION
 40
0.0
  9
$THICKNESS
 40
0.0
  9
$LIMCHECK
 70
     0
  9
$CHAMFERA
 40
0.0
  9
$CHAMFERB
 40
0.0
  9
$CHAMFERC
 40
0.0
  9
$CHAMFERD
 40
0.0
  9
$SKPOLY
 70
     0
  9
$TDCREATE
 40
2459296.577207975
  9
$TDUCREATE
 40
2459296.535541308
  9
$TDUPDATE
 40
2459296.57720934
  9
$TDUUPDATE
 40
2459296.535542673
  9
$TDINDWG
 40
0.0000000116
  9
$TDUSRTIMER
 40
0.0000000116
  9
$USRTIMER
 70
     1
  9
$ANGBASE
 50
0.0
  9
$ANGDIR
 70
     0
  9
$PDMODE
 70
     0
  9
$PDSIZE
 40
0.0
  9
$PLINEWID
 40
0.0
  9
$SPLFRAME
 70
     0
  9
$SPLINETYPE
 70
     6
  9
$SPLINESEGS
 70
     8
  9
$HANDSEED
  5
3CA
  9
$SURFTAB1
 70
     6
  9
$SURFTAB2
 70
     6
  9
$SURFTYPE
 70
     6
  9
$SURFU
 70
     6
  9
$SURFV
 70
     6
  9
$UCSBASE
  2

  9
$UCSNAME
  2

  9
$UCSORG
 10
0.0
 20
0.0
 30
0.0
  9
$UCSXDIR
 10
1.0
 20
0.0
 30
0.0
  9
$UCSYDIR
 10
0.0
 20
1.0
 30
0.0
  9
$UCSORTHOREF
  2

  9
$UCSORTHOVIEW
 70
     0
  9
$UCSORGTOP
 10
0.0
 20
0.0
 30
0.0
  9
$UCSORGBOTTOM
 10
0.0
 20
0.0
 30
0.0
  9
$UCSORGLEFT
 10
0.0
 20
0.0
 30
0.0
  9
$UCSORGRIGHT
 10
0.0
 20
0.0
 30
0.0
  9
$UCSORGFRONT
 10
0.0
 20
0.0
 30
0.0
  9
$UCSORGBACK
 10
0.0
 20
0.0
 30
0.0
  9
$PUCSBASE
  2

  9
$PUCSNAME
  2

  9
$PUCSORG
 10
0.0
 20
0.0
 30
0.0
  9
$PUCSXDIR
 10
1.0
 20
0.0
 30
0.0
  9
$PUCSYDIR
 10
0.0
 20
1.0
 30
0.0
  9
$PUCSORTHOREF
  2

  9
$PUCSORTHOVIEW
 70
     0
  9
$PUCSORGTOP
 10
0.0
 20
0.0
 30
0.0
  9
$PUCSORGBOTTOM
 10
0.0
 20
0.0
 30
0.0
  9
$PUCSORGLEFT
 10
0.0
 20
0.0
 30
0.0
  9
$PUCSORGRIGHT
 10
0.0
 20
0.0
 30
0.0
  9
$PUCSORGFRONT
 10
0.0
 20
0.0
 30
0.0
  9
$PUCSORGBACK
 10
0.0
 20
0.0
 30
0.0
  9
$USERI1
 70
     0
  9
$USERI2
 70
     0
  9
$USERI3
 70
     0
  9
$USERI4
 70
     0
  9
$USERI5
 70
     0
  9
$USERR1
 40
0.0
  9
$USERR2
 40
0.0
  9
$USERR3
 40
0.0
  9
$USERR4
 40
0.0
  9
$USERR5
 40
0.0
  9
$WORLDVIEW
 70
     1
  9
$SHADEDGE
 70
     3
  9
$SHADEDIF
 70
    70
  9
$TILEMODE
 70
     0
  9
$MAXACTVP
 70
    64
  9
$PINSBASE
 10
0.0
 20
0.0
 30
0.0
  9
$PLIMCHECK
 70
     0
  9
$PEXTMIN
 10
0.0
 20
0.0
 30
0.0
  9
$PEXTMAX
 10
419.9999999999999
 20
297.0000000000001
 30
0.0
  9
$PLIMMIN
 10
-20.0
 20
-7.5
  9
$PLIMMAX
 10
277.0
 20
202.5
  9
$UNITMODE
 70
     0
  9
$VISRETAIN
 70
     1
  9
$PLINEGEN
 70
     1
  9
$PSLTSCALE
 70
     1
  9
$TREEDEPTH
 70
  3020
  9
$CMLSTYLE
  2
Standard
  9
$CMLJUST
 70
     0
  9
$CMLSCALE
 40
20.0
  9
$PROXYGRAPHICS
 70
     1
  9
$MEASUREMENT
 70
     1
  9
$CELWEIGHT
370
    -1
  9
$ENDCAPS
280
     0
  9
$JOINSTYLE
280
     0
  9
$LWDISPLAY
290
     0
  9
$INSUNITS
 70
     4
  9
$HYPERLINKBASE
  1

  9
$STYLESHEET
  1

  9
$XEDIT
290
     1
  9
$CEPSNTYPE
380
     0
  9
$PSTYLEMODE
290
     0
  9
$FINGERPRINTGUID
  2
{46920b05-6865-4b02-8107-44f7da413815}
  9
$VERSIONGUID
  2
{FAEB1C32-E019-11D5-929B-00C0DF256EC4}
  9
$EXTNAMES
290
     1
  9
$PSVPSCALE
 40
0.0
  9
$OLESTARTUP
290
     0
  0
ENDSEC
  0
SECTION
  2
CLASSES
  0
CLASS
  1
ACDBDICTIONARYWDFLT
  2
AcDbDictionaryWithDefault
  3
ObjectDBX Classes
 90
        0
280
     0
281
     0
  0
CLASS
  1
VISUALSTYLE
  2
AcDbVisualStyle
  3
ObjectDBX Classes
 90
     4095
280
     0
281
     0
  0
CLASS
  1
MATERIAL
  2
AcDbMaterial
  3
ObjectDBX Classes
 90
     1153
280
     0
281
     0
  0
CLASS
  1
SCALE
  2
AcDbScale
  3
ObjectDBX Classes
 90
     1153
280
     0
281
     0
  0
CLASS
  1
TABLESTYLE
  2
AcDbTableStyle
  3
ObjectDBX Classes
 90
     4095
280
     0
281
     0
  0
CLASS
  1
MLEADERSTYLE
  2
AcDbMLeaderStyle
  3
ACDB_MLEADERSTYLE_CLASS
 90
     4095
280
     0
281
     0
  0
CLASS
  1
SUN
  2
AcDbSun
  3
SCENEOE
 90
     1153
280
     0
281
     0
  0
CLASS
  1
DICTIONARYVAR
  2
AcDbDictionaryVar
  3
ObjectDBX Classes
 90
        0
280
     0
281
     0
  0
CLASS
  1
ACDBPLACEHOLDER
  2
AcDbPlaceHolder
  3
ObjectDBX Classes
 90
        0
280
     0
281
     0
  0
CLASS
  1
LAYOUT
  2
AcDbLayout
  3
ObjectDBX Classes
 90
        0
280
     0
281
     0
  0
ENDSEC
  0
SECTION
  2
TABLES
  0
TABLE
  2
VPORT
  5
8
102
{ACAD_XDICTIONARY
360
38B
102
}
330
0
100
AcDbSymbolTable
 70
     1
  0
VPORT
  5
29
330
8
100
AcDbSymbolTableRecord
100
AcDbViewportTableRecord
  2
*Active
 70
     0
 10
0.0
 20
0.0
 11
1.0
 21
1.0
 12
344.1869158878504
 22
148.5
 13
0.0
 23
0.0
 14
10.0
 24
10.0
 15
10.0
 25
10.0
 16
0.0
 26
0.0
 36
1.0
 17
0.0
 27
0.0
 37
0.0
 40
297.0
 41
1.972972972850329
 42
50.0
 43
0.0
 44
0.0
 50
0.0
 51
0.0
 71
     0
 72
   100
 73
     1
 74
     3
 75
     0
 76
     0
 77
     0
 78
     0
281
     0
 65
     1
110
0.0
120
0.0
130
0.0
111
1.0
121
0.0
131
0.0
112
0.0
122
1.0
132
0.0
 79
     0
146
0.0
  0
ENDTAB
  0
TABLE
  2
LTYPE
  5
5
330
0
100
AcDbSymbolTable
 70
     6
  0
LTYPE
  5
14
330
5
100
AcDbSymbolTableRecord
100
AcDbLinetypeTableRecord
  2
ByBlock
 70
     0
  3

 72
    65
 73
     0
 40
0.0
  0
LTYPE
  5
15
330
5
100
AcDbSymbolTableRecord
100
AcDbLinetypeTableRecord
  2
ByLayer
 70
     0
  3

 72
    65
 73
     0
 40
0.0
  0
LTYPE
  5
16
330
5
100
AcDbSymbolTableRecord
100
AcDbLinetypeTableRecord
  2
Continuous
 70
     0
  3
Solid line
 72
    65
 73
     0
 40
0.0
  0
LTYPE
  5
74
330
5
100
AcDbSymbolTableRecord
100
AcDbLinetypeTableRecord
  2
HIDDEN
 70
     0
  3
____  ____   ____  ____
 72
    65
 73
     2
 40
10.0
 49
6.667
 74
     0
 49
-3.333
 74
     0
  0
LTYPE
  5
75
330
5
100
AcDbSymbolTableRecord
100
AcDbLinetypeTableRecord
  2
HIDDEN2
 70
     0
  3
__ __ __ __
 72
    65
 73
     4
 40
10.0
 49
3.333
 74
     0
 49
-1.666
 74
     0
 49
3.333
 74
     0
 49
-1.666
 74
     0
  0
LTYPE
  5
76
330
5
100
AcDbSymbolTableRecord
100
AcDbLinetypeTableRecord
  2
CENTER
 70
     0
  3
_____ _ _____ _ _____ _
 72
    65
 73
     4
 40
10.0
 49
6.25
 74
     0
 49
-1.25
 74
     0
 49
1.25
 74
     0
 49
-1.25
 74
     0
  0
LTYPE
  5
77
330
5
100
AcDbSymbolTableRecord
100
AcDbLinetypeTableRecord
  2
PHANTOM
 70
     0
  3
____ _ _ _____ _ _
 72
    65
 73
     6
 40
10.0
 49
5.0
 74
     0
 49
-1.0
 74
     0
 49
1.0
 74
     0
 49
-1.0
 74
     0
 49
1.0
 74
     0
 49
-1.0
 74
     0
  0
LTYPE
  5
78
330
5
100
AcDbSymbolTableRecord
100
AcDbLinetypeTableRecord
  2
DIVIDE
 70
     0
  3
_ . _ . _ .
 72
    65
 73
     4
 40
10.0
 49
5.0
 74
     0
 49
-2.5
 74
     0
 49
0.0
 74
     0
 49
-2.5
 74
     0
  0
ENDTAB
  0
TABLE
  2
LAYER
  5
2
330
0
100
AcDbSymbolTable
 70
     4
  0
LAYER
  5
10
330
2
100
AcDbSymbolTableRecord
100
AcDbLayerTableRecord
  2
0
 70
     0
 62
     7
  6
Continuous
370
    -3
390
F
  0
LAYER
  5
6E
330
2
100
AcDbSymbolTableRecord
100
AcDbLayerTableRecord
  2
LAYER0
 70
     0
 62
    -7
  6
Continuous
370
    -3
390
F
  0
LAYER
  5
6F
330
2
100
AcDbSymbolTableRecord
100
AcDbLayerTableRecord
  2
LAYER1
 70
     0
 62
    -7
  6
Continuous
370
    -3
390
F
  0
LAYER
  5
70
330
2
100
AcDbSymbolTableRecord
100
AcDbLayerTableRecord
  2
Flansch KST 1101
 70
     0
 62
     7
  6
Continuous
370
    -3
390
F
  0
ENDTAB
  0
TABLE
  2
STYLE
  5
3
330
0
100
AcDbSymbolTable
 70
     4
  0
STYLE
  5
11
330
3
100
AcDbSymbolTableRecord
100
AcDbTextStyleTableRecord
  2
Standard
 70
     0
 40
0.0
 41
1.0
 50
0.0
 71
     0
 42
2.5
  3
txt
  4

  0
STYLE
  5
71
330
3
100
AcDbSymbolTableRecord
100
AcDbTextStyleTableRecord
  2
VERO0-courier new
 70
     0
 40
0.0
 41
1.0
 50
0.0
 71
     0
 42
2.5
  3

  4

1001
ACAD
1000
courier new
1071
      274
  0
STYLE
  5
72
330
3
100
AcDbSymbolTableRecord
100
AcDbTextStyleTableRecord
  2
VERO1-osifont
 70
     0
 40
0.0
 41
1.0
 50
0.0
 71
     0
 42
2.5
  3
osifont-2014-11-14.ttf
  4

1001
ACAD
1000
osifont
1071
      274
  0
STYLE
  5
73
330
3
100
AcDbSymbolTableRecord
100
AcDbTextStyleTableRecord
  2
VERO2-TXT
 70
     0
 40
0.0
 41
1.0
 50
0.0
 71
     0
 42
2.5
  3

  4

1001
ACAD
1000
TXT
1071
      274
  0
ENDTAB
  0
TABLE
  2
VIEW
  5
6
330
0
100
AcDbSymbolTable
 70
     0
  0
ENDTAB
  0
TABLE
  2
UCS
  5
7
330
0
100
AcDbSymbolTable
 70
     0
  0
ENDTAB
  0
TABLE
  2
APPID
  5
9
330
0
100
AcDbSymbolTable
 70
     2
  0
APPID
  5
12
330
9
100
AcDbSymbolTableRecord
100
AcDbRegAppTableRecord
  2
ACAD
 70
     0
  0
APPID
  5
3C5
330
9
100
AcDbSymbolTableRecord
100
AcDbRegAppTableRecord
  2
ACAD_MLEADERVER
 70
     0
  0
ENDTAB
  0
TABLE
  2
DIMSTYLE
  5
A
330
0
100
AcDbSymbolTable
 70
     2
100
AcDbDimStyleTable
  0
DIMSTYLE
105
27
330
A
100
AcDbSymbolTableRecord
100
AcDbDimStyleTableRecord
  2
ISO-25
 70
     0
 41
2.5
 42
0.625
 43
3.75
 44
1.25
 73
     0
 74
     0
 77
     1
 78
     8
140
2.5
141
2.5
143
0.03937007874016
147
0.625
171
     3
172
     1
178
     0
271
     2
272
     2
274
     3
278
    44
283
     0
284
     8
340
11
  0
DIMSTYLE
105
D2
102
{ACAD_REACTORS
330
F1
330
FB
330
105
330
10F
330
11B
102
}
330
A
100
AcDbSymbolTableRecord
100
AcDbDimStyleTableRecord
  2
Vero Software
 70
     0
 41
2.83564090980885
 42
3.0
 43
3.75
 44
1.25
 73
     0
 74
     0
 77
     1
 78
     8
 79
     2
140
4.0
141
0.0
143
0.0393700787401575
146
0.8
147
1.5
171
     3
172
     1
173
     1
271
     2
178
     7
179
     3
271
     2
272
     3
274
     3
275
     1
284
     8
285
     8
286
     8
340
71
343
7F
344
7F
  0
ENDTAB
  0
TABLE
  2
BLOCK_RECORD
  5
1
330
0
100
AcDbSymbolTable
 70
    29
  0
BLOCK_RECORD
  5
1F
330
1
100
AcDbSymbolTableRecord
100
AcDbBlockTableRecord
  2
*Model_Space
340
22
  0
BLOCK_RECORD
  5
1B
330
1
100
AcDbSymbolTableRecord
100
AcDbBlockTableRecord
  2
*Paper_Space
340
1E
  0
BLOCK_RECORD
  5
23
330
1
100
AcDbSymbolTableRecord
100
AcDbBlockTableRecord
  2
*Paper_Space0
340
26
  0
BLOCK_RECORD
  5
79
330
1
100
AcDbSymbolTableRecord
100
AcDbBlockTableRecord
  2
ArrowheadOpen
340
0
  0
BLOCK_RECORD
  5
7F
330
1
100
AcDbSymbolTableRecord
100
AcDbBlockTableRecord
  2
ArrowheadClosed
340
0
102
{BLKREFS
331
F6
331
F7
331
100
331
101
331
10A
331
10B
331
115
331
117
331
120
331
121
102
}
  0
BLOCK_RECORD
  5
83
330
1
100
AcDbSymbolTableRecord
100
AcDbBlockTableRecord
  2
ArrowheadOpen2
340
0
  0
BLOCK_RECORD
  5
8B
330
1
100
AcDbSymbolTableRecord
100
AcDbBlockTableRecord
  2
ArrowheadClosed2
340
0
  0
BLOCK_RECORD
  5
90
330
1
100
AcDbSymbolTableRecord
100
AcDbBlockTableRecord
  2
ArrowheadBox
340
0
  0
BLOCK_RECORD
  5
94
330
1
100
AcDbSymbolTableRecord
100
AcDbBlockTableRecord
  2
ArrowheadCircle
340
0
  0
BLOCK_RECORD
  5
9A
330
1
100
AcDbSymbolTableRecord
100
AcDbBlockTableRecord
  2
ArrowheadArchitect
340
0
  0
BLOCK_RECORD
  5
9F
330
1
100
AcDbSymbolTableRecord
100
AcDbBlockTableRecord
  2
ArrowheadArchitect2
340
0
  0
BLOCK_RECORD
  5
A5
330
1
100
AcDbSymbolTableRecord
100
AcDbBlockTableRecord
  2
ArrowheadSection
340
0
  0
BLOCK_RECORD
  5
AD
330
1
100
AcDbSymbolTableRecord
100
AcDbBlockTableRecord
  2
ArrowheadTriangle
340
0
  0
BLOCK_RECORD
  5
B1
330
1
100
AcDbSymbolTableRecord
100
AcDbBlockTableRecord
  2
ArrowheadSectionOpen
340
0
  0
BLOCK_RECORD
  5
BC
330
1
100
AcDbSymbolTableRecord
100
AcDbBlockTableRecord
  2
ArrowheadSectionClosed
340
0
102
{BLKREFS
331
311
331
313
102
}
  0
BLOCK_RECORD
  5
C8
330
1
100
AcDbSymbolTableRecord
100
AcDbBlockTableRecord
  2
ArrowheadSectionFilled
340
0
  0
BLOCK_RECORD
  5
D3
330
1
100
AcDbSymbolTableRecord
100
AcDbBlockTableRecord
  2
BalloonBlockOneText
340
0
  0
BLOCK_RECORD
  5
D8
330
1
100
AcDbSymbolTableRecord
100
AcDbBlockTableRecord
  2
BalloonBlockTwoText
340
0
  0
BLOCK_RECORD
  5
DF
330
1
100
AcDbSymbolTableRecord
100
AcDbBlockTableRecord
  2
BalloonBlockThreeText
340
0
  0
BLOCK_RECORD
  5
E8
330
1
100
AcDbSymbolTableRecord
100
AcDbBlockTableRecord
  2
BalloonBlockRect
340
0
  0
BLOCK_RECORD
  5
F2
330
1
100
AcDbSymbolTableRecord
100
AcDbBlockTableRecord
  2
*D18
340
0
  0
BLOCK_RECORD
  5
FC
330
1
100
AcDbSymbolTableRecord
100
AcDbBlockTableRecord
  2
*D19
340
0
  0
BLOCK_RECORD
  5
106
330
1
100
AcDbSymbolTableRecord
100
AcDbBlockTableRecord
  2
*D20
340
0
  0
BLOCK_RECORD
  5
110
330
1
100
AcDbSymbolTableRecord
100
AcDbBlockTableRecord
  2
*D21
340
0
  0
BLOCK_RECORD
  5
11C
330
1
100
AcDbSymbolTableRecord
100
AcDbBlockTableRecord
  2
*D22
340
0
  0
BLOCK_RECORD
  5
125
330
1
100
AcDbSymbolTableRecord
100
AcDbBlockTableRecord
  2
Entity set 0
340
0
102
{BLKREFS
331
2A4
102
}
  0
BLOCK_RECORD
  5
2A5
330
1
100
AcDbSymbolTableRecord
100
AcDbBlockTableRecord
  2
Hatch 0
340
0
102
{BLKREFS
331
2AB
102
}
  0
BLOCK_RECORD
  5
2AC
330
1
100
AcDbSymbolTableRecord
100
AcDbBlockTableRecord
  2
Section 0
340
0
102
{BLKREFS
331
2DE
102
}
  0
BLOCK_RECORD
  5
2DF
330
1
100
AcDbSymbolTableRecord
100
AcDbBlockTableRecord
  2
View  0
340
0
102
{BLKREFS
331
316
102
}
  0
BLOCK_RECORD
  5
317
330
1
100
AcDbSymbolTableRecord
100
AcDbBlockTableRecord
  2
View  1
340
0
102
{BLKREFS
331
330
102
}
  0
BLOCK_RECORD
  5
331
330
1
100
AcDbSymbolTableRecord
100
AcDbBlockTableRecord
  2
View  2
340
0
102
{BLKREFS
331
37A
102
}
  0
ENDTAB
  0
ENDSEC
  0
SECTION
  2
BLOCKS
  0
BLOCK
  5
20
330
1F
100
AcDbEntity
  8
0
100
AcDbBlockBegin
  2
*Model_Space
 70
     0
 10
0.0
 20
0.0
 30
0.0
  3
*Model_Space
  1

  0
ENDBLK
  5
21
330
1F
100
AcDbEntity
  8
0
100
AcDbBlockEnd
  0
BLOCK
  5
1C
330
1B
100
AcDbEntity
 67
     1
  8
0
100
AcDbBlockBegin
  2
*Paper_Space
 70
     0
 10
0.0
 20
0.0
 30
0.0
  3
*Paper_Space
  1

  0
ENDBLK
  5
1D
330
1B
100
AcDbEntity
 67
     1
  8
0
100
AcDbBlockEnd
  0
BLOCK
  5
24
330
23
100
AcDbEntity
  8
0
100
AcDbBlockBegin
  2
*Paper_Space0
 70
     0
 10
0.0
 20
0.0
 30
0.0
  3
*Paper_Space0
  1

  0
ENDBLK
  5
25
330
23
100
AcDbEntity
  8
0
100
AcDbBlockEnd
  0
BLOCK
  5
7A
330
79
100
AcDbEntity
  8
0
100
AcDbBlockBegin
  2
ArrowheadOpen
 70
     0
 10
0.0
 20
0.0
 30
0.0
  3
ArrowheadOpen
  1

  0
LINE
  5
7C
330
79
100
AcDbEntity
  8
0
 62
     0
100
AcDbLine
 10
0.0
 20
0.0
 30
0.0
 11
-1.0
 21
0.176326980708465
 31
0.0
  0
LINE
  5
7D
330
79
100
AcDbEntity
  8
0
 62
     0
100
AcDbLine
 10
0.0
 20
0.0
 30
0.0
 11
-1.0
 21
-0.176326980708465
 31
0.0
  0
LINE
  5
7E
330
79
100
AcDbEntity
  8
0
 62
     0
100
AcDbLine
 10
0.0
 20
0.0
 30
0.0
 11
-1.0
 21
0.0
 31
0.0
  0
ENDBLK
  5
7B
330
79
100
AcDbEntity
  8
0
100
AcDbBlockEnd
  0
BLOCK
  5
80
330
7F
100
AcDbEntity
  8
0
100
AcDbBlockBegin
  2
ArrowheadClosed
 70
     0
 10
0.0
 20
0.0
 30
0.0
  3
ArrowheadClosed
  1

  0
SOLID
  5
82
330
7F
100
AcDbEntity
  8
0
 62
     0
100
AcDbTrace
 10
0.0
 20
0.0
 30
0.0
 11
-1.0
 21
0.176326980708465
 31
0.0
 12
-1.0
 22
-0.176326980708465
 32
0.0
 13
-1.0
 23
-0.176326980708465
 33
0.0
  0
ENDBLK
  5
81
330
7F
100
AcDbEntity
  8
0
100
AcDbBlockEnd
  0
BLOCK
  5
84
330
83
100
AcDbEntity
  8
0
100
AcDbBlockBegin
  2
ArrowheadOpen2
 70
     0
 10
0.0
 20
0.0
 30
0.0
  3
ArrowheadOpen2
  1

  0
LINE
  5
86
330
83
100
AcDbEntity
  8
0
 62
     0
100
AcDbLine
 10
0.0
 20
0.0
 30
0.0
 11
-0.5
 21
0.0881634903542325
 31
0.0
  0
LINE
  5
87
330
83
100
AcDbEntity
  8
0
 62
     0
100
AcDbLine
 10
0.0
 20
0.0
 30
0.0
 11
-0.5
 21
-0.0881634903542325
 31
0.0
  0
LINE
  5
88
330
83
100
AcDbEntity
  8
0
 62
     0
100
AcDbLine
 10
-0.5
 20
0.0
 30
0.0
 11
-1.0
 21
0.0881634903542325
 31
0.0
  0
LINE
  5
89
330
83
100
AcDbEntity
  8
0
 62
     0
100
AcDbLine
 10
-0.5
 20
0.0
 30
0.0
 11
-1.0
 21
-0.0881634903542325
 31
0.0
  0
LINE
  5
8A
330
83
100
AcDbEntity
  8
0
 62
     0
100
AcDbLine
 10
0.0
 20
0.0
 30
0.0
 11
-1.0
 21
0.0
 31
0.0
  0
ENDBLK
  5
85
330
83
100
AcDbEntity
  8
0
100
AcDbBlockEnd
  0
BLOCK
  5
8C
330
8B
100
AcDbEntity
  8
0
100
AcDbBlockBegin
  2
ArrowheadClosed2
 70
     0
 10
0.0
 20
0.0
 30
0.0
  3
ArrowheadClosed2
  1

  0
SOLID
  5
8E
330
8B
100
AcDbEntity
  8
0
 62
     0
100
AcDbTrace
 10
0.0
 20
0.0
 30
0.0
 11
-0.5
 21
0.0881634903542325
 31
0.0
 12
-0.5
 22
-0.0881634903542325
 32
0.0
 13
-0.5
 23
-0.0881634903542325
 33
0.0
  0
SOLID
  5
8F
330
8B
100
AcDbEntity
  8
0
 62
     0
100
AcDbTrace
 10
-0.5
 20
0.0
 30
0.0
 11
-1.0
 21
0.0881634903542325
 31
0.0
 12
-1.0
 22
-0.0881634903542325
 32
0.0
 13
-1.0
 23
-0.0881634903542325
 33
0.0
  0
ENDBLK
  5
8D
330
8B
100
AcDbEntity
  8
0
100
AcDbBlockEnd
  0
BLOCK
  5
91
330
90
100
AcDbEntity
  8
0
100
AcDbBlockBegin
  2
ArrowheadBox
 70
     0
 10
0.0
 20
0.0
 30
0.0
  3
ArrowheadBox
  1

  0
SOLID
  5
93
330
90
100
AcDbEntity
  8
0
 62
     0
100
AcDbTrace
 10
-0.5
 20
-0.5
 30
0.0
 11
0.5
 21
-0.5
 31
0.0
 12
-0.5
 22
0.5
 32
0.0
 13
0.5
 23
0.5
 33
0.0
  0
ENDBLK
  5
92
330
90
100
AcDbEntity
  8
0
100
AcDbBlockEnd
  0
BLOCK
  5
95
330
94
100
AcDbEntity
  8
0
100
AcDbBlockBegin
  2
ArrowheadCircle
 70
     0
 10
0.0
 20
0.0
 30
0.0
  3
ArrowheadCircle
  1

  0
LINE
  5
97
330
94
100
AcDbEntity
  8
0
 62
     0
100
AcDbLine
 10
-0.5
 20
0.0
 30
0.0
 11
-1.0
 21
0.0
 31
0.0
  0
CIRCLE
  5
98
330
94
100
AcDbEntity
  8
0
 62
     0
100
AcDbCircle
 10
0.0
 20
0.0
 30
0.0
 40
0.5
  0
HATCH
  5
99
330
94
100
AcDbEntity
  8
0
 62
     0
100
AcDbHatch
 10
0.0
 20
0.0
 30
0.0
210
0.0
220
0.0
230
1.0
  2
SOLID
 70
     1
 71
     0
 91
        1
 92
       17
 93
        1
 72
     2
 10
0.0
 20
0.0
 40
0.5
 50
0.0
 51
360.0
 73
     1
 97
        0
 75
     0
 76
     1
 98
        0
  0
ENDBLK
  5
96
330
94
100
AcDbEntity
  8
0
100
AcDbBlockEnd
  0
BLOCK
  5
9B
330
9A
100
AcDbEntity
  8
0
100
AcDbBlockBegin
  2
ArrowheadArchitect
 70
     0
 10
0.0
 20
0.0
 30
0.0
  3
ArrowheadArchitect
  1

  0
LINE
  5
9D
330
9A
100
AcDbEntity
  8
0
 62
     0
100
AcDbLine
 10
-0.5
 20
0.5
 30
0.0
 11
0.5
 21
-0.5
 31
0.0
  0
LINE
  5
9E
330
9A
100
AcDbEntity
  8
0
 62
     0
100
AcDbLine
 10
0.0
 20
0.0
 30
0.0
 11
-1.0
 21
0.0
 31
0.0
  0
ENDBLK
  5
9C
330
9A
100
AcDbEntity
  8
0
100
AcDbBlockEnd
  0
BLOCK
  5
A0
330
9F
100
AcDbEntity
  8
0
100
AcDbBlockBegin
  2
ArrowheadArchitect2
 70
     0
 10
0.0
 20
0.0
 30
0.0
  3
ArrowheadArchitect2
  1

  0
LINE
  5
A2
330
9F
100
AcDbEntity
  8
0
 62
     0
100
AcDbLine
 10
-0.5
 20
0.5
 30
0.0
 11
0.5
 21
-0.5
 31
0.0
  0
LINE
  5
A3
330
9F
100
AcDbEntity
  8
0
 62
     0
100
AcDbLine
 10
0.5
 20
0.5
 30
0.0
 11
-0.5
 21
-0.5
 31
0.0
  0
LINE
  5
A4
330
9F
100
AcDbEntity
  8
0
 62
     0
100
AcDbLine
 10
0.0
 20
0.0
 30
0.0
 11
-1.0
 21
0.0
 31
0.0
  0
ENDBLK
  5
A1
330
9F
100
AcDbEntity
  8
0
100
AcDbBlockEnd
  0
BLOCK
  5
A6
330
A5
100
AcDbEntity
  8
0
100
AcDbBlockBegin
  2
ArrowheadSection
 70
     0
 10
0.0
 20
0.0
 30
0.0
  3
ArrowheadSection
  1

  0
LINE
  5
A8
330
A5
100
AcDbEntity
  8
0
 62
     0
100
AcDbLine
 10
0.0
 20
0.0
 30
0.0
 11
-1.0
 21
0.0
 31
0.0
  0
LINE
  5
A9
330
A5
100
AcDbEntity
  8
0
 62
     0
100
AcDbLine
 10
0.0
 20
0.5
 30
0.0
 11
-1.0
 21
0.5
 31
0.0
  0
LINE
  5
AA
330
A5
100
AcDbEntity
  8
0
 62
     0
100
AcDbLine
 10
0.0
 20
1.0
 30
0.0
 11
-1.0
 21
1.0
 31
0.0
  0
LINE
  5
AB
330
A5
100
AcDbEntity
  8
0
 62
     0
100
AcDbLine
 10
0.0
 20
-0.5
 30
0.0
 11
-1.0
 21
-0.5
 31
0.0
  0
LINE
  5
AC
330
A5
100
AcDbEntity
  8
0
 62
     0
100
AcDbLine
 10
0.0
 20
-1.0
 30
0.0
 11
-1.0
 21
-1.0
 31
0.0
  0
ENDBLK
  5
A7
330
A5
100
AcDbEntity
  8
0
100
AcDbBlockEnd
  0
BLOCK
  5
AE
330
AD
100
AcDbEntity
  8
0
100
AcDbBlockBegin
  2
ArrowheadTriangle
 70
     0
 10
0.0
 20
0.0
 30
0.0
  3
ArrowheadTriangle
  1

  0
SOLID
  5
B0
330
AD
100
AcDbEntity
  8
0
 62
     0
100
AcDbTrace
 10
0.0
 20
0.5
 30
0.0
 11
0.0
 21
-0.5
 31
0.0
 12
-1.0
 22
0.0
 32
0.0
 13
-1.0
 23
0.0
 33
0.0
  0
ENDBLK
  5
AF
330
AD
100
AcDbEntity
  8
0
100
AcDbBlockEnd
  0
BLOCK
  5
B2
330
B1
100
AcDbEntity
  8
0
100
AcDbBlockBegin
  2
ArrowheadSectionOpen
 70
     0
 10
0.0
 20
0.0
 30
0.0
  3
ArrowheadSectionOpen
  1

  0
LINE
  5
B4
330
B1
100
AcDbEntity
  8
0
 62
     0
100
AcDbLine
 10
0.0
 20
0.0
 30
0.0
 11
-1.0
 21
0.0
 31
0.0
  0
LINE
  5
B5
330
B1
100
AcDbEntity
  8
0
 62
     0
100
AcDbLine
 10
0.0
 20
0.0098039215686275
 30
0.0
 11
-1.0
 21
0.0098039215686275
 31
0.0
  0
LINE
  5
B6
330
B1
100
AcDbEntity
  8
0
 62
     0
100
AcDbLine
 10
0.0
 20
0.0196078431372549
 30
0.0
 11
-1.0
 21
0.0196078431372549
 31
0.0
  0
LINE
  5
B7
330
B1
100
AcDbEntity
  8
0
 62
     0
100
AcDbLine
 10
0.0
 20
-0.0098039215686275
 30
0.0
 11
-1.0
 21
-0.0098039215686275
 31
0.0
  0
LINE
  5
B8
330
B1
100
AcDbEntity
  8
0
 62
     0
100
AcDbLine
 10
0.0
 20
-0.0196078431372549
 30
0.0
 11
-1.0
 21
-0.0196078431372549
 31
0.0
  0
LINE
  5
B9
330
B1
100
AcDbEntity
  8
0
 62
     0
100
AcDbLine
 10
-0.5
 20
-0.0196078431372549
 30
0.0
 11
-0.5
 21
-1.0
 31
0.0
  0
LINE
  5
BA
330
B1
100
AcDbEntity
  8
0
 62
     0
100
AcDbLine
 10
-0.5
 20
-0.0196078431372549
 30
0.0
 11
-0.7000000000000001
 21
-0.297611853902829
 31
0.0
  0
LINE
  5
BB
330
B1
100
AcDbEntity
  8
0
 62
     0
100
AcDbLine
 10
-0.5
 20
-0.0196078431372549
 30
0.0
 11
-0.2999999999999999
 21
-0.297611853902829
 31
0.0
  0
ENDBLK
  5
B3
330
B1
100
AcDbEntity
  8
0
100
AcDbBlockEnd
  0
BLOCK
  5
BD
330
BC
100
AcDbEntity
  8
0
100
AcDbBlockBegin
  2
ArrowheadSectionClosed
 70
     0
 10
0.0
 20
0.0
 30
0.0
  3
ArrowheadSectionClosed
  1

  0
LINE
  5
BF
330
BC
100
AcDbEntity
  8
0
 62
     0
100
AcDbLine
 10
0.0
 20
0.0
 30
0.0
 11
-1.0
 21
0.0
 31
0.0
  0
LINE
  5
C0
330
BC
100
AcDbEntity
  8
0
 62
     0
100
AcDbLine
 10
0.0
 20
0.0098039215686275
 30
0.0
 11
-1.0
 21
0.0098039215686275
 31
0.0
  0
LINE
  5
C1
330
BC
100
AcDbEntity
  8
0
 62
     0
100
AcDbLine
 10
0.0
 20
0.0196078431372549
 30
0.0
 11
-1.0
 21
0.0196078431372549
 31
0.0
  0
LINE
  5
C2
330
BC
100
AcDbEntity
  8
0
 62
     0
100
AcDbLine
 10
0.0
 20
-0.0098039215686275
 30
0.0
 11
-1.0
 21
-0.0098039215686275
 31
0.0
  0
LINE
  5
C3
330
BC
100
AcDbEntity
  8
0
 62
     0
100
AcDbLine
 10
0.0
 20
-0.0196078431372549
 30
0.0
 11
-1.0
 21
-0.0196078431372549
 31
0.0
  0
LINE
  5
C4
330
BC
100
AcDbEntity
  8
0
 62
     0
100
AcDbLine
 10
-0.5
 20
-0.297611853902829
 30
0.0
 11
-0.5
 21
-1.0
 31
0.0
  0
LINE
  5
C5
330
BC
100
AcDbEntity
  8
0
 62
     0
100
AcDbLine
 10
-0.5
 20
-0.0196078431372549
 30
0.0
 11
-0.7000000000000001
 21
-0.297611853902829
 31
0.0
  0
LINE
  5
C6
330
BC
100
AcDbEntity
  8
0
 62
     0
100
AcDbLine
 10
-0.5
 20
-0.0196078431372549
 30
0.0
 11
-0.2999999999999999
 21
-0.297611853902829
 31
0.0
  0
LINE
  5
C7
330
BC
100
AcDbEntity
  8
0
 62
     0
100
AcDbLine
 10
-0.7000000000000001
 20
-0.297611853902829
 30
0.0
 11
-0.2999999999999999
 21
-0.297611853902829
 31
0.0
  0
ENDBLK
  5
BE
330
BC
100
AcDbEntity
  8
0
100
AcDbBlockEnd
  0
BLOCK
  5
C9
330
C8
100
AcDbEntity
  8
0
100
AcDbBlockBegin
  2
ArrowheadSectionFilled
 70
     0
 10
0.0
 20
0.0
 30
0.0
  3
ArrowheadSectionFilled
  1

  0
SOLID
  5
CB
330
C8
100
AcDbEntity
  8
0
 62
     0
100
AcDbTrace
 10
-0.5
 20
-0.0196078431372549
 30
0.0
 11
-0.7000000000000001
 21
-0.297611853902829
 31
0.0
 12
-0.2999999999999999
 22
-0.297611853902829
 32
0.0
 13
-0.2999999999999999
 23
-0.297611853902829
 33
0.0
  0
LINE
  5
CC
330
C8
100
AcDbEntity
  8
0
 62
     0
100
AcDbLine
 10
0.0
 20
0.0
 30
0.0
 11
-1.0
 21
0.0
 31
0.0
  0
LINE
  5
CD
330
C8
100
AcDbEntity
  8
0
 62
     0
100
AcDbLine
 10
0.0
 20
0.0098039215686275
 30
0.0
 11
-1.0
 21
0.0098039215686275
 31
0.0
  0
LINE
  5
CE
330
C8
100
AcDbEntity
  8
0
 62
     0
100
AcDbLine
 10
0.0
 20
0.0196078431372549
 30
0.0
 11
-1.0
 21
0.0196078431372549
 31
0.0
  0
LINE
  5
CF
330
C8
100
AcDbEntity
  8
0
 62
     0
100
AcDbLine
 10
0.0
 20
-0.0098039215686275
 30
0.0
 11
-1.0
 21
-0.0098039215686275
 31
0.0
  0
LINE
  5
D0
330
C8
100
AcDbEntity
  8
0
 62
     0
100
AcDbLine
 10
0.0
 20
-0.0196078431372549
 30
0.0
 11
-1.0
 21
-0.0196078431372549
 31
0.0
  0
LINE
  5
D1
330
C8
100
AcDbEntity
  8
0
 62
     0
100
AcDbLine
 10
-0.5
 20
-0.297611853902829
 30
0.0
 11
-0.5
 21
-1.0
 31
0.0
  0
ENDBLK
  5
CA
330
C8
100
AcDbEntity
  8
0
100
AcDbBlockEnd
  0
BLOCK
  5
D4
330
D3
100
AcDbEntity
  8
0
100
AcDbBlockBegin
  2
BalloonBlockOneText
 70
     2
 10
0.0
 20
0.0
 30
0.0
  3
BalloonBlockOneText
  1

  0
CIRCLE
  5
D6
330
D3
100
AcDbEntity
  8
0
 62
     0
100
AcDbCircle
 10
0.0
 20
0.0
 30
0.0
 40
6.0
  0
ATTDEF
  5
D7
330
D3
100
AcDbEntity
  8
0
 62
     7
100
AcDbText
 10
0.0
 20
-2.0
 30
0.0
 40
4.0
  1

  7
VERO0-courier new
 72
     1
 11
0.0
 21
0.0
 31
0.0
100
AcDbAttributeDefinition
  3
Enter Attr: 
  2
Balloon_One
 70
     0
 74
     2
  0
ENDBLK
  5
D5
330
D3
100
AcDbEntity
  8
0
100
AcDbBlockEnd
  0
BLOCK
  5
D9
330
D8
100
AcDbEntity
  8
0
100
AcDbBlockBegin
  2
BalloonBlockTwoText
 70
     2
 10
0.0
 20
0.0
 30
0.0
  3
BalloonBlockTwoText
  1

  0
CIRCLE
  5
DB
330
D8
100
AcDbEntity
  8
0
 62
     0
100
AcDbCircle
 10
0.0
 20
0.0
 30
0.0
 40
6.0
  0
LINE
  5
DC
330
D8
100
AcDbEntity
  8
0
 62
     0
100
AcDbLine
 10
-6.0
 20
0.0
 30
0.0
 11
6.0
 21
0.0
 31
0.0
  0
ATTDEF
  5
DD
330
D8
100
AcDbEntity
  8
0
 62
     7
100
AcDbText
 10
0.0
 20
1.666666666666667
 30
0.0
 40
2.666666666666667
  1

  7
VERO0-courier new
 72
     1
 11
0.0
 21
3.0
 31
0.0
100
AcDbAttributeDefinition
  3
Enter Attr: 
  2
Balloon_Two
 70
     0
 74
     2
  0
ATTDEF
  5
DE
330
D8
100
AcDbEntity
  8
0
 62
     7
100
AcDbText
 10
-1.4
 20
-4.333333333333333
 30
0.0
 40
2.666666666666667
  1
2
  7
VERO0-courier new
 72
     1
 11
0.0
 21
-3.0
 31
0.0
100
AcDbAttributeDefinition
  3
Enter Attr: 
  2
Balloon_Two1
 70
     0
 74
     2
  0
ENDBLK
  5
DA
330
D8
100
AcDbEntity
  8
0
100
AcDbBlockEnd
  0
BLOCK
  5
E0
330
DF
100
AcDbEntity
  8
0
100
AcDbBlockBegin
  2
BalloonBlockThreeText
 70
     2
 10
0.0
 20
0.0
 30
0.0
  3
BalloonBlockThreeText
  1

  0
CIRCLE
  5
E2
330
DF
100
AcDbEntity
  8
0
 62
     0
100
AcDbCircle
 10
0.0
 20
0.0
 30
0.0
 40
6.0
  0
LINE
  5
E3
330
DF
100
AcDbEntity
  8
0
 62
     0
100
AcDbLine
 10
-6.0
 20
0.0
 30
0.0
 11
6.0
 21
0.0
 31
0.0
  0
LINE
  5
E4
330
DF
100
AcDbEntity
  8
0
 62
     0
100
AcDbLine
 10
0.0
 20
0.0
 30
0.0
 11
0.0
 21
-6.0
 31
0.0
  0
ATTDEF
  5
E5
330
DF
100
AcDbEntity
  8
0
 62
     7
100
AcDbText
 10
0.0
 20
2.090909090909091
 30
0.0
 40
1.818181818181818
  1

  7
VERO0-courier new
 72
     1
 11
0.0
 21
3.0
 31
0.0
100
AcDbAttributeDefinition
  3
Enter Attr: 
  2
Balloon_Three
 70
     0
 74
     2
  0
ATTDEF
  5
E6
330
DF
100
AcDbEntity
  8
0
 62
     7
100
AcDbText
 10
-3.954545454545455
 20
-2.909090909090909
 30
0.0
 40
1.818181818181818
  1
2
  7
VERO0-courier new
 72
     1
 11
-3.0
 21
-2.0
 31
0.0
100
AcDbAttributeDefinition
  3
Enter Attr: 
  2
Balloon_Three1
 70
     0
 74
     2
  0
ATTDEF
  5
E7
330
DF
100
AcDbEntity
  8
0
 62
     7
100
AcDbText
 10
3.0
 20
-2.909090909090909
 30
0.0
 40
1.818181818181818
  1

  7
VERO0-courier new
 72
     1
 11
3.0
 21
-2.0
 31
0.0
100
AcDbAttributeDefinition
  3
Enter Attr: 
  2
Balloon_Three2
 70
     0
 74
     2
  0
ENDBLK
  5
E1
330
DF
100
AcDbEntity
  8
0
100
AcDbBlockEnd
  0
BLOCK
  5
E9
330
E8
100
AcDbEntity
  8
0
100
AcDbBlockBegin
  2
BalloonBlockRect
 70
     2
 10
0.0
 20
0.0
 30
0.0
  3
BalloonBlockRect
  1

  0
LINE
  5
EB
330
E8
100
AcDbEntity
  8
0
 62
     0
100
AcDbLine
 10
-12.0
 20
-6.0
 30
0.0
 11
12.0
 21
-6.0
 31
0.0
  0
LINE
  5
EC
330
E8
100
AcDbEntity
  8
0
 62
     0
100
AcDbLine
 10
12.0
 20
-6.0
 30
0.0
 11
12.0
 21
6.0
 31
0.0
  0
LINE
  5
ED
330
E8
100
AcDbEntity
  8
0
 62
     0
100
AcDbLine
 10
12.0
 20
6.0
 30
0.0
 11
-12.0
 21
6.0
 31
0.0
  0
LINE
  5
EE
330
E8
100
AcDbEntity
  8
0
 62
     0
100
AcDbLine
 10
-12.0
 20
6.0
 30
0.0
 11
-12.0
 21
-6.0
 31
0.0
  0
ATTDEF
  5
EF
330
E8
100
AcDbEntity
  8
0
 62
     7
100
AcDbText
 10
0.0
 20
-2.0
 30
0.0
 40
4.0
  1

  7
VERO0-courier new
 72
     1
 11
0.0
 21
0.0
 31
0.0
100
AcDbAttributeDefinition
  3
Enter Attr: 
  2
Balloon_Rect
 70
     0
 74
     2
  0
ENDBLK
  5
EA
330
E8
100
AcDbEntity
  8
0
100
AcDbBlockEnd
  0
BLOCK
  5
F3
330
F2
100
AcDbEntity
  8
0
100
AcDbBlockBegin
  2
*D18
 70
     1
 10
0.0
 20
0.0
 30
0.0
  3
*D18
  1

  0
LINE
  5
F5
330
F2
100
AcDbEntity
  8
Flansch KST 1101
  6
Continuous
 62
    56
100
AcDbLine
 10
113.6368392200981
 20
169.5363081562006
 30
0.0
 11
161.6368392200981
 21
169.5363081562006
 31
0.0
  0
INSERT
  5
F6
330
F2
100
AcDbEntity
  8
Flansch KST 1101
  6
Continuous
 62
    56
100
AcDbBlockReference
  2
ArrowheadClosed
 10
-113.6368392200981
 20
169.5363081562006
 30
0.0
 41
2.83564090980885
 42
2.83564090980885
 43
2.83564090980885
210
0.0
220
0.0
230
-1.0
  0
INSERT
  5
F7
330
F2
100
AcDbEntity
  8
Flansch KST 1101
  6
Continuous
 62
    56
100
AcDbBlockReference
  2
ArrowheadClosed
 10
161.6368392200981
 20
169.5363081562006
 30
0.0
 41
2.83564090980885
 42
2.83564090980885
 43
2.83564090980885
  0
LINE
  5
F8
330
F2
100
AcDbEntity
  8
Flansch KST 1101
  6
Continuous
 62
    56
100
AcDbLine
 10
113.6368392200981
 20
140.7577880962622
 30
0.0
 11
113.6368392200981
 21
172.5363081562006
 31
0.0
  0
LINE
  5
F9
330
F2
100
AcDbEntity
  8
Flansch KST 1101
  6
Continuous
 62
    56
100
AcDbLine
 10
161.6368392200981
 20
140.7577880962622
 30
0.0
 11
161.6368392200981
 21
172.5363081562006
 31
0.0
  0
TEXT
  5
FA
330
F2
100
AcDbEntity
  8
Flansch KST 1101
  6
Continuous
 62
     7
100
AcDbText
 10
134.8974454184223
 20
171.0363081562006
 30
0.0
 40
2.8
  1
48
 41
0.9317665992094423
  7
VERO0-courier new
 72
     5
 11
140.3762330217738
 21
171.0363081562006
 31
0.0
100
AcDbText
  0
ENDBLK
  5
F4
330
F2
100
AcDbEntity
  8
0
100
AcDbBlockEnd
  0
BLOCK
  5
FD
330
FC
100
AcDbEntity
  8
0
100
AcDbBlockBegin
  2
*D19
 70
     1
 10
0.0
 20
0.0
 30
0.0
  3
*D19
  1

  0
LINE
  5
FF
330
FC
100
AcDbEntity
  8
Flansch KST 1101
  6
Continuous
 62
    56
100
AcDbLine
 10
98.85036628536577
 20
127.7577880962623
 30
0.0
 11
98.85036628536577
 21
153.7577880962622
 31
0.0
  0
INSERT
  5
100
330
FC
100
AcDbEntity
  8
Flansch KST 1101
  6
Continuous
 62
    56
100
AcDbBlockReference
  2
ArrowheadClosed
 10
-98.85036628536577
 20
127.7577880962623
 30
0.0
 41
2.83564090980885
 42
2.83564090980885
 43
2.83564090980885
 50
270.0
210
0.0
220
0.0
230
-1.0
  0
INSERT
  5
101
330
FC
100
AcDbEntity
  8
Flansch KST 1101
  6
Continuous
 62
    56
100
AcDbBlockReference
  2
ArrowheadClosed
 10
98.85036628536577
 20
153.7577880962622
 30
0.0
 41
2.83564090980885
 42
2.83564090980885
 43
2.83564090980885
 50
90.0
  0
LINE
  5
102
330
FC
100
AcDbEntity
  8
Flansch KST 1101
  6
Continuous
 62
    56
100
AcDbLine
 10
137.6368392200981
 20
127.7577880962623
 30
0.0
 11
95.85036628536577
 21
127.7577880962623
 31
0.0
  0
LINE
  5
103
330
FC
100
AcDbEntity
  8
Flansch KST 1101
  6
Continuous
 62
    56
100
AcDbLine
 10
137.6368392200981
 20
153.7577880962622
 30
0.0
 11
95.85036628536577
 21
153.7577880962622
 31
0.0
  0
TEXT
  5
104
330
FC
100
AcDbEntity
  8
Flansch KST 1101
  6
Continuous
 62
     7
100
AcDbText
 10
97.35036628536577
 20
138.0183942945865
 30
0.0
 40
2.8
  1
26
 50
90.0
 41
0.9317665992094423
  7
VERO0-courier new
 72
     5
 11
97.35036628536577
 21
143.497181897938
 31
0.0
100
AcDbText
  0
ENDBLK
  5
FE
330
FC
100
AcDbEntity
  8
0
100
AcDbBlockEnd
  0
BLOCK
  5
107
330
106
100
AcDbEntity
  8
0
100
AcDbBlockBegin
  2
*D20
 70
     1
 10
0.0
 20
0.0
 30
0.0
  3
*D20
  1

  0
LINE
  5
109
330
106
100
AcDbEntity
  8
Flansch KST 1101
  6
Continuous
 62
    56
100
AcDbLine
 10
97.91500610984046
 20
207.463465204299
 30
0.0
 11
97.91500610984046
 21
220.463465204299
 31
0.0
  0
INSERT
  5
10A
330
106
100
AcDbEntity
  8
Flansch KST 1101
  6
Continuous
 62
    56
100
AcDbBlockReference
  2
ArrowheadClosed
 10
-97.91500610984048
 20
207.4634652042989
 30
0.0
 41
2.83564090980885
 42
2.83564090980885
 43
2.83564090980885
 50
270.0
210
0.0
220
0.0
230
-1.0
  0
INSERT
  5
10B
330
106
100
AcDbEntity
  8
Flansch KST 1101
  6
Continuous
 62
    56
100
AcDbBlockReference
  2
ArrowheadClosed
 10
97.91500610984048
 20
220.4634652042989
 30
0.0
 41
2.83564090980885
 42
2.83564090980885
 43
2.83564090980885
 50
90.0
  0
LINE
  5
10C
330
106
100
AcDbEntity
  8
Flansch KST 1101
  6
Continuous
 62
    56
100
AcDbLine
 10
113.6368392200981
 20
207.463465204299
 30
0.0
 11
94.91500610984045
 21
207.463465204299
 31
0.0
  0
LINE
  5
10D
330
106
100
AcDbEntity
  8
Flansch KST 1101
  6
Continuous
 62
    56
100
AcDbLine
 10
127.6368392200981
 20
220.463465204299
 30
0.0
 11
94.91500610984045
 21
220.463465204299
 31
0.0
  0
TEXT
  5
10E
330
106
100
AcDbEntity
  8
Flansch KST 1101
  6
Continuous
 62
     7
100
AcDbText
 10
96.41500610984045
 20
211.2240714026232
 30
0.0
 40
2.8
  1
13
 50
90.0
 41
0.9317665992094423
  7
VERO0-courier new
 72
     5
 11
96.41500610984045
 21
216.7028590059747
 31
0.0
100
AcDbText
  0
ENDBLK
  5
108
330
106
100
AcDbEntity
  8
0
100
AcDbBlockEnd
  0
BLOCK
  5
111
330
110
100
AcDbEntity
  8
0
100
AcDbBlockBegin
  2
*D21
 70
     1
 10
0.0
 20
0.0
 30
0.0
  3
*D21
  1

  0
LINE
  5
113
330
110
100
AcDbEntity
  8
Flansch KST 1101
  6
Continuous
 62
    56
100
AcDbLine
 10
174.1671259426318
 20
138.5077880962622
 30
0.0
 11
174.1671259426318
 21
143.0077880962622
 31
0.0
  0
LINE
  5
114
330
110
100
AcDbEntity
  8
Flansch KST 1101
  6
Continuous
 62
    56
100
AcDbLine
 10
174.1671259426318
 20
143.0077880962622
 30
0.0
 11
174.1671259426318
 21
157.07362391873
 31
0.0
  0
INSERT
  5
115
330
110
100
AcDbEntity
  8
Flansch KST 1101
  6
Continuous
 62
    56
100
AcDbBlockReference
  2
ArrowheadClosed
 10
-174.1671259426318
 20
143.0077880962622
 30
0.0
 41
2.83564090980885
 42
2.83564090980885
 43
2.83564090980885
 50
270.0
210
0.0
220
0.0
230
-1.0
  0
LINE
  5
116
330
110
100
AcDbEntity
  8
Flansch KST 1101
  6
Continuous
 62
    56
100
AcDbLine
 10
174.1671259426318
 20
138.5077880962622
 30
0.0
 11
174.1671259426318
 21
128.5077880962622
 31
0.0
  0
INSERT
  5
117
330
110
100
AcDbEntity
  8
Flansch KST 1101
  6
Continuous
 62
    56
100
AcDbBlockReference
  2
ArrowheadClosed
 10
-174.1671259426318
 20
138.5077880962622
 30
0.0
 41
2.83564090980885
 42
2.83564090980885
 43
2.83564090980885
 50
90.0
210
0.0
220
0.0
230
-1.0
  0
LINE
  5
118
330
110
100
AcDbEntity
  8
Flansch KST 1101
  6
Continuous
 62
    56
100
AcDbLine
 10
155.1368392200981
 20
138.5077880962622
 30
0.0
 11
177.1671259426318
 21
138.5077880962622
 31
0.0
  0
LINE
  5
119
330
110
100
AcDbEntity
  8
Flansch KST 1101
  6
Continuous
 62
    56
100
AcDbLine
 10
155.1368392200981
 20
143.0077880962622
 30
0.0
 11
177.1671259426318
 21
143.0077880962622
 31
0.0
  0
TEXT
  5
11A
330
110
100
AcDbEntity
  8
Flansch KST 1101
  6
Continuous
 62
     7
100
AcDbText
 10
172.6671259426318
 20
148.3554425137028
 30
0.0
 40
2.8
  1
4.5
 50
90.0
 41
0.9317665992094422
  7
VERO0-courier new
 72
     5
 11
172.6671259426318
 21
156.57362391873
 31
0.0
100
AcDbText
  0
ENDBLK
  5
112
330
110
100
AcDbEntity
  8
0
100
AcDbBlockEnd
  0
BLOCK
  5
11D
330
11C
100
AcDbEntity
  8
0
100
AcDbBlockBegin
  2
*D22
 70
     1
 10
0.0
 20
0.0
 30
0.0
  3
*D22
  1

  0
LINE
  5
11F
330
11C
100
AcDbEntity
  8
Flansch KST 1101
  6
Continuous
 62
    56
100
AcDbLine
 10
120.1368392200981
 20
108.8356196111115
 30
0.0
 11
155.1368392200981
 21
108.8356196111115
 31
0.0
  0
INSERT
  5
120
330
11C
100
AcDbEntity
  8
Flansch KST 1101
  6
Continuous
 62
    56
100
AcDbBlockReference
  2
ArrowheadClosed
 10
-120.1368392200981
 20
108.8356196111115
 30
0.0
 41
2.83564090980885
 42
2.83564090980885
 43
2.83564090980885
210
0.0
220
0.0
230
-1.0
  0
INSERT
  5
121
330
11C
100
AcDbEntity
  8
Flansch KST 1101
  6
Continuous
 62
    56
100
AcDbBlockReference
  2
ArrowheadClosed
 10
155.1368392200981
 20
108.8356196111115
 30
0.0
 41
2.83564090980885
 42
2.83564090980885
 43
2.83564090980885
  0
LINE
  5
122
330
11C
100
AcDbEntity
  8
Flansch KST 1101
  6
Continuous
 62
    56
100
AcDbLine
 10
120.1368392200981
 20
138.5077880962622
 30
0.0
 11
120.1368392200981
 21
105.8356196111115
 31
0.0
  0
LINE
  5
123
330
11C
100
AcDbEntity
  8
Flansch KST 1101
  6
Continuous
 62
    56
100
AcDbLine
 10
155.1368392200981
 20
138.5077880962622
 30
0.0
 11
155.1368392200981
 21
105.8356196111115
 31
0.0
  0
TEXT
  5
124
330
11C
100
AcDbEntity
  8
Flansch KST 1101
  6
Continuous
 62
     7
100
AcDbText
 10
134.8974454184223
 20
110.3356196111115
 30
0.0
 40
2.8
  1
35
 41
0.9317665992094423
  7
VERO0-courier new
 72
     5
 11
140.3762330217738
 21
110.3356196111115
 31
0.0
100
AcDbText
  0
ENDBLK
  5
11E
330
11C
100
AcDbEntity
  8
0
100
AcDbBlockEnd
  0
BLOCK
  5
126
330
125
100
AcDbEntity
  8
0
100
AcDbBlockBegin
  2
Entity set 0
 70
     0
 10
0.0
 20
0.0
 30
0.0
  3
Entity set 0
  1

  0
LINE
  5
128
330
125
100
AcDbEntity
  8
Flansch KST 1101
  6
Continuous
 62
   252
100
AcDbLine
 10
125.0
 20
297.0000000000001
 30
0.0
 11
125.0
 21
292.0000000000001
 31
0.0
  0
LINE
  5
129
330
125
100
AcDbEntity
  8
Flansch KST 1101
  6
Continuous
 62
   252
100
AcDbLine
 10
18.00000000000001
 20
148.5000000000001
 30
0.0
 11
2.000000000000004
 21
148.5000000000001
 31
0.0
  0
LINE
  5
12A
330
125
100
AcDbEntity
  8
Flansch KST 1101
  6
Continuous
 62
   252
100
AcDbLine
 10
224.7750000000002
 20
10.00000000000001
 30
0.0
 11
224.7750000000002
 21
5.000000000000004
 31
0.0
  0
LINE
  5
12B
330
125
100
AcDbEntity
  8
Flansch KST 1101
  6
Continuous
 62
   252
100
AcDbLine
 10
169.3562499999999
 20
10.00000000000001
 30
0.0
 11
169.3562499999999
 21
5.000000000000004
 31
0.0
  0
LINE
  5
12C
330
125
100
AcDbEntity
  8
Flansch KST 1101
  6
Continuous
 62
   252
100
AcDbLine
 10
121.1374999999998
 20
10.00000000000001
 30
0.0
 11
121.1374999999998
 21
5.000000000000004
 31
0.0
  0
LINE
  5
12D
330
125
100
AcDbEntity
  8
Flansch KST 1101
  6
Continuous
 62
   252
100
AcDbLine
 10
72.91874999999976
 20
10.00000000000001
 30
0.0
 11
72.91874999999976
 21
5.000000000000004
 31
0.0
  0
LINE
  5
12E
330
125
100
AcDbEntity
  8
Flansch KST 1101
  6
Continuous
 62
   252
100
AcDbLine
 10
121.1374999999998
 20
292.0000000000001
 30
0.0
 11
121.1374999999998
 21
287.0000000000001
 31
0.0
  0
LINE
  5
12F
330
125
100
AcDbEntity
  8
Flansch KST 1101
  6
Continuous
 62
   252
100
AcDbLine
 10
72.91874999999976
 20
292.0000000000001
 30
0.0
 11
72.91874999999976
 21
287.0000000000001
 31
0.0
  0
LINE
  5
130
330
125
100
AcDbEntity
  8
Flansch KST 1101
  6
Continuous
 62
   252
100
AcDbLine
 10
169.3562499999999
 20
292.0000000000001
 30
0.0
 11
169.3562499999999
 21
287.0000000000001
 31
0.0
  0
LINE
  5
131
330
125
100
AcDbEntity
  8
Flansch KST 1101
  6
Continuous
 62
   252
100
AcDbLine
 10
217.575
 20
292.0000000000001
 30
0.0
 11
217.575
 21
287.0000000000001
 31
0.0
  0
LINE
  5
132
330
125
100
AcDbEntity
  8
Flansch KST 1101
  6
Continuous
 62
   252
100
AcDbLine
 10
265.79375
 20
292.0000000000001
 30
0.0
 11
265.79375
 21
287.0000000000001
 31
0.0
  0
LINE
  5
133
330
125
100
AcDbEntity
  8
Flansch KST 1101
  6
Continuous
 62
   252
100
AcDbLine
 10
314.0124999999999
 20
292.0000000000001
 30
0.0
 11
314.0124999999999
 21
287.0000000000001
 31
0.0
  0
LINE
  5
134
330
125
100
AcDbEntity
  8
Flansch KST 1101
  6
Continuous
 62
   252
100
AcDbLine
 10
362.23125
 20
292.0000000000001
 30
0.0
 11
362.23125
 21
287.0000000000001
 31
0.0
  0
LINE
  5
135
330
125
100
AcDbEntity
  8
Flansch KST 1101
  6
Continuous
 62
   252
100
AcDbLine
 10
414.9999999999999
 20
241.1333333333331
 30
0.0
 11
409.9999999999999
 21
241.1333333333331
 31
0.0
  0
LINE
  5
136
330
125
100
AcDbEntity
  8
Flansch KST 1101
  6
Continuous
 62
   252
100
AcDbLine
 10
414.9999999999999
 20
194.8166666666671
 30
0.0
 11
409.9999999999999
 21
194.8166666666671
 31
0.0
  0
LINE
  5
137
330
125
100
AcDbEntity
  8
Flansch KST 1101
  6
Continuous
 62
   252
100
AcDbLine
 10
414.9999999999999
 20
148.5000000000001
 30
0.0
 11
409.9999999999999
 21
148.5000000000001
 31
0.0
  0
LINE
  5
138
330
125
100
AcDbEntity
  8
Flansch KST 1101
  6
Continuous
 62
   252
100
AcDbLine
 10
414.9999999999999
 20
102.1833333333342
 30
0.0
 11
409.9999999999999
 21
102.1833333333342
 31
0.0
  0
LINE
  5
139
330
125
100
AcDbEntity
  8
Flansch KST 1101
  6
Continuous
 62
   252
100
AcDbLine
 10
414.9999999999999
 20
55.86666666666595
 30
0.0
 11
409.9999999999999
 21
55.86666666666595
 31
0.0
  0
LINE
  5
13A
330
125
100
AcDbEntity
  8
Flansch KST 1101
  6
Continuous
 62
   252
100
AcDbLine
 10
20.00000000000001
 20
55.86666666666595
 30
0.0
 11
25.00000000000001
 21
55.86666666666595
 31
0.0
  0
LINE
  5
13B
330
125
100
AcDbEntity
  8
Flansch KST 1101
  6
Continuous
 62
   252
100
AcDbLine
 10
20.00000000000001
 20
102.1833333333342
 30
0.0
 11
25.00000000000001
 21
102.1833333333342
 31
0.0
  0
LINE
  5
13C
330
125
100
AcDbEntity
  8
Flansch KST 1101
  6
Continuous
 62
   252
100
AcDbLine
 10
20.00000000000001
 20
148.5000000000001
 30
0.0
 11
25.00000000000001
 21
148.5000000000001
 31
0.0
  0
LINE
  5
13D
330
125
100
AcDbEntity
  8
Flansch KST 1101
  6
Continuous
 62
   252
100
AcDbLine
 10
20.00000000000001
 20
194.8166666666671
 30
0.0
 11
25.00000000000001
 21
194.8166666666671
 31
0.0
  0
LINE
  5
13E
330
125
100
AcDbEntity
  8
Flansch KST 1101
  6
Continuous
 62
   252
100
AcDbLine
 10
20.00000000000001
 20
241.1333333333331
 30
0.0
 11
25.00000000000001
 21
241.1333333333331
 31
0.0
  0
LINE
  5
13F
330
125
100
AcDbEntity
  8
Flansch KST 1101
  6
Continuous
 62
   252
100
AcDbLine
 10
414.9999999999999
 20
292.0000000000001
 30
0.0
 11
414.9999999999999
 21
5.000000000000004
 31
0.0
  0
LINE
  5
140
330
125
100
AcDbEntity
  8
Flansch KST 1101
  6
Continuous
 62
   252
100
AcDbLine
 10
20.00000000000001
 20
292.0000000000001
 30
0.0
 11
414.9999999999999
 21
292.0000000000001
 31
0.0
  0
LINE
  5
141
330
125
100
AcDbEntity
  8
Flansch KST 1101
  6
Continuous
 62
   252
100
AcDbLine
 10
20.00000000000001
 20
5.000000000000004
 30
0.0
 11
20.00000000000001
 21
292.0000000000001
 31
0.0
  0
LINE
  5
142
330
125
100
AcDbEntity
  8
Flansch KST 1101
  6
Continuous
 62
     4
100
AcDbLine
 10
25.00000000000001
 20
287.0000000000001
 30
0.0
 11
25.00000000000001
 21
10.00000000000001
 31
0.0
  0
LINE
  5
143
330
125
100
AcDbEntity
  8
Flansch KST 1101
  6
Continuous
 62
     4
100
AcDbLine
 10
409.9999999999999
 20
287.0000000000001
 30
0.0
 11
25.00000000000001
 21
287.0000000000001
 31
0.0
  0
LINE
  5
144
330
125
100
AcDbEntity
  8
Flansch KST 1101
  6
Continuous
 62
   252
100
AcDbLine
 10
20.00000000000001
 20
5.000000000000004
 30
0.0
 11
414.9999999999999
 21
5.000000000000004
 31
0.0
  0
LINE
  5
145
330
125
100
AcDbEntity
  8
Flansch KST 1101
  6
Continuous
 62
   252
100
AcDbLine
 10
0.0
 20
0.0
 30
0.0
 11
0.0
 21
297.0000000000001
 31
0.0
  0
LINE
  5
146
330
125
100
AcDbEntity
  8
Flansch KST 1101
  6
Continuous
 62
   252
100
AcDbLine
 10
419.9999999999999
 20
0.0
 30
0.0
 11
0.0
 21
0.0
 31
0.0
  0
LINE
  5
147
330
125
100
AcDbEntity
  8
Flansch KST 1101
  6
Continuous
 62
   252
100
AcDbLine
 10
419.9999999999999
 20
297.0000000000001
 30
0.0
 11
419.9999999999999
 21
0.0
 31
0.0
  0
LINE
  5
148
330
125
100
AcDbEntity
  8
Flansch KST 1101
  6
Continuous
 62
   252
100
AcDbLine
 10
230.0
 20
297.0000000000001
 30
0.0
 11
230.0
 21
292.0000000000001
 31
0.0
  0
LINE
  5
149
330
125
100
AcDbEntity
  8
Flansch KST 1101
  6
Continuous
 62
   252
100
AcDbLine
 10
419.9999999999999
 20
297.0000000000001
 30
0.0
 11
0.0
 21
297.0000000000001
 31
0.0
  0
LINE
  5
14A
330
125
100
AcDbEntity
  8
Flansch KST 1101
  6
Continuous
 62
     4
100
AcDbLine
 10
25.00000000000001
 20
10.00000000000001
 30
0.0
 11
409.9999999999999
 21
10.00000000000001
 31
0.0
  0
LINE
  5
14B
330
125
100
AcDbEntity
  8
Flansch KST 1101
  6
Continuous
 62
     4
100
AcDbLine
 10
409.9999999999999
 20
287.0000000000001
 30
0.0
 11
409.9999999999999
 21
10.00000000000002
 31
0.0
  0
TEXT
  5
14C
330
125
100
AcDbEntity
  8
Flansch KST 1101
  6
Continuous
 62
     7
100
AcDbText
 10
192.4779488967499
 20
6.007311380230529
 30
0.0
 40
3.0
  1
5
 41
0.9767161712191271
  7
VERO1-osifont
 72
     5
 11
194.4533011032501
 21
6.007311380230529
 31
0.0
100
AcDbText
  0
TEXT
  5
14D
330
125
100
AcDbEntity
  8
Flansch KST 1101
  6
Continuous
 62
     7
100
AcDbText
 10
144.2644805871413
 20
6.007311380230529
 30
0.0
 40
3.0
  1
6
 41
0.9758365763344251
  7
VERO1-osifont
 72
     5
 11
146.2292694128582
 21
6.007311380230529
 31
0.0
100
AcDbText
  0
TEXT
  5
14E
330
125
100
AcDbEntity
  8
Flansch KST 1101
  6
Continuous
 62
     7
100
AcDbText
 10
96.07742072949166
 20
6.007311380230529
 30
0.0
 40
3.0
  1
7
 41
0.9778768559145747
  7
VERO1-osifont
 72
     5
 11
97.97882927050794
 21
6.007311380230529
 31
0.0
100
AcDbText
  0
TEXT
  5
14F
330
125
100
AcDbEntity
  8
Flansch KST 1101
  6
Continuous
 62
     7
100
AcDbText
 10
47.93472706400691
 20
6.007311380230529
 30
0.0
 40
3.0
  1
8
 41
0.9770374766391117
  7
VERO1-osifont
 72
     5
 11
49.98402293599113
 21
6.007311380230529
 31
0.0
100
AcDbText
  0
TEXT
  5
150
330
125
100
AcDbEntity
  8
Flansch KST 1101
  6
Continuous
 62
     7
100
AcDbText
 10
47.93472706400691
 20
288.0073113802306
 30
0.0
 40
3.0
  1
8
 41
0.9770374766391117
  7
VERO1-osifont
 72
     5
 11
49.98402293599113
 21
288.0073113802306
 31
0.0
100
AcDbText
  0
TEXT
  5
151
330
125
100
AcDbEntity
  8
Flansch KST 1101
  6
Continuous
 62
     7
100
AcDbText
 10
98.47341192491166
 20
288.0073113802306
 30
0.0
 40
3.0
  1
7
 41
0.9778768559145747
  7
VERO1-osifont
 72
     5
 11
100.3748204659279
 21
288.0073113802306
 31
0.0
100
AcDbText
  0
TEXT
  5
152
330
125
100
AcDbEntity
  8
Flansch KST 1101
  6
Continuous
 62
     7
100
AcDbText
 10
146.5104717825616
 20
288.0073113802306
 30
0.0
 40
3.0
  1
6
 41
0.9758365763344251
  7
VERO1-osifont
 72
     5
 11
148.4752606082784
 21
288.0073113802306
 31
0.0
100
AcDbText
  0
TEXT
  5
153
330
125
100
AcDbEntity
  8
Flansch KST 1101
  6
Continuous
 62
     7
100
AcDbText
 10
193.005161388267
 20
288.0073113802306
 30
0.0
 40
3.0
  1
5
 41
0.9767161712191271
  7
VERO1-osifont
 72
     5
 11
194.9805135947672
 21
288.0073113802306
 31
0.0
100
AcDbText
  0
TEXT
  5
154
330
125
100
AcDbEntity
  8
Flansch KST 1101
  6
Continuous
 62
     7
100
AcDbText
 10
240.6650087543997
 20
288.0073113802306
 30
0.0
 40
3.0
  1
4
 41
0.9761908613354118
  7
VERO1-osifont
 72
     5
 11
242.7037412456005
 21
288.0073113802306
 31
0.0
100
AcDbText
  0
TEXT
  5
155
330
125
100
AcDbEntity
  8
Flansch KST 1101
  6
Continuous
 62
     7
100
AcDbText
 10
288.9471390391002
 20
288.0073113802306
 30
0.0
 40
3.0
  1
3
 41
0.9772769314630935
  7
VERO1-osifont
 72
     5
 11
290.8591109608999
 21
288.0073113802306
 31
0.0
100
AcDbText
  0
TEXT
  5
156
330
125
100
AcDbEntity
  8
Flansch KST 1101
  6
Continuous
 62
     7
100
AcDbText
 10
337.1922974910587
 20
288.0073113802306
 30
0.0
 40
3.0
  1
2
 41
0.9803524935244852
  7
VERO1-osifont
 72
     5
 11
339.0514525089413
 21
288.0073113802306
 31
0.0
100
AcDbText
  0
TEXT
  5
157
330
125
100
AcDbEntity
  8
Flansch KST 1101
  6
Continuous
 62
     7
100
AcDbText
 10
385.4342869394681
 20
288.0073113802306
 30
0.0
 40
3.0
  1
1
 41
0.9808337189778155
  7
VERO1-osifont
 72
     5
 11
386.7969630605297
 21
288.0073113802306
 31
0.0
100
AcDbText
  0
TEXT
  5
158
330
125
100
AcDbEntity
  8
Flansch KST 1101
  6
Continuous
 62
     7
100
AcDbText
 10
21.27464782912286
 20
29.48401270628941
 30
0.0
 40
3.0
  1
A
 41
0.9804594838653696
  7
VERO1-osifont
 72
     5
 11
23.72535217087717
 21
29.48401270628941
 31
0.0
100
AcDbText
  0
TEXT
  5
159
330
125
100
AcDbEntity
  8
Flansch KST 1101
  6
Continuous
 62
     7
100
AcDbText
 10
21.34330980421511
 20
78.24538433032357
 30
0.0
 40
3.0
  1
B
 41
0.9771332233245257
  7
VERO1-osifont
 72
     5
 11
23.65669019578492
 21
78.24538433032357
 31
0.0
100
AcDbText
  0
TEXT
  5
15A
330
125
100
AcDbEntity
  8
Flansch KST 1101
  6
Continuous
 62
     7
100
AcDbText
 10
21.52288727753331
 20
122.9606296190675
 30
0.0
 40
3.0
  1
C
 41
0.9793473474272283
  7
VERO1-osifont
 72
     5
 11
23.47711272246671
 21
122.9606296190675
 31
0.0
100
AcDbText
  0
TEXT
  5
15B
330
125
100
AcDbEntity
  8
Flansch KST 1101
  6
Continuous
 62
     7
100
AcDbText
 10
21.32746473303997
 20
169.2772962857346
 30
0.0
 40
3.0
  1
D
 41
0.9793473474272282
  7
VERO1-osifont
 72
     5
 11
23.67253526696005
 21
169.2772962857346
 31
0.0
100
AcDbText
  0
TEXT
  5
15C
330
125
100
AcDbEntity
  8
Flansch KST 1101
  6
Continuous
 62
     7
100
AcDbText
 10
21.52288727753331
 20
215.5939629524014
 30
0.0
 40
3.0
  1
E
 41
0.9808222681311849
  7
VERO1-osifont
 72
     5
 11
23.47711272246671
 21
215.5939629524014
 31
0.0
100
AcDbText
  0
TEXT
  5
15D
330
125
100
AcDbEntity
  8
Flansch KST 1101
  6
Continuous
 62
     7
100
AcDbText
 10
21.52288727753331
 20
263.3395704950325
 30
0.0
 40
3.0
  1
F
 41
0.9808222681311849
  7
VERO1-osifont
 72
     5
 11
23.47711272246671
 21
263.3395704950325
 31
0.0
100
AcDbText
  0
TEXT
  5
15E
330
125
100
AcDbEntity
  8
Flansch KST 1101
  6
Continuous
 62
     7
100
AcDbText
 10
411.5228872775332
 20
261.6856296190687
 30
0.0
 40
3.0
  1
F
 41
0.9808222681311849
  7
VERO1-osifont
 72
     5
 11
413.4771127224666
 21
261.6856296190687
 31
0.0
100
AcDbText
  0
TEXT
  5
15F
330
125
100
AcDbEntity
  8
Flansch KST 1101
  6
Continuous
 62
     7
100
AcDbText
 10
411.5228872775332
 20
215.5939629524014
 30
0.0
 40
3.0
  1
E
 41
0.9808222681311849
  7
VERO1-osifont
 72
     5
 11
413.4771127224666
 21
215.5939629524014
 31
0.0
100
AcDbText
  0
TEXT
  5
160
330
125
100
AcDbEntity
  8
Flansch KST 1101
  6
Continuous
 62
     7
100
AcDbText
 10
411.3274647330399
 20
169.2772962857346
 30
0.0
 40
3.0
  1
D
 41
0.9793473474272282
  7
VERO1-osifont
 72
     5
 11
413.67253526696
 21
169.2772962857346
 31
0.0
100
AcDbText
  0
TEXT
  5
161
330
125
100
AcDbEntity
  8
Flansch KST 1101
  6
Continuous
 62
     7
100
AcDbText
 10
411.5228872775332
 20
122.9606296190675
 30
0.0
 40
3.0
  1
C
 41
0.9793473474272283
  7
VERO1-osifont
 72
     5
 11
413.4771127224666
 21
122.9606296190675
 31
0.0
100
AcDbText
  0
TEXT
  5
162
330
125
100
AcDbEntity
  8
Flansch KST 1101
  6
Continuous
 62
     7
100
AcDbText
 10
411.343309804215
 20
76.6439629524014
 30
0.0
 40
3.0
  1
B
 41
0.9771332233245257
  7
VERO1-osifont
 72
     5
 11
413.6566901957848
 21
76.6439629524014
 31
0.0
100
AcDbText
  0
TEXT
  5
163
330
125
100
AcDbEntity
  8
Flansch KST 1101
  6
Continuous
 62
     7
100
AcDbText
 10
411.2746478291228
 20
28.05229628573557
 30
0.0
 40
3.0
  1
A
 41
0.9804594838653696
  7
VERO1-osifont
 72
     5
 11
413.7253521708771
 21
28.05229628573557
 31
0.0
100
AcDbText
  0
TEXT
  5
164
330
125
100
AcDbEntity
  8
Flansch KST 1101
  6
Continuous
 62
     7
100
AcDbText
 10
259.5149636710368
 20
26.05371921824559
 30
0.0
 40
5.0
  1
-
 41
0.9320283012295311
  7
VERO2-TXT
 72
     5
 11
264.3970166774772
 21
26.05371921824559
 31
0.0
100
AcDbText
  0
LINE
  5
165
330
125
100
AcDbEntity
  8
Flansch KST 1101
  6
Continuous
 62
   136
100
AcDbLine
 10
232.9799999999997
 20
85.26000000000002
 30
0.0
 11
409.9999999999997
 21
85.26000000000002
 31
0.0
  0
LINE
  5
166
330
125
100
AcDbEntity
  8
Flansch KST 1101
  6
Continuous
 62
   136
100
AcDbLine
 10
155.5999999999997
 20
15.30000000000002
 30
0.0
 11
409.9999999999997
 21
15.30000000000002
 31
0.0
  0
LINE
  5
167
330
125
100
AcDbEntity
  8
Flansch KST 1101
  6
Continuous
 62
   136
100
AcDbLine
 10
155.5999999999997
 20
42.86000000000002
 30
0.0
 11
232.9799999999997
 21
42.86000000000002
 31
0.0
  0
LINE
  5
168
330
125
100
AcDbEntity
  8
Flansch KST 1101
  6
Continuous
 62
   136
100
AcDbLine
 10
322.0199999999998
 20
53.46000000000002
 30
0.0
 11
322.0199999999998
 21
85.26000000000002
 31
0.0
  0
LINE
  5
169
330
125
100
AcDbEntity
  8
Flansch KST 1101
  6
Continuous
 62
   136
100
AcDbLine
 10
232.9799999999997
 20
15.30000000000002
 30
0.0
 11
232.9799999999997
 21
95.86000000000001
 31
0.0
  0
LINE
  5
16A
330
125
100
AcDbEntity
  8
Flansch KST 1101
  6
Continuous
 62
   136
100
AcDbLine
 10
155.5999999999997
 20
95.86000000000001
 30
0.0
 11
409.9999999999997
 21
95.86000000000001
 31
0.0
  0
LINE
  5
16B
330
125
100
AcDbEntity
  8
Flansch KST 1101
  6
Continuous
 62
   136
100
AcDbLine
 10
155.5999999999997
 20
10.00000000000002
 30
0.0
 11
155.5999999999997
 21
95.86000000000001
 31
0.0
  0
LINE
  5
16C
330
125
100
AcDbEntity
  8
Flansch KST 1101
  6
Continuous
 62
   136
100
AcDbLine
 10
160.8999999999998
 20
67.24000000000004
 30
0.0
 11
169.3799999999999
 21
66.18000000000004
 31
0.0
  0
LINE
  5
16D
330
125
100
AcDbEntity
  8
Flansch KST 1101
  6
Continuous
 62
   136
100
AcDbLine
 10
160.8999999999998
 20
71.48000000000003
 30
0.0
 11
169.3799999999999
 21
72.54000000000003
 31
0.0
  0
CIRCLE
  5
16E
330
125
100
AcDbEntity
  8
Flansch KST 1101
  6
Continuous
 62
     7
100
AcDbCircle
 10
175.7399999999998
 20
69.36000000000001
 30
0.0
 40
2.120000000000011
  0
LINE
  5
16F
330
125
100
AcDbEntity
  8
Flansch KST 1101
  6
Continuous
 62
   136
100
AcDbLine
 10
169.3799999999999
 20
66.18000000000004
 30
0.0
 11
169.3799999999999
 21
72.54000000000003
 31
0.0
  0
CIRCLE
  5
170
330
125
100
AcDbEntity
  8
Flansch KST 1101
  6
Continuous
 62
     7
100
AcDbCircle
 10
175.7399999999998
 20
69.36000000000001
 30
0.0
 40
3.179999999999961
  0
LINE
  5
171
330
125
100
AcDbEntity
  8
Flansch KST 1101
  6
Continuous
 62
   136
100
AcDbLine
 10
160.8999999999998
 20
67.24000000000004
 30
0.0
 11
160.8999999999998
 21
71.48000000000003
 31
0.0
  0
LINE
  5
172
330
125
100
AcDbEntity
  8
Flansch KST 1101
  6
Continuous
 62
   136
100
AcDbLine
 10
171.4999999999998
 20
69.36000000000001
 30
0.0
 11
179.9799999999998
 21
69.36000000000001
 31
0.0
  0
LINE
  5
173
330
125
100
AcDbEntity
  8
Flansch KST 1101
  6
Continuous
 62
   136
100
AcDbLine
 10
175.7399999999998
 20
65.12000000000002
 30
0.0
 11
175.7399999999998
 21
73.60000000000004
 31
0.0
  0
LINE
  5
174
330
125
100
AcDbEntity
  8
Flansch KST 1101
  6
Continuous
 62
   136
100
AcDbLine
 10
159.8399999999997
 20
69.36000000000001
 30
0.0
 11
170.4399999999998
 21
69.36000000000001
 31
0.0
  0
LINE
  5
175
330
125
100
AcDbEntity
  8
Flansch KST 1101
  6
Continuous
 62
   136
100
AcDbLine
 10
184.2199999999998
 20
53.46000000000002
 30
0.0
 11
184.2199999999998
 21
74.66000000000003
 31
0.0
  0
LINE
  5
176
330
125
100
AcDbEntity
  8
Flansch KST 1101
  6
Continuous
 62
   136
100
AcDbLine
 10
271.1399999999999
 20
85.26000000000002
 30
0.0
 11
271.1399999999999
 21
95.86000000000001
 31
0.0
  0
LINE
  5
177
330
125
100
AcDbEntity
  8
Flansch KST 1101
  6
Continuous
 62
   136
100
AcDbLine
 10
249.9399999999998
 20
85.26000000000002
 30
0.0
 11
249.9399999999998
 21
95.86000000000001
 31
0.0
  0
LINE
  5
178
330
125
100
AcDbEntity
  8
Flansch KST 1101
  6
Continuous
 62
   136
100
AcDbLine
 10
243.5799999999997
 20
85.26000000000002
 30
0.0
 11
243.5799999999997
 21
95.86000000000001
 31
0.0
  0
LINE
  5
179
330
125
100
AcDbEntity
  8
Flansch KST 1101
  6
Continuous
 62
   136
100
AcDbLine
 10
319.8999999999999
 20
85.26000000000002
 30
0.0
 11
319.8999999999999
 21
95.86000000000001
 31
0.0
  0
LINE
  5
17A
330
125
100
AcDbEntity
  8
Flansch KST 1101
  6
Continuous
 62
   136
100
AcDbLine
 10
347.4599999999999
 20
85.26000000000002
 30
0.0
 11
347.4599999999999
 21
95.86000000000001
 31
0.0
  0
LINE
  5
17B
330
125
100
AcDbEntity
  8
Flansch KST 1101
  6
Continuous
 62
   136
100
AcDbLine
 10
383.4999999999997
 20
85.26000000000002
 30
0.0
 11
383.4999999999997
 21
90.56000000000002
 31
0.0
  0
LINE
  5
17C
330
125
100
AcDbEntity
  8
Flansch KST 1101
  6
Continuous
 62
   136
100
AcDbLine
 10
389.8599999999999
 20
15.30000000000002
 30
0.0
 11
389.8599999999999
 21
33.85000000000002
 31
0.0
  0
LINE
  5
17D
330
125
100
AcDbEntity
  8
Flansch KST 1101
  6
Continuous
 62
   136
100
AcDbLine
 10
232.9799999999997
 20
33.85000000000002
 30
0.0
 11
409.9999999999997
 21
33.85000000000002
 31
0.0
  0
LINE
  5
17E
330
125
100
AcDbEntity
  8
Flansch KST 1101
  6
Continuous
 62
   136
100
AcDbLine
 10
232.9799999999997
 20
69.36000000000001
 30
0.0
 11
322.0199999999998
 21
69.36000000000001
 31
0.0
  0
LINE
  5
17F
330
125
100
AcDbEntity
  8
Flansch KST 1101
  6
Continuous
 62
   136
100
AcDbLine
 10
232.9799999999997
 20
58.76000000000003
 30
0.0
 11
322.0199999999998
 21
58.76000000000003
 31
0.0
  0
LINE
  5
180
330
125
100
AcDbEntity
  8
Flansch KST 1101
  6
Continuous
 62
   136
100
AcDbLine
 10
155.5999999999997
 20
53.46000000000002
 30
0.0
 11
409.9999999999997
 21
53.46000000000002
 31
0.0
  0
LINE
  5
181
330
125
100
AcDbEntity
  8
Flansch KST 1101
  6
Continuous
 62
   136
100
AcDbLine
 10
155.5999999999997
 20
64.06000000000002
 30
0.0
 11
409.9999999999997
 21
64.06000000000002
 31
0.0
  0
LINE
  5
182
330
125
100
AcDbEntity
  8
Flansch KST 1101
  6
Continuous
 62
   136
100
AcDbLine
 10
155.5999999999997
 20
74.66000000000003
 30
0.0
 11
322.0199999999998
 21
74.66000000000003
 31
0.0
  0
LINE
  5
183
330
125
100
AcDbEntity
  8
Flansch KST 1101
  6
Continuous
 62
   136
100
AcDbLine
 10
232.9799999999997
 20
90.56000000000002
 30
0.0
 11
409.9999999999997
 21
90.56000000000002
 31
0.0
  0
LINE
  5
184
330
125
100
AcDbEntity
  8
Flansch KST 1101
  6
Continuous
 62
   136
100
AcDbLine
 10
155.5999999999997
 20
95.86000000000001
 30
0.0
 11
409.9999999999997
 21
95.86000000000001
 31
0.0
  0
TEXT
  5
185
330
125
100
AcDbEntity
  8
Flansch KST 1101
  6
Continuous
 62
     7
100
AcDbText
 10
234.3534129065927
 20
60.18876437102757
 30
0.0
 40
2.5
  1
Bemerkung
 41
0.6421433871283251
  7
VERO2-TXT
 72
     5
 11
247.3491719318088
 21
60.18876437102757
 31
0.0
100
AcDbText
  0
TEXT
  5
186
330
125
100
AcDbEntity
  8
Flansch KST 1101
  6
Continuous
 62
     7
100
AcDbText
 10
234.2668383794675
 20
65.96495484721805
 30
0.0
 40
2.5
  1
Gewicht
 41
0.618057087834539
  7
VERO2-TXT
 72
     5
 11
242.8019124495635
 21
65.96495484721805
 31
0.0
100
AcDbText
  0
TEXT
  5
187
330
125
100
AcDbEntity
  8
Flansch KST 1101
  6
Continuous
 62
     7
100
AcDbText
 10
159.7795778542813
 20
55.28815338292274
 30
0.0
 40
3.5
  1
A3
 41
1.040485793990748
  7
VERO2-TXT
 72
     5
 11
165.8490783192273
 21
55.28815338292274
 31
0.0
100
AcDbText
  0
TEXT
  5
188
330
125
100
AcDbEntity
  8
Flansch KST 1101
  6
Continuous
 62
     7
100
AcDbText
 10
209.8075541408955
 20
66.40444321824558
 30
0.0
 40
5.0
  1
1:1
 41
0.96876199652509
  7
VERO2-TXT
 72
     5
 11
219.2645164879261
 21
66.40444321824558
 31
0.0
100
AcDbText
  0
TEXT
  5
189
330
125
100
AcDbEntity
  8
Flansch KST 1101
  6
Continuous
 62
     7
100
AcDbText
 10
255.2806640270273
 20
45.66653536110274
 30
0.0
 40
5.0
  1
KLC Flansch 13mm
 41
0.7043091456095383
  7
VERO2-TXT
 72
     5
 11
308.1038499477427
 21
45.66653536110274
 31
0.0
100
AcDbText
  0
TEXT
  5
18A
330
125
100
AcDbEntity
  8
Flansch KST 1101
  6
Continuous
 62
     7
100
AcDbText
 10
383.9949969363938
 20
11.99087003769424
 30
0.0
 40
2.5
  1
 GmbH verboten
 41
0.5913693034513429
  7
VERO2-TXT
 72
     5
 11
402.5808893305789
 21
11.99087003769424
 31
0.0
100
AcDbText
  0
TEXT
  5
18B
330
125
100
AcDbEntity
  8
Flansch KST 1101
  6
Continuous
 62
     7
100
AcDbText
 10
286.0568092228515
 20
11.88582425451951
 30
0.0
 40
2.5
  1
Vervielfaeltigung ohne vorherige schriftliche Zustimmung der Fa.BST Solutions
 41
0.6500443689665706
  7
VERO2-TXT
 72
     5
 11
384.4920993806464
 21
11.88582425451951
 31
0.0
100
AcDbText
  0
TEXT
  5
18C
330
125
100
AcDbEntity
  8
Flansch KST 1101
  6
Continuous
 62
     7
100
AcDbText
 10
234.97751062281
 20
70.70959103769424
 30
0.0
 40
2.5
  1
Oberflaechenschutz
 41
0.685911031057503
  7
VERO2-TXT
 72
     5
 11
259.6376453108298
 21
70.70959103769424
 31
0.0
100
AcDbText
  0
TEXT
  5
18D
330
125
100
AcDbEntity
  8
Flansch KST 1101
  6
Continuous
 62
     7
100
AcDbText
 10
277.9595050965256
 20
70.82138060912281
 30
0.0
 40
2.5
  1
-
 41
0.6560999794270503
  7
VERO2-TXT
 72
     5
 11
279.6778621855012
 21
70.82138060912281
 31
0.0
100
AcDbText
  0
TEXT
  5
18E
330
125
100
AcDbEntity
  8
Flansch KST 1101
  6
Continuous
 62
     7
100
AcDbText
 10
277.9595050965256
 20
54.92138060912281
 30
0.0
 40
2.5
  1
-
 41
0.6560999794270503
  7
VERO2-TXT
 72
     5
 11
279.6778621855012
 21
54.92138060912281
 31
0.0
100
AcDbText
  0
TEXT
  5
18F
330
125
100
AcDbEntity
  8
Flansch KST 1101
  6
Continuous
 62
     7
100
AcDbText
 10
277.9595050965256
 20
65.52138060912282
 30
0.0
 40
2.5
  1
-
 41
0.6560999794270503
  7
VERO2-TXT
 72
     5
 11
279.6778621855012
 21
65.52138060912282
 31
0.0
100
AcDbText
  0
TEXT
  5
190
330
125
100
AcDbEntity
  8
Flansch KST 1101
  6
Continuous
 62
     7
100
AcDbText
 10
277.9595050965256
 20
60.2213806091228
 30
0.0
 40
2.5
  1
-
 41
0.6560999794270503
  7
VERO2-TXT
 72
     5
 11
279.6778621855012
 21
60.2213806091228
 31
0.0
100
AcDbText
  0
TEXT
  5
191
330
125
100
AcDbEntity
  8
Flansch KST 1101
  6
Continuous
 62
     7
100
AcDbText
 10
259.5149636710368
 20
16.7787192182456
 30
0.0
 40
5.0
  1
-
 41
0.9320283012295311
  7
VERO2-TXT
 72
     5
 11
264.3970166774772
 21
16.7787192182456
 31
0.0
100
AcDbText
  0
TEXT
  5
192
330
125
100
AcDbEntity
  8
Flansch KST 1101
  6
Continuous
 62
     7
100
AcDbText
 10
372.0445565626378
 20
26.55293103769424
 30
0.0
 40
2.5
  1
Status:
 41
0.5564212799072265
  7
VERO2-TXT
 72
     5
 11
378.9998225614781
 21
26.55293103769424
 31
0.0
100
AcDbText
  0
LINE
  5
193
330
125
100
AcDbEntity
  8
Flansch KST 1101
  6
Continuous
 62
   136
100
AcDbLine
 10
367.5999999999999
 20
15.30000000000002
 30
0.0
 11
367.5999999999999
 21
33.85000000000002
 31
0.0
  0
TEXT
  5
194
330
125
100
AcDbEntity
  8
Flansch KST 1101
  6
Continuous
 62
     7
100
AcDbText
 10
349.648197880541
 20
26.55293103769424
 30
0.0
 40
2.5
  1
Aend.-Index
 41
0.5697374747313082
  7
VERO2-TXT
 72
     5
 11
362.3994651721465
 21
26.55293103769424
 31
0.0
100
AcDbText
  0
TEXT
  5
195
330
125
100
AcDbEntity
  8
Flansch KST 1101
  6
Continuous
 62
     7
100
AcDbText
 10
393.3130039890229
 20
26.55293103769424
 30
0.0
 40
2.5
  1
Blatt:
 41
0.5433577900895704
  7
VERO2-TXT
 72
     5
 11
398.3584691827118
 21
26.55293103769424
 31
0.0
100
AcDbText
  0
LINE
  5
196
330
125
100
AcDbEntity
  8
Flansch KST 1101
  6
Continuous
 62
   136
100
AcDbLine
 10
345.3399999999997
 20
15.30000000000002
 30
0.0
 11
345.3399999999997
 21
33.85000000000002
 31
0.0
  0
LINE
  5
197
330
125
100
AcDbEntity
  8
Flansch KST 1101
  6
Continuous
 62
   136
100
AcDbLine
 10
232.9799999999997
 20
24.57500000000001
 30
0.0
 11
345.3399999999997
 21
24.57500000000001
 31
0.0
  0
TEXT
  5
198
330
125
100
AcDbEntity
  8
Flansch KST 1101
  6
Continuous
 62
     7
100
AcDbText
 10
234.2578232329937
 20
26.02293103769424
 30
0.0
 40
2.5
  1
Sach-Nr.:LI
 41
0.6001636553346439
  7
VERO2-TXT
 72
     5
 11
246.9755768817516
 21
26.02293103769424
 31
0.0
100
AcDbText
  0
TEXT
  5
199
330
125
100
AcDbEntity
  8
Flansch KST 1101
  6
Continuous
 62
     7
100
AcDbText
 10
234.2575102854396
 20
16.74793103769423
 30
0.0
 40
2.5
  1
Sach-Nr.:RE
 41
0.6010859803511545
  7
VERO2-TXT
 72
     5
 11
248.2112919721629
 21
16.74793103769423
 31
0.0
100
AcDbText
  0
TEXT
  5
19A
330
125
100
AcDbEntity
  8
Flansch KST 1101
  6
Continuous
 62
     7
100
AcDbText
 10
328.242688179339
 20
54.7983045251266
 30
0.0
 40
3.0
  1
-
 41
0.9320283160460267
  7
VERO2-TXT
 72
     5
 11
331.1719200297694
 21
54.7983045251266
 31
0.0
100
AcDbText
  0
TEXT
  5
19B
330
125
100
AcDbEntity
  8
Flansch KST 1101
  6
Continuous
 62
     7
100
AcDbText
 10
171.3955791793389
 20
46.8246585251266
 30
0.0
 40
3.0
  1
-
 41
0.9320283160460267
  7
VERO2-TXT
 72
     5
 11
174.3248110297693
 21
46.8246585251266
 31
0.0
100
AcDbText
  0
LINE
  5
19C
330
125
100
AcDbEntity
  8
Flansch KST 1101
  6
Continuous
 62
     4
100
AcDbLine
 10
178.0879149999999
 20
83.22866800000001
 30
0.0
 11
219.5204529999999
 21
83.22866800000001
 31
0.0
  0
LINE
  5
19D
330
125
100
AcDbEntity
  8
Flansch KST 1101
  6
Continuous
 62
     4
100
AcDbLine
 10
177.7699149999998
 20
83.54666800000003
 30
0.0
 11
219.5204529999999
 21
83.54666800000003
 31
0.0
  0
LINE
  5
19E
330
125
100
AcDbEntity
  8
Flansch KST 1101
  6
Continuous
 62
     9
100
AcDbLine
 10
195.4103079999998
 20
86.10497600000001
 30
0.0
 11
195.4197079999998
 21
85.98826200000002
 31
0.0
  0
LINE
  5
19F
330
125
100
AcDbEntity
  8
Flansch KST 1101
  6
Continuous
 62
     4
100
AcDbLine
 10
164.2011729999998
 20
78.83995000000003
 30
0.0
 11
177.7699149999998
 21
78.83995000000003
 31
0.0
  0
LINE
  5
1A0
330
125
100
AcDbEntity
  8
Flansch KST 1101
  6
Continuous
 62
     4
100
AcDbLine
 10
177.7699149999998
 20
78.83995000000003
 30
0.0
 11
177.7699149999998
 21
83.54666800000003
 31
0.0
  0
LINE
  5
1A1
330
125
100
AcDbEntity
  8
Flansch KST 1101
  6
Continuous
 62
     4
100
AcDbLine
 10
178.0879149999999
 20
78.52195000000002
 30
0.0
 11
178.0879149999999
 21
83.22866800000001
 31
0.0
  0
LINE
  5
1A2
330
125
100
AcDbEntity
  8
Flansch KST 1101
  6
Continuous
 62
     4
100
AcDbLine
 10
164.2011729999998
 20
78.52195000000002
 30
0.0
 11
178.0879149999999
 21
78.52195000000002
 31
0.0
  0
LINE
  5
1A3
330
125
100
AcDbEntity
  8
Flansch KST 1101
  6
Continuous
 62
     4
100
AcDbLine
 10
219.5204529999999
 20
82.16368600000003
 30
0.0
 11
219.5204529999999
 21
83.22866800000001
 31
0.0
  0
LINE
  5
1A4
330
125
100
AcDbEntity
  8
Flansch KST 1101
  6
Continuous
 62
     4
100
AcDbLine
 10
164.2011729999998
 20
78.52195000000002
 30
0.0
 11
164.2011729999998
 21
78.83995000000003
 31
0.0
  0
LINE
  5
1A5
330
125
100
AcDbEntity
  8
Flansch KST 1101
  6
Continuous
 62
     4
100
AcDbLine
 10
219.5204529999999
 20
82.16368600000003
 30
0.0
 11
221.6404529999998
 21
83.387668
 31
0.0
  0
LINE
  5
1A6
330
125
100
AcDbEntity
  8
Flansch KST 1101
  6
Continuous
 62
     4
100
AcDbLine
 10
219.5204529999999
 20
84.61165100000002
 30
0.0
 11
221.6404529999998
 21
83.387668
 31
0.0
  0
LINE
  5
1A7
330
125
100
AcDbEntity
  8
Flansch KST 1101
  6
Continuous
 62
     4
100
AcDbLine
 10
219.5204529999999
 20
83.54666800000003
 30
0.0
 11
219.5204529999999
 21
84.61165100000002
 31
0.0
  0
LINE
  5
1A8
330
125
100
AcDbEntity
  8
Flansch KST 1101
  6
Continuous
 62
     4
100
AcDbLine
 10
173.0983889999997
 20
87.18723800000001
 30
0.0
 11
174.2546369999998
 21
87.18723800000001
 31
0.0
  0
LINE
  5
1A9
330
125
100
AcDbEntity
  8
Flansch KST 1101
  6
Continuous
 62
     4
100
AcDbLine
 10
173.0983889999997
 20
87.18723800000001
 30
0.0
 11
173.0983889999997
 21
87.22204600000003
 31
0.0
  0
LINE
  5
1AA
330
125
100
AcDbEntity
  8
Flansch KST 1101
  6
Continuous
 62
     4
100
AcDbLine
 10
173.0983889999997
 20
87.86712200000004
 30
0.0
 11
176.1398469999999
 21
87.86712200000004
 31
0.0
  0
LINE
  5
1AB
330
125
100
AcDbEntity
  8
Flansch KST 1101
  6
Continuous
 62
     4
100
AcDbLine
 10
176.1398469999999
 20
87.18723800000001
 30
0.0
 11
176.1398469999999
 21
87.86712200000004
 31
0.0
  0
LINE
  5
1AC
330
125
100
AcDbEntity
  8
Flansch KST 1101
  6
Continuous
 62
     4
100
AcDbLine
 10
174.9835989999998
 20
87.18723800000001
 30
0.0
 11
176.1398469999999
 21
87.18723800000001
 31
0.0
  0
LINE
  5
1AD
330
125
100
AcDbEntity
  8
Flansch KST 1101
  6
Continuous
 62
     4
100
AcDbLine
 10
174.9835989999998
 20
83.98572000000003
 30
0.0
 11
174.9835989999998
 21
87.18723800000001
 31
0.0
  0
LINE
  5
1AE
330
125
100
AcDbEntity
  8
Flansch KST 1101
  6
Continuous
 62
     4
100
AcDbLine
 10
174.2546369999998
 20
83.98572000000003
 30
0.0
 11
174.9835989999998
 21
83.98572000000003
 31
0.0
  0
LINE
  5
1AF
330
125
100
AcDbEntity
  8
Flansch KST 1101
  6
Continuous
 62
     4
100
AcDbLine
 10
174.2546369999998
 20
83.98572000000003
 30
0.0
 11
174.2546369999998
 21
87.18723800000001
 31
0.0
  0
LINE
  5
1B0
330
125
100
AcDbEntity
  8
Flansch KST 1101
  6
Continuous
 62
     4
100
AcDbLine
 10
172.0868309999999
 20
86.878248
 30
0.0
 11
172.4772699999998
 21
87.22204600000003
 31
0.0
  0
LINE
  5
1B1
330
125
100
AcDbEntity
  8
Flansch KST 1101
  6
Continuous
 62
     4
100
AcDbLine
 10
169.3029529999999
 20
84.62225000000002
 30
0.0
 11
169.8560609999998
 21
85.11059200000003
 31
0.0
  0
LINE
  5
1B2
330
125
100
AcDbEntity
  8
Flansch KST 1101
  6
Continuous
 62
     4
100
AcDbLine
 10
165.0488549999998
 20
85.635928
 30
0.0
 11
165.5201309999999
 21
85.635928
 31
0.0
  0
LINE
  5
1B3
330
125
100
AcDbEntity
  8
Flansch KST 1101
  6
Continuous
 62
     4
100
AcDbLine
 10
165.0488549999998
 20
85.635928
 30
0.0
 11
165.0488549999998
 21
86.00005900000004
 31
0.0
  0
LINE
  5
1B4
330
125
100
AcDbEntity
  8
Flansch KST 1101
  6
Continuous
 62
     4
100
AcDbLine
 10
165.0488549999998
 20
86.31581200000004
 30
0.0
 11
165.5201309999999
 21
86.31581200000004
 31
0.0
  0
LINE
  5
1B5
330
125
100
AcDbEntity
  8
Flansch KST 1101
  6
Continuous
 62
     4
100
AcDbLine
 10
165.5201309999999
 20
86.31581200000004
 30
0.0
 11
165.5201309999999
 21
87.86712200000004
 31
0.0
  0
LINE
  5
1B6
330
125
100
AcDbEntity
  8
Flansch KST 1101
  6
Continuous
 62
     4
100
AcDbLine
 10
165.5201309999999
 20
87.86712200000004
 30
0.0
 11
167.6251849999999
 21
87.86712200000004
 31
0.0
  0
LINE
  5
1B7
330
125
100
AcDbEntity
  8
Flansch KST 1101
  6
Continuous
 62
     4
100
AcDbLine
 10
168.7625649999998
 20
86.82874600000002
 30
0.0
 11
168.7594409999998
 21
86.75013900000002
 31
0.0
  0
LINE
  5
1B8
330
125
100
AcDbEntity
  8
Flansch KST 1101
  6
Continuous
 62
     4
100
AcDbLine
 10
165.5201309999999
 20
83.98572000000003
 30
0.0
 11
167.7697689999999
 21
83.98572000000003
 31
0.0
  0
LINE
  5
1B9
330
125
100
AcDbEntity
  8
Flansch KST 1101
  6
Continuous
 62
     4
100
AcDbLine
 10
165.5201309999999
 20
83.98572000000003
 30
0.0
 11
165.5201309999999
 21
85.635928
 31
0.0
  0
LINE
  5
1BA
330
125
100
AcDbEntity
  8
Flansch KST 1101
  6
Continuous
 62
     9
100
AcDbLine
 10
195.4210349999998
 20
85.92212800000003
 30
0.0
 11
195.4197079999998
 21
85.98826200000002
 31
0.0
  0
LINE
  5
1BB
330
125
100
AcDbEntity
  8
Flansch KST 1101
  6
Continuous
 62
     9
100
AcDbLine
 10
184.2130189999997
 20
85.92212800000003
 30
0.0
 11
184.2122719999999
 21
85.97193400000002
 31
0.0
  0
LINE
  5
1BC
330
125
100
AcDbEntity
  8
Flansch KST 1101
  6
Continuous
 62
     4
100
AcDbLine
 10
172.4772699999998
 20
87.22204600000003
 30
0.0
 11
173.0983889999997
 21
87.22204600000003
 31
0.0
  0
LINE
  5
1BD
330
125
100
AcDbEntity
  8
Flansch KST 1101
  6
Continuous
 62
     4
100
AcDbLine
 10
172.4893079999999
 20
87.23264600000002
 30
0.0
 11
173.0983889999997
 21
87.23264600000002
 31
0.0
  0
LINE
  5
1BE
330
125
100
AcDbEntity
  8
Flansch KST 1101
  6
Continuous
 62
     4
100
AcDbLine
 10
173.0983889999997
 20
87.23264600000002
 30
0.0
 11
173.0983889999997
 21
87.86712200000004
 31
0.0
  0
LINE
  5
1BF
330
125
100
AcDbEntity
  8
Flansch KST 1101
  6
Continuous
 62
     4
100
AcDbLine
 10
172.4893079999999
 20
87.23264600000002
 30
0.0
 11
172.6272189999998
 21
87.35408200000002
 31
0.0
  0
LINE
  5
1C0
330
125
100
AcDbEntity
  8
Flansch KST 1101
  6
Continuous
 62
     4
100
AcDbLine
 10
168.7594409999998
 20
86.75008400000002
 30
0.0
 11
169.4226459999999
 21
86.75008400000002
 31
0.0
  0
LINE
  5
1C1
330
125
100
AcDbEntity
  8
Flansch KST 1101
  6
Continuous
 62
     4
100
AcDbLine
 10
168.7585209999998
 20
86.73948400000002
 30
0.0
 11
169.4227459999997
 21
86.73948400000002
 31
0.0
  0
LINE
  5
1C2
330
125
100
AcDbEntity
  8
Flansch KST 1101
  6
Continuous
 62
     4
100
AcDbLine
 10
169.4224149999999
 20
86.77924400000002
 30
0.0
 11
169.4226459999999
 21
86.75008400000002
 31
0.0
  0
LINE
  5
1C3
330
125
100
AcDbEntity
  8
Flansch KST 1101
  6
Continuous
 62
     4
100
AcDbLine
 10
164.2066899999999
 20
86.00005900000004
 30
0.0
 11
165.0488549999998
 21
86.00005900000004
 31
0.0
  0
LINE
  5
1C4
330
125
100
AcDbEntity
  8
Flansch KST 1101
  6
Continuous
 62
     4
100
AcDbLine
 10
164.2068399999999
 20
86.01065900000003
 30
0.0
 11
165.0488549999998
 21
86.01065900000003
 31
0.0
  0
LINE
  5
1C5
330
125
100
AcDbEntity
  8
Flansch KST 1101
  6
Continuous
 62
     4
100
AcDbLine
 10
165.0488549999998
 20
86.01065900000003
 30
0.0
 11
165.0488549999998
 21
86.31581200000004
 31
0.0
  0
LINE
  5
1C6
330
125
100
AcDbEntity
  8
Flansch KST 1101
  6
Continuous
 62
     9
100
AcDbLine
 10
184.2122719999999
 20
85.97201500000003
 30
0.0
 11
184.5115829999998
 21
85.97201500000003
 31
0.0
  0
LINE
  5
1C7
330
125
100
AcDbEntity
  8
Flansch KST 1101
  6
Continuous
 62
     9
100
AcDbLine
 10
184.5115829999998
 20
85.97199100000002
 30
0.0
 11
184.5122569999998
 21
85.92212800000003
 31
0.0
  0
LINE
  5
1C8
330
125
100
AcDbEntity
  8
Flansch KST 1101
  6
Continuous
 62
     9
100
AcDbLine
 10
195.7190799999999
 20
85.98827600000001
 30
0.0
 11
195.7202729999998
 21
85.92212800000003
 31
0.0
  0
LINE
  5
1C9
330
125
100
AcDbEntity
  8
Flansch KST 1101
  6
Continuous
 62
     9
100
AcDbLine
 10
195.4103079999998
 20
86.10501300000003
 30
0.0
 11
195.7107709999999
 21
86.10501300000003
 31
0.0
  0
LINE
  5
1CA
330
125
100
AcDbEntity
  8
Flansch KST 1101
  6
Continuous
 62
     9
100
AcDbLine
 10
195.4197079999998
 20
85.98826200000002
 30
0.0
 11
195.7190799999999
 21
85.98827600000001
 31
0.0
  0
LINE
  5
1CB
330
125
100
AcDbEntity
  8
Flansch KST 1101
  6
Continuous
 62
     9
100
AcDbLine
 10
195.7107709999999
 20
86.10501200000002
 30
0.0
 11
195.7190799999999
 21
85.98827600000001
 31
0.0
  0
LINE
  5
1CC
330
125
100
AcDbEntity
  8
Flansch KST 1101
  6
Continuous
 62
     9
100
AcDbLine
 10
184.2042049999998
 20
86.08861500000002
 30
0.0
 11
184.5044359999999
 21
86.08861500000002
 31
0.0
  0
LINE
  5
1CD
330
125
100
AcDbEntity
  8
Flansch KST 1101
  6
Continuous
 62
     9
100
AcDbLine
 10
184.5044359999999
 20
86.08855300000003
 30
0.0
 11
184.5115829999998
 21
85.97199100000002
 31
0.0
  0
LINE
  5
1CE
330
125
100
AcDbEntity
  8
Flansch KST 1101
  6
Continuous
 62
     9
100
AcDbLine
 10
184.2042049999998
 20
86.08854900000003
 30
0.0
 11
184.2122719999999
 21
85.97193400000002
 31
0.0
  0
LINE
  5
1CF
330
125
100
AcDbEntity
  8
Flansch KST 1101
  6
Continuous
 62
     9
100
AcDbLine
 10
192.2591609999999
 20
87.92258000000004
 30
0.0
 11
192.5324289999999
 21
87.92258000000004
 31
0.0
  0
LINE
  5
1D0
330
125
100
AcDbEntity
  8
Flansch KST 1101
  6
Continuous
 62
     4
100
AcDbLine
 10
164.2011729999998
 20
78.82195000000002
 30
0.0
 11
178.0879149999999
 21
78.82195000000002
 31
0.0
  0
LINE
  5
1D1
330
125
100
AcDbEntity
  8
Flansch KST 1101
  6
Continuous
 62
     4
100
AcDbLine
 10
177.7699149999998
 20
79.12195000000001
 30
0.0
 11
178.0879149999999
 21
79.12195000000001
 31
0.0
  0
LINE
  5
1D2
330
125
100
AcDbEntity
  8
Flansch KST 1101
  6
Continuous
 62
     4
100
AcDbLine
 10
177.7699149999998
 20
79.42195000000004
 30
0.0
 11
178.0879149999999
 21
79.42195000000004
 31
0.0
  0
LINE
  5
1D3
330
125
100
AcDbEntity
  8
Flansch KST 1101
  6
Continuous
 62
     4
100
AcDbLine
 10
177.7699149999998
 20
79.72195000000002
 30
0.0
 11
178.0879149999999
 21
79.72195000000002
 31
0.0
  0
LINE
  5
1D4
330
125
100
AcDbEntity
  8
Flansch KST 1101
  6
Continuous
 62
     4
100
AcDbLine
 10
177.7699149999998
 20
80.02195000000002
 30
0.0
 11
178.0879149999999
 21
80.02195000000002
 31
0.0
  0
LINE
  5
1D5
330
125
100
AcDbEntity
  8
Flansch KST 1101
  6
Continuous
 62
     4
100
AcDbLine
 10
177.7699149999998
 20
80.32195000000002
 30
0.0
 11
178.0879149999999
 21
80.32195000000002
 31
0.0
  0
LINE
  5
1D6
330
125
100
AcDbEntity
  8
Flansch KST 1101
  6
Continuous
 62
     4
100
AcDbLine
 10
177.7699149999998
 20
80.62195000000001
 30
0.0
 11
178.0879149999999
 21
80.62195000000001
 31
0.0
  0
LINE
  5
1D7
330
125
100
AcDbEntity
  8
Flansch KST 1101
  6
Continuous
 62
     4
100
AcDbLine
 10
177.7699149999998
 20
80.92195000000004
 30
0.0
 11
178.0879149999999
 21
80.92195000000004
 31
0.0
  0
LINE
  5
1D8
330
125
100
AcDbEntity
  8
Flansch KST 1101
  6
Continuous
 62
     4
100
AcDbLine
 10
177.7699149999998
 20
81.22195000000004
 30
0.0
 11
178.0879149999999
 21
81.22195000000004
 31
0.0
  0
LINE
  5
1D9
330
125
100
AcDbEntity
  8
Flansch KST 1101
  6
Continuous
 62
     4
100
AcDbLine
 10
177.7699149999998
 20
81.52195000000002
 30
0.0
 11
178.0879149999999
 21
81.52195000000002
 31
0.0
  0
LINE
  5
1DA
330
125
100
AcDbEntity
  8
Flansch KST 1101
  6
Continuous
 62
     4
100
AcDbLine
 10
177.7699149999998
 20
81.82195000000002
 30
0.0
 11
178.0879149999999
 21
81.82195000000002
 31
0.0
  0
LINE
  5
1DB
330
125
100
AcDbEntity
  8
Flansch KST 1101
  6
Continuous
 62
     4
100
AcDbLine
 10
177.7699149999998
 20
82.12195000000001
 30
0.0
 11
178.0879149999999
 21
82.12195000000001
 31
0.0
  0
LINE
  5
1DC
330
125
100
AcDbEntity
  8
Flansch KST 1101
  6
Continuous
 62
     4
100
AcDbLine
 10
177.7699149999998
 20
82.42195000000004
 30
0.0
 11
178.0879149999999
 21
82.42195000000004
 31
0.0
  0
LINE
  5
1DD
330
125
100
AcDbEntity
  8
Flansch KST 1101
  6
Continuous
 62
     4
100
AcDbLine
 10
219.5204529999999
 20
82.42195000000004
 30
0.0
 11
219.9677799999997
 21
82.42195000000004
 31
0.0
  0
LINE
  5
1DE
330
125
100
AcDbEntity
  8
Flansch KST 1101
  6
Continuous
 62
     4
100
AcDbLine
 10
177.7699149999998
 20
82.72195000000004
 30
0.0
 11
178.0879149999999
 21
82.72195000000004
 31
0.0
  0
LINE
  5
1DF
330
125
100
AcDbEntity
  8
Flansch KST 1101
  6
Continuous
 62
     4
100
AcDbLine
 10
219.5204529999999
 20
82.72195000000004
 30
0.0
 11
220.4873959999998
 21
82.72195000000004
 31
0.0
  0
LINE
  5
1E0
330
125
100
AcDbEntity
  8
Flansch KST 1101
  6
Continuous
 62
     4
100
AcDbLine
 10
177.7699149999998
 20
83.02195000000002
 30
0.0
 11
178.0879149999999
 21
83.02195000000002
 31
0.0
  0
LINE
  5
1E1
330
125
100
AcDbEntity
  8
Flansch KST 1101
  6
Continuous
 62
     4
100
AcDbLine
 10
219.5204529999999
 20
83.02195000000002
 30
0.0
 11
221.0070109999997
 21
83.02195000000002
 31
0.0
  0
LINE
  5
1E2
330
125
100
AcDbEntity
  8
Flansch KST 1101
  6
Continuous
 62
     4
100
AcDbLine
 10
177.7699149999998
 20
83.32195000000002
 30
0.0
 11
221.5266259999997
 21
83.32195000000002
 31
0.0
  0
LINE
  5
1E3
330
125
100
AcDbEntity
  8
Flansch KST 1101
  6
Continuous
 62
     4
100
AcDbLine
 10
219.5204529999999
 20
83.62195000000001
 30
0.0
 11
221.2346649999999
 21
83.62195000000001
 31
0.0
  0
LINE
  5
1E4
330
125
100
AcDbEntity
  8
Flansch KST 1101
  6
Continuous
 62
     4
100
AcDbLine
 10
219.5204529999999
 20
83.92195000000004
 30
0.0
 11
220.7150489999998
 21
83.92195000000004
 31
0.0
  0
LINE
  5
1E5
330
125
100
AcDbEntity
  8
Flansch KST 1101
  6
Continuous
 62
     4
100
AcDbLine
 10
219.5204529999999
 20
84.22195000000004
 30
0.0
 11
220.1954339999999
 21
84.22195000000004
 31
0.0
  0
LINE
  5
1E6
330
125
100
AcDbEntity
  8
Flansch KST 1101
  6
Continuous
 62
     4
100
AcDbLine
 10
219.5204529999999
 20
84.52195000000003
 30
0.0
 11
219.6758189999999
 21
84.52195000000003
 31
0.0
  0
LINE
  5
1E7
330
125
100
AcDbEntity
  8
Flansch KST 1101
  6
Continuous
 62
     9
100
AcDbLine
 10
179.7756969999998
 20
85.06089800000004
 30
0.0
 11
180.1231519999998
 21
85.06089800000004
 31
0.0
  0
LINE
  5
1E8
330
125
100
AcDbEntity
  8
Flansch KST 1101
  6
Continuous
 62
     9
100
AcDbLine
 10
180.7329989999998
 20
85.06089800000004
 30
0.0
 11
181.2316199999998
 21
85.06089800000004
 31
0.0
  0
LINE
  5
1E9
330
125
100
AcDbEntity
  8
Flansch KST 1101
  6
Continuous
 62
     9
100
AcDbLine
 10
181.0877429999997
 20
85.36089800000003
 30
0.0
 11
181.4037119999998
 21
85.36089800000003
 31
0.0
  0
LINE
  5
1EA
330
125
100
AcDbEntity
  8
Flansch KST 1101
  6
Continuous
 62
     9
100
AcDbLine
 10
181.1390649999998
 20
85.66089800000003
 30
0.0
 11
181.4361089999998
 21
85.66089800000003
 31
0.0
  0
LINE
  5
1EB
330
125
100
AcDbEntity
  8
Flansch KST 1101
  6
Continuous
 62
     9
100
AcDbLine
 10
180.9722899999998
 20
85.96089800000003
 30
0.0
 11
181.3546659999998
 21
85.96089800000003
 31
0.0
  0
LINE
  5
1EC
330
125
100
AcDbEntity
  8
Flansch KST 1101
  6
Continuous
 62
     9
100
AcDbLine
 10
180.5190669999999
 20
86.26089800000001
 30
0.0
 11
181.0869939999998
 21
86.26089800000001
 31
0.0
  0
LINE
  5
1ED
330
125
100
AcDbEntity
  8
Flansch KST 1101
  6
Continuous
 62
     9
100
AcDbLine
 10
180.0499919999998
 20
86.56089800000004
 30
0.0
 11
180.5815399999998
 21
86.56089800000004
 31
0.0
  0
LINE
  5
1EE
330
125
100
AcDbEntity
  8
Flansch KST 1101
  6
Continuous
 62
     9
100
AcDbLine
 10
179.8130209999998
 20
86.86089800000003
 30
0.0
 11
180.1628299999998
 21
86.86089800000003
 31
0.0
  0
LINE
  5
1EF
330
125
100
AcDbEntity
  8
Flansch KST 1101
  6
Continuous
 62
     9
100
AcDbLine
 10
179.7595209999998
 20
87.16089800000003
 30
0.0
 11
180.0576789999998
 21
87.16089800000003
 31
0.0
  0
LINE
  5
1F0
330
125
100
AcDbEntity
  8
Flansch KST 1101
  6
Continuous
 62
     9
100
AcDbLine
 10
179.8413949999998
 20
87.46089800000003
 30
0.0
 11
180.1844749999998
 21
87.46089800000003
 31
0.0
  0
LINE
  5
1F1
330
125
100
AcDbEntity
  8
Flansch KST 1101
  6
Continuous
 62
     9
100
AcDbLine
 10
180.1457319999998
 20
87.76089800000001
 30
0.0
 11
181.3000539999998
 21
87.76089800000001
 31
0.0
  0
LINE
  5
1F2
330
125
100
AcDbEntity
  8
Flansch KST 1101
  6
Continuous
 62
     9
100
AcDbLine
 10
185.6315109999998
 20
85.113156
 30
0.0
 11
185.9047789999998
 21
85.113156
 31
0.0
  0
LINE
  5
1F3
330
125
100
AcDbEntity
  8
Flansch KST 1101
  6
Continuous
 62
     9
100
AcDbLine
 10
185.6315109999998
 20
85.41315600000003
 30
0.0
 11
185.9047789999998
 21
85.41315600000003
 31
0.0
  0
LINE
  5
1F4
330
125
100
AcDbEntity
  8
Flansch KST 1101
  6
Continuous
 62
     9
100
AcDbLine
 10
185.6315109999998
 20
85.71315600000003
 30
0.0
 11
185.9047789999998
 21
85.71315600000003
 31
0.0
  0
LINE
  5
1F5
330
125
100
AcDbEntity
  8
Flansch KST 1101
  6
Continuous
 62
     9
100
AcDbLine
 10
185.6315109999998
 20
86.01315600000002
 30
0.0
 11
185.9047789999998
 21
86.01315600000002
 31
0.0
  0
LINE
  5
1F6
330
125
100
AcDbEntity
  8
Flansch KST 1101
  6
Continuous
 62
     9
100
AcDbLine
 10
185.6315109999998
 20
86.31315600000002
 30
0.0
 11
185.9047789999998
 21
86.31315600000002
 31
0.0
  0
LINE
  5
1F7
330
125
100
AcDbEntity
  8
Flansch KST 1101
  6
Continuous
 62
     9
100
AcDbLine
 10
185.6315109999998
 20
86.613156
 30
0.0
 11
185.9047789999998
 21
86.613156
 31
0.0
  0
LINE
  5
1F8
330
125
100
AcDbEntity
  8
Flansch KST 1101
  6
Continuous
 62
     9
100
AcDbLine
 10
185.6315109999998
 20
86.91315600000003
 30
0.0
 11
185.9047789999998
 21
86.91315600000003
 31
0.0
  0
LINE
  5
1F9
330
125
100
AcDbEntity
  8
Flansch KST 1101
  6
Continuous
 62
     9
100
AcDbLine
 10
185.6315109999998
 20
87.21315600000003
 30
0.0
 11
185.9047789999998
 21
87.21315600000003
 31
0.0
  0
LINE
  5
1FA
330
125
100
AcDbEntity
  8
Flansch KST 1101
  6
Continuous
 62
     9
100
AcDbLine
 10
185.6315109999998
 20
87.51315600000002
 30
0.0
 11
185.9047789999998
 21
87.51315600000002
 31
0.0
  0
LINE
  5
1FB
330
125
100
AcDbEntity
  8
Flansch KST 1101
  6
Continuous
 62
     9
100
AcDbLine
 10
185.6315109999998
 20
87.81315600000002
 30
0.0
 11
185.9047789999998
 21
87.81315600000002
 31
0.0
  0
LINE
  5
1FC
330
125
100
AcDbEntity
  8
Flansch KST 1101
  6
Continuous
 62
     9
100
AcDbLine
 10
187.3369499999998
 20
85.06089800000004
 30
0.0
 11
187.7215329999998
 21
85.06089800000004
 31
0.0
  0
LINE
  5
1FD
330
125
100
AcDbEntity
  8
Flansch KST 1101
  6
Continuous
 62
     9
100
AcDbLine
 10
188.2949199999998
 20
85.06089800000004
 30
0.0
 11
188.5857639999998
 21
85.06089800000004
 31
0.0
  0
LINE
  5
1FE
330
125
100
AcDbEntity
  8
Flansch KST 1101
  6
Continuous
 62
     9
100
AcDbLine
 10
188.6763609999998
 20
85.06089800000004
 30
0.0
 11
188.9263129999999
 21
85.06089800000004
 31
0.0
  0
LINE
  5
1FF
330
125
100
AcDbEntity
  8
Flansch KST 1101
  6
Continuous
 62
     9
100
AcDbLine
 10
187.2227899999999
 20
85.36089800000003
 30
0.0
 11
187.5102679999998
 21
85.36089800000003
 31
0.0
  0
LINE
  5
200
330
125
100
AcDbEntity
  8
Flansch KST 1101
  6
Continuous
 62
     9
100
AcDbLine
 10
188.5584929999998
 20
85.36089800000003
 30
0.0
 11
188.9235529999999
 21
85.36089800000003
 31
0.0
  0
LINE
  5
201
330
125
100
AcDbEntity
  8
Flansch KST 1101
  6
Continuous
 62
     9
100
AcDbLine
 10
187.1973429999998
 20
85.66089800000003
 30
0.0
 11
187.4716879999998
 21
85.66089800000003
 31
0.0
  0
LINE
  5
202
330
125
100
AcDbEntity
  8
Flansch KST 1101
  6
Continuous
 62
     9
100
AcDbLine
 10
188.6411729999998
 20
85.66089800000003
 30
0.0
 11
188.9235529999999
 21
85.66089800000003
 31
0.0
  0
LINE
  5
203
330
125
100
AcDbEntity
  8
Flansch KST 1101
  6
Continuous
 62
     9
100
AcDbLine
 10
187.1973429999998
 20
85.96089800000003
 30
0.0
 11
187.4706109999998
 21
85.96089800000003
 31
0.0
  0
LINE
  5
204
330
125
100
AcDbEntity
  8
Flansch KST 1101
  6
Continuous
 62
     9
100
AcDbLine
 10
188.6502849999998
 20
85.96089800000003
 30
0.0
 11
188.9235529999999
 21
85.96089800000003
 31
0.0
  0
LINE
  5
205
330
125
100
AcDbEntity
  8
Flansch KST 1101
  6
Continuous
 62
     9
100
AcDbLine
 10
187.1973429999998
 20
86.26089800000001
 30
0.0
 11
187.4706109999998
 21
86.26089800000001
 31
0.0
  0
LINE
  5
206
330
125
100
AcDbEntity
  8
Flansch KST 1101
  6
Continuous
 62
     9
100
AcDbLine
 10
188.6502849999998
 20
86.26089800000001
 30
0.0
 11
188.9235529999999
 21
86.26089800000001
 31
0.0
  0
LINE
  5
207
330
125
100
AcDbEntity
  8
Flansch KST 1101
  6
Continuous
 62
     9
100
AcDbLine
 10
187.1973429999998
 20
86.56089800000004
 30
0.0
 11
187.4706109999998
 21
86.56089800000004
 31
0.0
  0
LINE
  5
208
330
125
100
AcDbEntity
  8
Flansch KST 1101
  6
Continuous
 62
     9
100
AcDbLine
 10
188.6502849999998
 20
86.56089800000004
 30
0.0
 11
188.9235529999999
 21
86.56089800000004
 31
0.0
  0
LINE
  5
209
330
125
100
AcDbEntity
  8
Flansch KST 1101
  6
Continuous
 62
     9
100
AcDbLine
 10
187.1973429999998
 20
86.86089800000003
 30
0.0
 11
187.4706109999998
 21
86.86089800000003
 31
0.0
  0
LINE
  5
20A
330
125
100
AcDbEntity
  8
Flansch KST 1101
  6
Continuous
 62
     9
100
AcDbLine
 10
188.6502849999998
 20
86.86089800000003
 30
0.0
 11
188.9235529999999
 21
86.86089800000003
 31
0.0
  0
LINE
  5
20B
330
125
100
AcDbEntity
  8
Flansch KST 1101
  6
Continuous
 62
     9
100
AcDbLine
 10
190.4348989999998
 20
85.06089800000004
 30
0.0
 11
190.7602929999998
 21
85.06089800000004
 31
0.0
  0
LINE
  5
20C
330
125
100
AcDbEntity
  8
Flansch KST 1101
  6
Continuous
 62
     9
100
AcDbLine
 10
190.3940089999998
 20
85.36089800000003
 30
0.0
 11
190.662916
 21
85.36089800000003
 31
0.0
  0
LINE
  5
20D
330
125
100
AcDbEntity
  8
Flansch KST 1101
  6
Continuous
 62
     9
100
AcDbLine
 10
190.3897449999998
 20
85.66089800000003
 30
0.0
 11
190.6629069999996
 21
85.66089800000003
 31
0.0
  0
LINE
  5
20E
330
125
100
AcDbEntity
  8
Flansch KST 1101
  6
Continuous
 62
     9
100
AcDbLine
 10
190.3897449999998
 20
85.96089800000003
 30
0.0
 11
190.6629069999996
 21
85.96089800000003
 31
0.0
  0
LINE
  5
20F
330
125
100
AcDbEntity
  8
Flansch KST 1101
  6
Continuous
 62
     9
100
AcDbLine
 10
190.3897449999998
 20
86.26089800000001
 30
0.0
 11
190.6629069999996
 21
86.26089800000001
 31
0.0
  0
LINE
  5
210
330
125
100
AcDbEntity
  8
Flansch KST 1101
  6
Continuous
 62
     9
100
AcDbLine
 10
190.3897449999998
 20
86.56089800000004
 30
0.0
 11
190.6629069999996
 21
86.56089800000004
 31
0.0
  0
LINE
  5
211
330
125
100
AcDbEntity
  8
Flansch KST 1101
  6
Continuous
 62
     9
100
AcDbLine
 10
189.9558869999998
 20
86.86089800000003
 30
0.0
 11
191.1659829999999
 21
86.86089800000003
 31
0.0
  0
LINE
  5
212
330
125
100
AcDbEntity
  8
Flansch KST 1101
  6
Continuous
 62
     9
100
AcDbLine
 10
190.3897449999998
 20
87.16089800000003
 30
0.0
 11
190.6629069999996
 21
87.16089800000003
 31
0.0
  0
LINE
  5
213
330
125
100
AcDbEntity
  8
Flansch KST 1101
  6
Continuous
 62
     9
100
AcDbLine
 10
190.3897449999998
 20
87.46089800000003
 30
0.0
 11
190.6629069999996
 21
87.46089800000003
 31
0.0
  0
LINE
  5
214
330
125
100
AcDbEntity
  8
Flansch KST 1101
  6
Continuous
 62
     9
100
AcDbLine
 10
192.2591609999999
 20
85.113156
 30
0.0
 11
192.5324289999999
 21
85.113156
 31
0.0
  0
LINE
  5
215
330
125
100
AcDbEntity
  8
Flansch KST 1101
  6
Continuous
 62
     9
100
AcDbLine
 10
192.2591609999999
 20
85.41315600000003
 30
0.0
 11
192.5324289999999
 21
85.41315600000003
 31
0.0
  0
LINE
  5
216
330
125
100
AcDbEntity
  8
Flansch KST 1101
  6
Continuous
 62
     9
100
AcDbLine
 10
192.2591609999999
 20
85.71315600000003
 30
0.0
 11
192.5324289999999
 21
85.71315600000003
 31
0.0
  0
LINE
  5
217
330
125
100
AcDbEntity
  8
Flansch KST 1101
  6
Continuous
 62
     9
100
AcDbLine
 10
192.2591609999999
 20
86.01315600000002
 30
0.0
 11
192.5324289999999
 21
86.01315600000002
 31
0.0
  0
LINE
  5
218
330
125
100
AcDbEntity
  8
Flansch KST 1101
  6
Continuous
 62
     9
100
AcDbLine
 10
192.2591609999999
 20
86.31315600000002
 30
0.0
 11
192.5324289999999
 21
86.31315600000002
 31
0.0
  0
LINE
  5
219
330
125
100
AcDbEntity
  8
Flansch KST 1101
  6
Continuous
 62
     9
100
AcDbLine
 10
192.2591609999999
 20
86.613156
 30
0.0
 11
192.5324289999999
 21
86.613156
 31
0.0
  0
LINE
  5
21A
330
125
100
AcDbEntity
  8
Flansch KST 1101
  6
Continuous
 62
     9
100
AcDbLine
 10
192.2591609999999
 20
86.91315600000003
 30
0.0
 11
192.5324289999999
 21
86.91315600000003
 31
0.0
  0
LINE
  5
21B
330
125
100
AcDbEntity
  8
Flansch KST 1101
  6
Continuous
 62
     9
100
AcDbLine
 10
196.8395269999999
 20
85.113156
 30
0.0
 11
197.1127949999998
 21
85.113156
 31
0.0
  0
LINE
  5
21C
330
125
100
AcDbEntity
  8
Flansch KST 1101
  6
Continuous
 62
     9
100
AcDbLine
 10
198.2924689999999
 20
85.113156
 30
0.0
 11
198.5657369999998
 21
85.113156
 31
0.0
  0
LINE
  5
21D
330
125
100
AcDbEntity
  8
Flansch KST 1101
  6
Continuous
 62
     9
100
AcDbLine
 10
196.8395269999999
 20
85.41315600000003
 30
0.0
 11
197.1127949999998
 21
85.41315600000003
 31
0.0
  0
LINE
  5
21E
330
125
100
AcDbEntity
  8
Flansch KST 1101
  6
Continuous
 62
     9
100
AcDbLine
 10
198.2924689999999
 20
85.41315600000003
 30
0.0
 11
198.5657369999998
 21
85.41315600000003
 31
0.0
  0
LINE
  5
21F
330
125
100
AcDbEntity
  8
Flansch KST 1101
  6
Continuous
 62
     9
100
AcDbLine
 10
196.8395269999999
 20
85.71315600000003
 30
0.0
 11
197.1127949999998
 21
85.71315600000003
 31
0.0
  0
LINE
  5
220
330
125
100
AcDbEntity
  8
Flansch KST 1101
  6
Continuous
 62
     9
100
AcDbLine
 10
198.2924689999999
 20
85.71315600000003
 30
0.0
 11
198.5657369999998
 21
85.71315600000003
 31
0.0
  0
LINE
  5
221
330
125
100
AcDbEntity
  8
Flansch KST 1101
  6
Continuous
 62
     9
100
AcDbLine
 10
196.8395269999999
 20
86.01315600000002
 30
0.0
 11
197.1127949999998
 21
86.01315600000002
 31
0.0
  0
LINE
  5
222
330
125
100
AcDbEntity
  8
Flansch KST 1101
  6
Continuous
 62
     9
100
AcDbLine
 10
198.2924689999999
 20
86.01315600000002
 30
0.0
 11
198.5657369999998
 21
86.01315600000002
 31
0.0
  0
LINE
  5
223
330
125
100
AcDbEntity
  8
Flansch KST 1101
  6
Continuous
 62
     9
100
AcDbLine
 10
196.8395269999999
 20
86.31315600000002
 30
0.0
 11
197.1465229999998
 21
86.31315600000002
 31
0.0
  0
LINE
  5
224
330
125
100
AcDbEntity
  8
Flansch KST 1101
  6
Continuous
 62
     9
100
AcDbLine
 10
198.2850339999997
 20
86.31315600000002
 30
0.0
 11
198.5606309999999
 21
86.31315600000002
 31
0.0
  0
LINE
  5
225
330
125
100
AcDbEntity
  8
Flansch KST 1101
  6
Continuous
 62
     9
100
AcDbLine
 10
196.8395269999999
 20
86.613156
 30
0.0
 11
197.2780809999999
 21
86.613156
 31
0.0
  0
LINE
  5
226
330
125
100
AcDbEntity
  8
Flansch KST 1101
  6
Continuous
 62
     9
100
AcDbLine
 10
198.2015379999997
 20
86.613156
 30
0.0
 11
198.5073309999999
 21
86.613156
 31
0.0
  0
LINE
  5
227
330
125
100
AcDbEntity
  8
Flansch KST 1101
  6
Continuous
 62
     9
100
AcDbLine
 10
196.8353729999999
 20
86.91315600000003
 30
0.0
 11
197.0867189999998
 21
86.91315600000003
 31
0.0
  0
LINE
  5
228
330
125
100
AcDbEntity
  8
Flansch KST 1101
  6
Continuous
 62
     9
100
AcDbLine
 10
197.2909139999999
 20
86.91315600000003
 30
0.0
 11
198.3186979999998
 21
86.91315600000003
 31
0.0
  0
LINE
  5
229
330
125
100
AcDbEntity
  8
Flansch KST 1101
  6
Continuous
 62
     9
100
AcDbLine
 10
199.6808739999998
 20
85.06089800000004
 30
0.0
 11
199.8689699999998
 21
85.06089800000004
 31
0.0
  0
LINE
  5
22A
330
125
100
AcDbEntity
  8
Flansch KST 1101
  6
Continuous
 62
     9
100
AcDbLine
 10
200.5474859999998
 20
85.06089800000004
 30
0.0
 11
200.9575269999999
 21
85.06089800000004
 31
0.0
  0
LINE
  5
22B
330
125
100
AcDbEntity
  8
Flansch KST 1101
  6
Continuous
 62
     9
100
AcDbLine
 10
200.7488289999997
 20
85.36089800000003
 30
0.0
 11
201.0481119999998
 21
85.36089800000003
 31
0.0
  0
LINE
  5
22C
330
125
100
AcDbEntity
  8
Flansch KST 1101
  6
Continuous
 62
     9
100
AcDbLine
 10
200.6159309999998
 20
85.66089800000003
 30
0.0
 11
201.0070949999998
 21
85.66089800000003
 31
0.0
  0
LINE
  5
22D
330
125
100
AcDbEntity
  8
Flansch KST 1101
  6
Continuous
 62
     9
100
AcDbLine
 10
200.0923249999997
 20
85.96089800000003
 30
0.0
 11
200.6555779999997
 21
85.96089800000003
 31
0.0
  0
LINE
  5
22E
330
125
100
AcDbEntity
  8
Flansch KST 1101
  6
Continuous
 62
     9
100
AcDbLine
 10
199.7454309999997
 20
86.26089800000001
 30
0.0
 11
200.1235729999999
 21
86.26089800000001
 31
0.0
  0
LINE
  5
22F
330
125
100
AcDbEntity
  8
Flansch KST 1101
  6
Continuous
 62
     9
100
AcDbLine
 10
199.696629
 20
86.56089800000004
 30
0.0
 11
199.9693549999999
 21
86.56089800000004
 31
0.0
  0
LINE
  5
230
330
125
100
AcDbEntity
  8
Flansch KST 1101
  6
Continuous
 62
     9
100
AcDbLine
 10
199.8165049999998
 20
86.86089800000003
 30
0.0
 11
200.9424329999998
 21
86.86089800000003
 31
0.0
  0
LINE
  5
231
330
125
100
AcDbEntity
  8
Flansch KST 1101
  6
Continuous
 62
     4
100
AcDbLine
 10
168.6496739999999
 20
80.03331400000003
 30
0.0
 11
172.3661279999998
 21
80.03331400000003
 31
0.0
  0
LINE
  5
232
330
125
100
AcDbEntity
  8
Flansch KST 1101
  6
Continuous
 62
     4
100
AcDbLine
 10
167.9360249999998
 20
80.33331400000003
 30
0.0
 11
173.1342879999997
 21
80.33331400000003
 31
0.0
  0
LINE
  5
233
330
125
100
AcDbEntity
  8
Flansch KST 1101
  6
Continuous
 62
     4
100
AcDbLine
 10
167.2558899999999
 20
80.63331400000003
 30
0.0
 11
173.7695719999999
 21
80.63331400000003
 31
0.0
  0
LINE
  5
234
330
125
100
AcDbEntity
  8
Flansch KST 1101
  6
Continuous
 62
     4
100
AcDbLine
 10
166.8669819999997
 20
80.93331400000002
 30
0.0
 11
174.1800059999998
 21
80.93331400000002
 31
0.0
  0
LINE
  5
235
330
125
100
AcDbEntity
  8
Flansch KST 1101
  6
Continuous
 62
     4
100
AcDbLine
 10
166.4780749999999
 20
81.23331400000002
 30
0.0
 11
174.5904399999998
 21
81.23331400000002
 31
0.0
  0
LINE
  5
236
330
125
100
AcDbEntity
  8
Flansch KST 1101
  6
Continuous
 62
     4
100
AcDbLine
 10
166.0891669999997
 20
81.53331400000003
 30
0.0
 11
174.9755589999998
 21
81.53331400000003
 31
0.0
  0
LINE
  5
237
330
125
100
AcDbEntity
  8
Flansch KST 1101
  6
Continuous
 62
     4
100
AcDbLine
 10
165.8235289999999
 20
81.83331400000003
 30
0.0
 11
175.2171729999998
 21
81.83331400000003
 31
0.0
  0
LINE
  5
238
330
125
100
AcDbEntity
  8
Flansch KST 1101
  6
Continuous
 62
     4
100
AcDbLine
 10
165.5945869999998
 20
82.13331400000003
 30
0.0
 11
175.4587869999998
 21
82.13331400000003
 31
0.0
  0
LINE
  5
239
330
125
100
AcDbEntity
  8
Flansch KST 1101
  6
Continuous
 62
     4
100
AcDbLine
 10
165.3656439999997
 20
82.43331400000002
 30
0.0
 11
175.7004019999998
 21
82.43331400000002
 31
0.0
  0
LINE
  5
23A
330
125
100
AcDbEntity
  8
Flansch KST 1101
  6
Continuous
 62
     4
100
AcDbLine
 10
165.1367019999998
 20
82.73331400000002
 30
0.0
 11
175.9420159999998
 21
82.73331400000002
 31
0.0
  0
LINE
  5
23B
330
125
100
AcDbEntity
  8
Flansch KST 1101
  6
Continuous
 62
     4
100
AcDbLine
 10
164.9565099999999
 20
83.033314
 30
0.0
 11
176.0822769999998
 21
83.033314
 31
0.0
  0
LINE
  5
23C
330
125
100
AcDbEntity
  8
Flansch KST 1101
  6
Continuous
 62
     4
100
AcDbLine
 10
164.8341839999998
 20
83.33331400000003
 30
0.0
 11
176.2139459999999
 21
83.33331400000003
 31
0.0
  0
LINE
  5
23D
330
125
100
AcDbEntity
  8
Flansch KST 1101
  6
Continuous
 62
     4
100
AcDbLine
 10
164.7118579999998
 20
83.63331400000003
 30
0.0
 11
176.3456149999998
 21
83.63331400000003
 31
0.0
  0
LINE
  5
23E
330
125
100
AcDbEntity
  8
Flansch KST 1101
  6
Continuous
 62
     4
100
AcDbLine
 10
164.5895329999998
 20
83.93331400000002
 30
0.0
 11
170.6428959999998
 21
83.93331400000002
 31
0.0
  0
LINE
  5
23F
330
125
100
AcDbEntity
  8
Flansch KST 1101
  6
Continuous
 62
     4
100
AcDbLine
 10
171.3667609999998
 20
83.93331400000002
 30
0.0
 11
176.4772849999998
 21
83.93331400000002
 31
0.0
  0
LINE
  5
240
330
125
100
AcDbEntity
  8
Flansch KST 1101
  6
Continuous
 62
     4
100
AcDbLine
 10
164.4672069999998
 20
84.23331400000002
 30
0.0
 11
165.5201309999999
 21
84.23331400000002
 31
0.0
  0
LINE
  5
241
330
125
100
AcDbEntity
  8
Flansch KST 1101
  6
Continuous
 62
     4
100
AcDbLine
 10
168.5603839999998
 20
84.23331400000002
 30
0.0
 11
169.7896569999998
 21
84.23331400000002
 31
0.0
  0
LINE
  5
242
330
125
100
AcDbEntity
  8
Flansch KST 1101
  6
Continuous
 62
     4
100
AcDbLine
 10
172.1745499999998
 20
84.23331400000002
 30
0.0
 11
174.2546369999998
 21
84.23331400000002
 31
0.0
  0
LINE
  5
243
330
125
100
AcDbEntity
  8
Flansch KST 1101
  6
Continuous
 62
     4
100
AcDbLine
 10
174.9835989999998
 20
84.23331400000002
 30
0.0
 11
176.6089539999998
 21
84.23331400000002
 31
0.0
  0
LINE
  5
244
330
125
100
AcDbEntity
  8
Flansch KST 1101
  6
Continuous
 62
     4
100
AcDbLine
 10
164.3841989999998
 20
84.53331400000002
 30
0.0
 11
165.5201309999999
 21
84.53331400000002
 31
0.0
  0
LINE
  5
245
330
125
100
AcDbEntity
  8
Flansch KST 1101
  6
Continuous
 62
     4
100
AcDbLine
 10
168.8321789999998
 20
84.53331400000002
 30
0.0
 11
169.3974869999999
 21
84.53331400000002
 31
0.0
  0
LINE
  5
246
330
125
100
AcDbEntity
  8
Flansch KST 1101
  6
Continuous
 62
     4
100
AcDbLine
 10
172.5041479999998
 20
84.53331400000002
 30
0.0
 11
174.2546369999998
 21
84.53331400000002
 31
0.0
  0
LINE
  5
247
330
125
100
AcDbEntity
  8
Flansch KST 1101
  6
Continuous
 62
     4
100
AcDbLine
 10
174.9835989999998
 20
84.53331400000002
 30
0.0
 11
176.6555299999998
 21
84.53331400000002
 31
0.0
  0
LINE
  5
248
330
125
100
AcDbEntity
  8
Flansch KST 1101
  6
Continuous
 62
     4
100
AcDbLine
 10
164.3478919999998
 20
84.83331400000003
 30
0.0
 11
165.5201309999999
 21
84.83331400000003
 31
0.0
  0
LINE
  5
249
330
125
100
AcDbEntity
  8
Flansch KST 1101
  6
Continuous
 62
     4
100
AcDbLine
 10
168.9511769999998
 20
84.83331400000003
 30
0.0
 11
169.5420079999999
 21
84.83331400000003
 31
0.0
  0
LINE
  5
24A
330
125
100
AcDbEntity
  8
Flansch KST 1101
  6
Continuous
 62
     4
100
AcDbLine
 10
170.1994239999998
 20
84.83331400000003
 30
0.0
 11
171.8330199999998
 21
84.83331400000003
 31
0.0
  0
LINE
  5
24B
330
125
100
AcDbEntity
  8
Flansch KST 1101
  6
Continuous
 62
     4
100
AcDbLine
 10
172.6671009999998
 20
84.83331400000003
 30
0.0
 11
174.2546369999998
 21
84.83331400000003
 31
0.0
  0
LINE
  5
24C
330
125
100
AcDbEntity
  8
Flansch KST 1101
  6
Continuous
 62
     4
100
AcDbLine
 10
174.9835989999998
 20
84.83331400000003
 30
0.0
 11
176.6999509999998
 21
84.83331400000003
 31
0.0
  0
LINE
  5
24D
330
125
100
AcDbEntity
  8
Flansch KST 1101
  6
Continuous
 62
     4
100
AcDbLine
 10
164.3115849999999
 20
85.13331400000003
 30
0.0
 11
165.5201309999999
 21
85.13331400000003
 31
0.0
  0
LINE
  5
24E
330
125
100
AcDbEntity
  8
Flansch KST 1101
  6
Continuous
 62
     4
100
AcDbLine
 10
168.9809319999997
 20
85.13331400000003
 30
0.0
 11
171.9633279999998
 21
85.13331400000003
 31
0.0
  0
LINE
  5
24F
330
125
100
AcDbEntity
  8
Flansch KST 1101
  6
Continuous
 62
     4
100
AcDbLine
 10
172.7259439999997
 20
85.13331400000003
 30
0.0
 11
174.2546369999998
 21
85.13331400000003
 31
0.0
  0
LINE
  5
250
330
125
100
AcDbEntity
  8
Flansch KST 1101
  6
Continuous
 62
     4
100
AcDbLine
 10
174.9835989999998
 20
85.13331400000003
 30
0.0
 11
176.7443709999998
 21
85.13331400000003
 31
0.0
  0
LINE
  5
251
330
125
100
AcDbEntity
  8
Flansch KST 1101
  6
Continuous
 62
     4
100
AcDbLine
 10
164.2752789999997
 20
85.43331400000002
 30
0.0
 11
165.5201309999999
 21
85.43331400000002
 31
0.0
  0
LINE
  5
252
330
125
100
AcDbEntity
  8
Flansch KST 1101
  6
Continuous
 62
     4
100
AcDbLine
 10
168.9362099999998
 20
85.43331400000002
 30
0.0
 11
171.7767239999999
 21
85.43331400000002
 31
0.0
  0
LINE
  5
253
330
125
100
AcDbEntity
  8
Flansch KST 1101
  6
Continuous
 62
     4
100
AcDbLine
 10
172.7158909999999
 20
85.43331400000002
 30
0.0
 11
174.2546369999998
 21
85.43331400000002
 31
0.0
  0
LINE
  5
254
330
125
100
AcDbEntity
  8
Flansch KST 1101
  6
Continuous
 62
     4
100
AcDbLine
 10
174.9835989999998
 20
85.43331400000002
 30
0.0
 11
176.7887909999999
 21
85.43331400000002
 31
0.0
  0
LINE
  5
255
330
125
100
AcDbEntity
  8
Flansch KST 1101
  6
Continuous
 62
     4
100
AcDbLine
 10
164.2389719999998
 20
85.73331400000002
 30
0.0
 11
165.0488549999998
 21
85.73331400000002
 31
0.0
  0
LINE
  5
256
330
125
100
AcDbEntity
  8
Flansch KST 1101
  6
Continuous
 62
     4
100
AcDbLine
 10
168.7722869999998
 20
85.73331400000002
 30
0.0
 11
170.6461889999999
 21
85.73331400000002
 31
0.0
  0
LINE
  5
257
330
125
100
AcDbEntity
  8
Flansch KST 1101
  6
Continuous
 62
     4
100
AcDbLine
 10
172.6443419999998
 20
85.73331400000002
 30
0.0
 11
174.2546369999998
 21
85.73331400000002
 31
0.0
  0
LINE
  5
258
330
125
100
AcDbEntity
  8
Flansch KST 1101
  6
Continuous
 62
     4
100
AcDbLine
 10
174.9835989999998
 20
85.73331400000002
 30
0.0
 11
176.8332109999998
 21
85.73331400000002
 31
0.0
  0
LINE
  5
259
330
125
100
AcDbEntity
  8
Flansch KST 1101
  6
Continuous
 62
     4
100
AcDbLine
 10
164.2102199999999
 20
86.03331400000002
 30
0.0
 11
165.0488549999998
 21
86.03331400000002
 31
0.0
  0
LINE
  5
25A
330
125
100
AcDbEntity
  8
Flansch KST 1101
  6
Continuous
 62
     4
100
AcDbLine
 10
168.3382779999998
 20
86.03331400000002
 30
0.0
 11
169.6714529999999
 21
86.03331400000002
 31
0.0
  0
LINE
  5
25B
330
125
100
AcDbEntity
  8
Flansch KST 1101
  6
Continuous
 62
     4
100
AcDbLine
 10
172.3647369999999
 20
86.03331400000002
 30
0.0
 11
174.2546369999998
 21
86.03331400000002
 31
0.0
  0
LINE
  5
25C
330
125
100
AcDbEntity
  8
Flansch KST 1101
  6
Continuous
 62
     4
100
AcDbLine
 10
174.9835989999998
 20
86.03331400000002
 30
0.0
 11
176.8341839999999
 21
86.03331400000002
 31
0.0
  0
LINE
  5
25D
330
125
100
AcDbEntity
  8
Flansch KST 1101
  6
Continuous
 62
     4
100
AcDbLine
 10
164.2549849999998
 20
86.333314
 30
0.0
 11
165.5201309999999
 21
86.333314
 31
0.0
  0
LINE
  5
25E
330
125
100
AcDbEntity
  8
Flansch KST 1101
  6
Continuous
 62
     4
100
AcDbLine
 10
168.6092999999997
 20
86.333314
 30
0.0
 11
169.4872139999999
 21
86.333314
 31
0.0
  0
LINE
  5
25F
330
125
100
AcDbEntity
  8
Flansch KST 1101
  6
Continuous
 62
     4
100
AcDbLine
 10
171.0896229999998
 20
86.333314
 30
0.0
 11
174.2546369999998
 21
86.333314
 31
0.0
  0
LINE
  5
260
330
125
100
AcDbEntity
  8
Flansch KST 1101
  6
Continuous
 62
     4
100
AcDbLine
 10
174.9835989999998
 20
86.333314
 30
0.0
 11
176.7940189999998
 21
86.333314
 31
0.0
  0
LINE
  5
261
330
125
100
AcDbEntity
  8
Flansch KST 1101
  6
Continuous
 62
     4
100
AcDbLine
 10
164.2997499999998
 20
86.63331400000003
 30
0.0
 11
165.5201309999999
 21
86.63331400000003
 31
0.0
  0
LINE
  5
262
330
125
100
AcDbEntity
  8
Flansch KST 1101
  6
Continuous
 62
     4
100
AcDbLine
 10
168.7419739999998
 20
86.63331400000003
 30
0.0
 11
169.4329719999998
 21
86.63331400000003
 31
0.0
  0
LINE
  5
263
330
125
100
AcDbEntity
  8
Flansch KST 1101
  6
Continuous
 62
     4
100
AcDbLine
 10
170.2756359999997
 20
86.63331400000003
 30
0.0
 11
174.2546369999998
 21
86.63331400000003
 31
0.0
  0
LINE
  5
264
330
125
100
AcDbEntity
  8
Flansch KST 1101
  6
Continuous
 62
     4
100
AcDbLine
 10
174.9835989999998
 20
86.63331400000003
 30
0.0
 11
176.7538539999998
 21
86.63331400000003
 31
0.0
  0
LINE
  5
265
330
125
100
AcDbEntity
  8
Flansch KST 1101
  6
Continuous
 62
     4
100
AcDbLine
 10
164.3445139999997
 20
86.93331400000002
 30
0.0
 11
165.5201309999999
 21
86.93331400000002
 31
0.0
  0
LINE
  5
266
330
125
100
AcDbEntity
  8
Flansch KST 1101
  6
Continuous
 62
     4
100
AcDbLine
 10
168.7533279999998
 20
86.93331400000002
 30
0.0
 11
169.4412609999998
 21
86.93331400000002
 31
0.0
  0
LINE
  5
267
330
125
100
AcDbEntity
  8
Flansch KST 1101
  6
Continuous
 62
     4
100
AcDbLine
 10
170.2092889999998
 20
86.93331400000002
 30
0.0
 11
172.0250579999998
 21
86.93331400000002
 31
0.0
  0
LINE
  5
268
330
125
100
AcDbEntity
  8
Flansch KST 1101
  6
Continuous
 62
     4
100
AcDbLine
 10
172.1493669999998
 20
86.93331400000002
 30
0.0
 11
174.2546369999998
 21
86.93331400000002
 31
0.0
  0
LINE
  5
269
330
125
100
AcDbEntity
  8
Flansch KST 1101
  6
Continuous
 62
     4
100
AcDbLine
 10
174.9835989999998
 20
86.93331400000002
 30
0.0
 11
176.7136889999998
 21
86.93331400000002
 31
0.0
  0
LINE
  5
26A
330
125
100
AcDbEntity
  8
Flansch KST 1101
  6
Continuous
 62
     4
100
AcDbLine
 10
164.3892789999999
 20
87.23331400000002
 30
0.0
 11
165.5201309999999
 21
87.23331400000002
 31
0.0
  0
LINE
  5
26B
330
125
100
AcDbEntity
  8
Flansch KST 1101
  6
Continuous
 62
     4
100
AcDbLine
 10
168.6904239999998
 20
87.23331400000002
 30
0.0
 11
169.5375059999998
 21
87.23331400000002
 31
0.0
  0
LINE
  5
26C
330
125
100
AcDbEntity
  8
Flansch KST 1101
  6
Continuous
 62
     4
100
AcDbLine
 10
170.4832049999998
 20
87.23331400000002
 30
0.0
 11
171.5719649999998
 21
87.23331400000002
 31
0.0
  0
LINE
  5
26D
330
125
100
AcDbEntity
  8
Flansch KST 1101
  6
Continuous
 62
     4
100
AcDbLine
 10
172.4900659999998
 20
87.23331400000002
 30
0.0
 11
173.0983889999997
 21
87.23331400000002
 31
0.0
  0
LINE
  5
26E
330
125
100
AcDbEntity
  8
Flansch KST 1101
  6
Continuous
 62
     4
100
AcDbLine
 10
176.1398469999999
 20
87.23331400000002
 30
0.0
 11
176.6735229999998
 21
87.23331400000002
 31
0.0
  0
LINE
  5
26F
330
125
100
AcDbEntity
  8
Flansch KST 1101
  6
Continuous
 62
     4
100
AcDbLine
 10
164.4340429999997
 20
87.53331400000002
 30
0.0
 11
165.5201309999999
 21
87.53331400000002
 31
0.0
  0
LINE
  5
270
330
125
100
AcDbEntity
  8
Flansch KST 1101
  6
Continuous
 62
     4
100
AcDbLine
 10
168.4922269999998
 20
87.53331400000002
 30
0.0
 11
169.7986629999998
 21
87.53331400000002
 31
0.0
  0
LINE
  5
271
330
125
100
AcDbEntity
  8
Flansch KST 1101
  6
Continuous
 62
     4
100
AcDbLine
 10
172.4064649999998
 20
87.53331400000002
 30
0.0
 11
173.0983889999997
 21
87.53331400000002
 31
0.0
  0
LINE
  5
272
330
125
100
AcDbEntity
  8
Flansch KST 1101
  6
Continuous
 62
     4
100
AcDbLine
 10
176.1398469999999
 20
87.53331400000002
 30
0.0
 11
176.6276719999998
 21
87.53331400000002
 31
0.0
  0
LINE
  5
273
330
125
100
AcDbEntity
  8
Flansch KST 1101
  6
Continuous
 62
     4
100
AcDbLine
 10
164.5459709999998
 20
87.83331400000002
 30
0.0
 11
165.5201309999999
 21
87.83331400000002
 31
0.0
  0
LINE
  5
274
330
125
100
AcDbEntity
  8
Flansch KST 1101
  6
Continuous
 62
     4
100
AcDbLine
 10
167.9243289999999
 20
87.83331400000002
 30
0.0
 11
170.3396409999998
 21
87.83331400000002
 31
0.0
  0
LINE
  5
275
330
125
100
AcDbEntity
  8
Flansch KST 1101
  6
Continuous
 62
     4
100
AcDbLine
 10
171.8108819999998
 20
87.83331400000002
 30
0.0
 11
173.0983889999997
 21
87.83331400000002
 31
0.0
  0
LINE
  5
276
330
125
100
AcDbEntity
  8
Flansch KST 1101
  6
Continuous
 62
     4
100
AcDbLine
 10
176.1398469999999
 20
87.83331400000002
 30
0.0
 11
176.5013599999998
 21
87.83331400000002
 31
0.0
  0
LINE
  5
277
330
125
100
AcDbEntity
  8
Flansch KST 1101
  6
Continuous
 62
     4
100
AcDbLine
 10
164.6775949999999
 20
88.133314
 30
0.0
 11
176.3750479999998
 21
88.133314
 31
0.0
  0
LINE
  5
278
330
125
100
AcDbEntity
  8
Flansch KST 1101
  6
Continuous
 62
     4
100
AcDbLine
 10
164.8092179999998
 20
88.43331400000002
 30
0.0
 11
176.2487359999998
 21
88.43331400000002
 31
0.0
  0
LINE
  5
279
330
125
100
AcDbEntity
  8
Flansch KST 1101
  6
Continuous
 62
     4
100
AcDbLine
 10
164.9408409999998
 20
88.73331400000002
 30
0.0
 11
176.1224239999998
 21
88.73331400000002
 31
0.0
  0
LINE
  5
27A
330
125
100
AcDbEntity
  8
Flansch KST 1101
  6
Continuous
 62
     4
100
AcDbLine
 10
165.0724649999998
 20
89.03331400000002
 30
0.0
 11
175.9841219999998
 21
89.03331400000002
 31
0.0
  0
LINE
  5
27B
330
125
100
AcDbEntity
  8
Flansch KST 1101
  6
Continuous
 62
     4
100
AcDbLine
 10
165.2969499999999
 20
89.33331400000002
 30
0.0
 11
175.7503979999998
 21
89.33331400000002
 31
0.0
  0
LINE
  5
27C
330
125
100
AcDbEntity
  8
Flansch KST 1101
  6
Continuous
 62
     4
100
AcDbLine
 10
165.5378919999999
 20
89.633314
 30
0.0
 11
175.5166729999999
 21
89.633314
 31
0.0
  0
LINE
  5
27D
330
125
100
AcDbEntity
  8
Flansch KST 1101
  6
Continuous
 62
     4
100
AcDbLine
 10
165.7788349999998
 20
89.93331400000002
 30
0.0
 11
175.2829479999998
 21
89.93331400000002
 31
0.0
  0
LINE
  5
27E
330
125
100
AcDbEntity
  8
Flansch KST 1101
  6
Continuous
 62
     4
100
AcDbLine
 10
166.0197769999998
 20
90.23331400000002
 30
0.0
 11
175.0492229999998
 21
90.23331400000002
 31
0.0
  0
LINE
  5
27F
330
125
100
AcDbEntity
  8
Flansch KST 1101
  6
Continuous
 62
     4
100
AcDbLine
 10
166.3672119999998
 20
90.53331400000002
 30
0.0
 11
174.6775279999998
 21
90.53331400000002
 31
0.0
  0
LINE
  5
280
330
125
100
AcDbEntity
  8
Flansch KST 1101
  6
Continuous
 62
     4
100
AcDbLine
 10
166.7754449999998
 20
90.83331400000002
 30
0.0
 11
174.2815719999998
 21
90.83331400000002
 31
0.0
  0
LINE
  5
281
330
125
100
AcDbEntity
  8
Flansch KST 1101
  6
Continuous
 62
     4
100
AcDbLine
 10
167.1836779999998
 20
91.13331400000001
 30
0.0
 11
173.8856149999999
 21
91.13331400000001
 31
0.0
  0
LINE
  5
282
330
125
100
AcDbEntity
  8
Flansch KST 1101
  6
Continuous
 62
     4
100
AcDbLine
 10
167.7392039999999
 20
91.43331400000002
 30
0.0
 11
173.2999679999998
 21
91.43331400000002
 31
0.0
  0
LINE
  5
283
330
125
100
AcDbEntity
  8
Flansch KST 1101
  6
Continuous
 62
     4
100
AcDbLine
 10
168.4989489999998
 20
91.73331400000002
 30
0.0
 11
172.5713229999999
 21
91.73331400000002
 31
0.0
  0
LINE
  5
284
330
125
100
AcDbEntity
  8
Flansch KST 1101
  6
Continuous
 62
     4
100
AcDbLine
 10
169.9714279999997
 20
92.03331400000002
 30
0.0
 11
171.1120279999998
 21
92.03331400000002
 31
0.0
  0
LINE
  5
285
330
125
100
AcDbEntity
  8
Flansch KST 1101
  6
Continuous
 62
     4
100
AcDbLine
 10
166.2490929999998
 20
84.96549800000004
 30
0.0
 11
168.2154269999998
 21
84.96549800000004
 31
0.0
  0
LINE
  5
286
330
125
100
AcDbEntity
  8
Flansch KST 1101
  6
Continuous
 62
     4
100
AcDbLine
 10
166.2490929999998
 20
85.26549800000004
 30
0.0
 11
168.2379649999999
 21
85.26549800000004
 31
0.0
  0
LINE
  5
287
330
125
100
AcDbEntity
  8
Flansch KST 1101
  6
Continuous
 62
     4
100
AcDbLine
 10
166.2490929999998
 20
85.56549800000003
 30
0.0
 11
167.9907059999999
 21
85.56549800000003
 31
0.0
  0
LINE
  5
288
330
125
100
AcDbEntity
  8
Flansch KST 1101
  6
Continuous
 62
     4
100
AcDbLine
 10
166.2490929999998
 20
86.61581200000003
 30
0.0
 11
168.0108679999999
 21
86.61581200000003
 31
0.0
  0
LINE
  5
289
330
125
100
AcDbEntity
  8
Flansch KST 1101
  6
Continuous
 62
     4
100
AcDbLine
 10
166.2490929999998
 20
86.91581200000002
 30
0.0
 11
168.0028739999998
 21
86.91581200000002
 31
0.0
  0
LINE
  5
28A
330
125
100
AcDbEntity
  8
Flansch KST 1101
  6
Continuous
 62
     9
100
AcDbLine
 10
193.9511299999999
 20
85.06089800000004
 30
0.0
 11
194.3798779999999
 21
85.06089800000004
 31
0.0
  0
LINE
  5
28B
330
125
100
AcDbEntity
  8
Flansch KST 1101
  6
Continuous
 62
     9
100
AcDbLine
 10
194.9963039999998
 20
85.06089800000004
 30
0.0
 11
195.4230579999998
 21
85.06089800000004
 31
0.0
  0
LINE
  5
28C
330
125
100
AcDbEntity
  8
Flansch KST 1101
  6
Continuous
 62
     9
100
AcDbLine
 10
193.7656139999997
 20
85.36089800000003
 30
0.0
 11
194.0849719999997
 21
85.36089800000003
 31
0.0
  0
LINE
  5
28D
330
125
100
AcDbEntity
  8
Flansch KST 1101
  6
Continuous
 62
     9
100
AcDbLine
 10
195.2912109999998
 20
85.36089800000003
 30
0.0
 11
195.6093689999998
 21
85.36089800000003
 31
0.0
  0
LINE
  5
28E
330
125
100
AcDbEntity
  8
Flansch KST 1101
  6
Continuous
 62
     9
100
AcDbLine
 10
193.6775389999999
 20
85.66089800000003
 30
0.0
 11
193.9811489999998
 21
85.66089800000003
 31
0.0
  0
LINE
  5
28F
330
125
100
AcDbEntity
  8
Flansch KST 1101
  6
Continuous
 62
     9
100
AcDbLine
 10
195.3949719999999
 20
85.66089800000003
 30
0.0
 11
195.6981479999999
 21
85.66089800000003
 31
0.0
  0
LINE
  5
290
330
125
100
AcDbEntity
  8
Flansch KST 1101
  6
Continuous
 62
     9
100
AcDbLine
 10
193.6585109999997
 20
85.96089800000003
 30
0.0
 11
193.9574749999999
 21
85.96089800000003
 31
0.0
  0
LINE
  5
291
330
125
100
AcDbEntity
  8
Flansch KST 1101
  6
Continuous
 62
     9
100
AcDbLine
 10
195.4202569999999
 20
85.96089800000003
 30
0.0
 11
195.719574
 21
85.96089800000003
 31
0.0
  0
LINE
  5
292
330
125
100
AcDbEntity
  8
Flansch KST 1101
  6
Continuous
 62
     9
100
AcDbLine
 10
193.6955929999997
 20
86.26089800000001
 30
0.0
 11
193.9971559999998
 21
86.26089800000001
 31
0.0
  0
LINE
  5
293
330
125
100
AcDbEntity
  8
Flansch KST 1101
  6
Continuous
 62
     9
100
AcDbLine
 10
195.3799089999997
 20
86.26089800000001
 30
0.0
 11
195.6841849999997
 21
86.26089800000001
 31
0.0
  0
LINE
  5
294
330
125
100
AcDbEntity
  8
Flansch KST 1101
  6
Continuous
 62
     9
100
AcDbLine
 10
193.7990819999999
 20
86.56089800000004
 30
0.0
 11
194.1319169999998
 21
86.56089800000004
 31
0.0
  0
LINE
  5
295
330
125
100
AcDbEntity
  8
Flansch KST 1101
  6
Continuous
 62
     9
100
AcDbLine
 10
195.2450779999997
 20
86.56089800000004
 30
0.0
 11
195.5765449999998
 21
86.56089800000004
 31
0.0
  0
LINE
  5
296
330
125
100
AcDbEntity
  8
Flansch KST 1101
  6
Continuous
 62
     9
100
AcDbLine
 10
194.0306069999997
 20
86.86089800000003
 30
0.0
 11
195.3469239999999
 21
86.86089800000003
 31
0.0
  0
LINE
  5
297
330
125
100
AcDbEntity
  8
Flansch KST 1101
  6
Continuous
 62
     9
100
AcDbLine
 10
182.7431139999998
 20
85.06089800000004
 30
0.0
 11
183.1718619999998
 21
85.06089800000004
 31
0.0
  0
LINE
  5
298
330
125
100
AcDbEntity
  8
Flansch KST 1101
  6
Continuous
 62
     9
100
AcDbLine
 10
183.7882879999998
 20
85.06089800000004
 30
0.0
 11
184.2150419999998
 21
85.06089800000004
 31
0.0
  0
LINE
  5
299
330
125
100
AcDbEntity
  8
Flansch KST 1101
  6
Continuous
 62
     9
100
AcDbLine
 10
182.5575979999998
 20
85.36089800000003
 30
0.0
 11
182.8769559999999
 21
85.36089800000003
 31
0.0
  0
LINE
  5
29A
330
125
100
AcDbEntity
  8
Flansch KST 1101
  6
Continuous
 62
     9
100
AcDbLine
 10
184.0831949999998
 20
85.36089800000003
 30
0.0
 11
184.4013529999998
 21
85.36089800000003
 31
0.0
  0
LINE
  5
29B
330
125
100
AcDbEntity
  8
Flansch KST 1101
  6
Continuous
 62
     9
100
AcDbLine
 10
182.4695229999999
 20
85.66089800000003
 30
0.0
 11
182.7731329999997
 21
85.66089800000003
 31
0.0
  0
LINE
  5
29C
330
125
100
AcDbEntity
  8
Flansch KST 1101
  6
Continuous
 62
     9
100
AcDbLine
 10
184.1869559999998
 20
85.66089800000003
 30
0.0
 11
184.4901319999999
 21
85.66089800000003
 31
0.0
  0
LINE
  5
29D
330
125
100
AcDbEntity
  8
Flansch KST 1101
  6
Continuous
 62
     9
100
AcDbLine
 10
182.4504949999998
 20
85.96089800000003
 30
0.0
 11
182.7494589999998
 21
85.96089800000003
 31
0.0
  0
LINE
  5
29E
330
125
100
AcDbEntity
  8
Flansch KST 1101
  6
Continuous
 62
     9
100
AcDbLine
 10
184.2124379999999
 20
85.96089800000003
 30
0.0
 11
184.5117329999998
 21
85.96089800000003
 31
0.0
  0
LINE
  5
29F
330
125
100
AcDbEntity
  8
Flansch KST 1101
  6
Continuous
 62
     9
100
AcDbLine
 10
182.4875769999998
 20
86.26089800000001
 30
0.0
 11
182.7891399999998
 21
86.26089800000001
 31
0.0
  0
LINE
  5
2A0
330
125
100
AcDbEntity
  8
Flansch KST 1101
  6
Continuous
 62
     9
100
AcDbLine
 10
184.1713839999998
 20
86.26089800000001
 30
0.0
 11
184.4767549999998
 21
86.26089800000001
 31
0.0
  0
LINE
  5
2A1
330
125
100
AcDbEntity
  8
Flansch KST 1101
  6
Continuous
 62
     9
100
AcDbLine
 10
182.5910659999999
 20
86.56089800000004
 30
0.0
 11
182.9239009999998
 21
86.56089800000004
 31
0.0
  0
LINE
  5
2A2
330
125
100
AcDbEntity
  8
Flansch KST 1101
  6
Continuous
 62
     9
100
AcDbLine
 10
184.0369859999998
 20
86.56089800000004
 30
0.0
 11
184.3685609999999
 21
86.56089800000004
 31
0.0
  0
LINE
  5
2A3
330
125
100
AcDbEntity
  8
Flansch KST 1101
  6
Continuous
 62
     9
100
AcDbLine
 10
182.8225909999999
 20
86.86089800000003
 30
0.0
 11
184.1389079999998
 21
86.86089800000003
 31
0.0
  0
ENDBLK
  5
127
330
125
100
AcDbEntity
  8
0
100
AcDbBlockEnd
  0
BLOCK
  5
2A6
330
2A5
100
AcDbEntity
  8
0
100
AcDbBlockBegin
  2
Hatch 0
 70
     0
 10
0.0
 20
0.0
 30
0.0
  3
Hatch 0
  1

  0
LINE
  5
2A8
330
2A5
100
AcDbEntity
  8
Flansch KST 1101
  6
Continuous
 62
     0
100
AcDbLine
 10
211.6981083423551
 20
127.7577880962623
 30
0.0
 11
210.1522906621205
 21
129.3036057764969
 31
0.0
  0
LINE
  5
2A9
330
2A5
100
AcDbEntity
  8
Flansch KST 1101
  6
Continuous
 62
     0
100
AcDbLine
 10
221.8402439660861
 20
131.7577880962623
 30
0.0
 11
219.8402439660861
 21
133.7577880962623
 31
0.0
  0
LINE
  5
2AA
330
2A5
100
AcDbEntity
  8
Flansch KST 1101
  6
Continuous
 62
     0
100
AcDbLine
 10
218.982379589817
 20
148.7577880962623
 30
0.0
 11
216.982379589817
 21
150.7577880962623
 31
0.0
  0
ENDBLK
  5
2A7
330
2A5
100
AcDbEntity
  8
0
100
AcDbBlockEnd
  0
BLOCK
  5
2AD
330
2AC
100
AcDbEntity
  8
0
100
AcDbBlockBegin
  2
Section 0
 70
     0
 10
0.0
 20
0.0
 30
0.0
  3
Section 0
  1

  0
LINE
  5
2AF
330
2AC
100
AcDbEntity
  8
Flansch KST 1101
  6
Continuous
 62
     4
100
AcDbLine
 10
212.8402439660861
 20
150.7577880962623
 30
0.0
 11
221.8402439660861
 21
150.7577880962623
 31
0.0
  0
LINE
  5
2B0
330
2AC
100
AcDbEntity
  8
Flansch KST 1101
  6
Continuous
 62
     4
100
AcDbLine
 10
221.8402439660861
 20
130.7577880962623
 30
0.0
 11
212.8402439660861
 21
130.7577880962623
 31
0.0
  0
LINE
  5
2B1
330
2AC
100
AcDbEntity
  8
Flansch KST 1101
  6
Continuous
 62
     4
100
AcDbLine
 10
210.5402439660861
 20
129.3171534043983
 30
0.0
 11
208.8402439660861
 21
129.2577880962623
 31
0.0
  0
LINE
  5
2B2
330
2AC
100
AcDbEntity
  8
Flansch KST 1101
  6
Continuous
 62
     4
100
AcDbLine
 10
208.8402439660861
 20
129.2577880962623
 30
0.0
 11
208.8402439660861
 21
131.7577880962623
 31
0.0
  0
LINE
  5
2B3
330
2AC
100
AcDbEntity
  8
Flansch KST 1101
  6
Continuous
 62
     4
100
AcDbLine
 10
210.5402439660861
 20
131.7577880962623
 30
0.0
 11
208.8402439660861
 21
131.7577880962623
 31
0.0
  0
LINE
  5
2B4
330
2AC
100
AcDbEntity
  8
Flansch KST 1101
  6
Continuous
 62
     4
100
AcDbLine
 10
221.8402439660861
 20
133.7577880962623
 30
0.0
 11
208.8402439660861
 21
133.7577880962623
 31
0.0
  0
LINE
  5
2B5
330
2AC
100
AcDbEntity
  8
Flansch KST 1101
  6
Continuous
 62
     4
100
AcDbLine
 10
212.8402439660861
 20
127.7577880962623
 30
0.0
 11
208.8402439660861
 21
127.7577880962623
 31
0.0
  0
LINE
  5
2B6
330
2AC
100
AcDbEntity
  8
Flansch KST 1101
  6
Continuous
 62
     4
100
AcDbLine
 10
221.8402439660861
 20
133.7577880962623
 30
0.0
 11
221.8402439660861
 21
130.7577880962623
 31
0.0
  0
LINE
  5
2B7
330
2AC
100
AcDbEntity
  8
Flansch KST 1101
  6
Continuous
 62
     4
100
AcDbLine
 10
208.8402439660861
 20
133.7577880962623
 30
0.0
 11
208.8402439660861
 21
131.7577880962623
 31
0.0
  0
LINE
  5
2B8
330
2AC
100
AcDbEntity
  8
Flansch KST 1101
  6
Continuous
 62
     4
100
AcDbLine
 10
210.5402439660861
 20
131.7577880962623
 30
0.0
 11
210.5402439660861
 21
129.3171534043983
 31
0.0
  0
LINE
  5
2B9
330
2AC
100
AcDbEntity
  8
Flansch KST 1101
  6
Continuous
 62
     4
100
AcDbLine
 10
208.8402439660861
 20
129.2577880962623
 30
0.0
 11
208.8402439660861
 21
127.7577880962623
 31
0.0
  0
LINE
  5
2BA
330
2AC
100
AcDbEntity
  8
Flansch KST 1101
  6
Continuous
 62
     4
100
AcDbLine
 10
212.8402439660861
 20
130.7577880962623
 30
0.0
 11
212.8402439660861
 21
127.7577880962623
 31
0.0
  0
LINE
  5
2BB
330
2AC
100
AcDbEntity
  8
Flansch KST 1101
  6
Continuous
 62
     4
100
AcDbLine
 10
208.8402439660861
 20
148.7577880962623
 30
0.0
 11
221.8402439660861
 21
148.7577880962623
 31
0.0
  0
LINE
  5
2BC
330
2AC
100
AcDbEntity
  8
Flansch KST 1101
  6
Continuous
 62
     4
100
AcDbLine
 10
208.8402439660861
 20
149.7577880962623
 30
0.0
 11
210.5402439660861
 21
149.7577880962623
 31
0.0
  0
LINE
  5
2BD
330
2AC
100
AcDbEntity
  8
Flansch KST 1101
  6
Continuous
 62
     4
100
AcDbLine
 10
208.8402439660861
 20
152.2577880962623
 30
0.0
 11
210.5402439660861
 21
152.1984227881263
 31
0.0
  0
LINE
  5
2BE
330
2AC
100
AcDbEntity
  8
Flansch KST 1101
  6
Continuous
 62
     4
100
AcDbLine
 10
208.8402439660861
 20
153.7577880962623
 30
0.0
 11
212.8402439660861
 21
153.7577880962623
 31
0.0
  0
LINE
  5
2BF
330
2AC
100
AcDbEntity
  8
Flansch KST 1101
  6
Continuous
 62
     4
100
AcDbLine
 10
221.8402439660861
 20
150.7577880962623
 30
0.0
 11
221.8402439660861
 21
148.7577880962623
 31
0.0
  0
LINE
  5
2C0
330
2AC
100
AcDbEntity
  8
Flansch KST 1101
  6
Continuous
 62
     4
100
AcDbLine
 10
208.8402439660861
 20
149.7577880962623
 30
0.0
 11
208.8402439660861
 21
148.7577880962623
 31
0.0
  0
LINE
  5
2C1
330
2AC
100
AcDbEntity
  8
Flansch KST 1101
  6
Continuous
 62
     4
100
AcDbLine
 10
210.5402439660861
 20
152.1984227881263
 30
0.0
 11
210.5402439660861
 21
149.7577880962623
 31
0.0
  0
LINE
  5
2C2
330
2AC
100
AcDbEntity
  8
Flansch KST 1101
  6
Continuous
 62
     4
100
AcDbLine
 10
208.8402439660861
 20
153.7577880962623
 30
0.0
 11
208.8402439660861
 21
152.2577880962623
 31
0.0
  0
LINE
  5
2C3
330
2AC
100
AcDbEntity
  8
Flansch KST 1101
  6
Continuous
 62
     4
100
AcDbLine
 10
212.8402439660861
 20
153.7577880962623
 30
0.0
 11
212.8402439660861
 21
150.7577880962623
 31
0.0
  0
LINE
  5
2C4
330
2AC
100
AcDbEntity
  8
Flansch KST 1101
  6
Continuous
 62
     4
100
AcDbLine
 10
221.8402439660861
 20
139.9577880962623
 30
0.0
 11
208.8402439660861
 21
139.9577880962623
 31
0.0
  0
LINE
  5
2C5
330
2AC
100
AcDbEntity
  8
Flansch KST 1101
  6
Continuous
 62
     4
100
AcDbLine
 10
221.8402439660861
 20
139.9577880962623
 30
0.0
 11
221.8402439660861
 21
133.7577880962623
 31
0.0
  0
LINE
  5
2C6
330
2AC
100
AcDbEntity
  8
Flansch KST 1101
  6
Continuous
 62
     4
100
AcDbLine
 10
208.8402439660861
 20
139.9577880962623
 30
0.0
 11
208.8402439660861
 21
133.7577880962623
 31
0.0
  0
LINE
  5
2C7
330
2AC
100
AcDbEntity
  8
Flansch KST 1101
  6
Continuous
 62
     4
100
AcDbLine
 10
208.8402439660861
 20
149.7577880962623
 30
0.0
 11
208.8402439660861
 21
152.2577880962623
 31
0.0
  0
LINE
  5
2C8
330
2AC
100
AcDbEntity
  8
Flansch KST 1101
  6
Continuous
 62
   136
100
AcDbLine
 10
221.8402439660861
 20
147.9577880962623
 30
0.0
 11
208.8402439660861
 21
147.9577880962623
 31
0.0
  0
LINE
  5
2C9
330
2AC
100
AcDbEntity
  8
Flansch KST 1101
  6
Continuous
 62
     4
100
AcDbLine
 10
221.8402439660861
 20
147.9577880962623
 30
0.0
 11
221.8402439660861
 21
148.7577880962623
 31
0.0
  0
LINE
  5
2CA
330
2AC
100
AcDbEntity
  8
Flansch KST 1101
  6
Continuous
 62
     4
100
AcDbLine
 10
208.8402439660861
 20
148.7577880962623
 30
0.0
 11
208.8402439660861
 21
147.9577880962623
 31
0.0
  0
LINE
  5
2CB
330
2AC
100
AcDbEntity
  8
Flansch KST 1101
  6
Continuous
 62
     4
100
AcDbLine
 10
221.8402439660861
 20
147.7119235565478
 30
0.0
 11
208.8402439660861
 21
147.7119235565478
 31
0.0
  0
LINE
  5
2CC
330
2AC
100
AcDbEntity
  8
Flansch KST 1101
  6
Continuous
 62
     4
100
AcDbLine
 10
221.8402439660861
 20
147.9577880962623
 30
0.0
 11
221.8402439660861
 21
147.7119235565478
 31
0.0
  0
LINE
  5
2CD
330
2AC
100
AcDbEntity
  8
Flansch KST 1101
  6
Continuous
 62
     4
100
AcDbLine
 10
208.8402439660861
 20
147.9577880962623
 30
0.0
 11
208.8402439660861
 21
147.7119235565478
 31
0.0
  0
LINE
  5
2CE
330
2AC
100
AcDbEntity
  8
Flansch KST 1101
  6
Continuous
 62
     4
100
AcDbLine
 10
208.8402439660861
 20
147.1802460662277
 30
0.0
 11
221.8402439660861
 21
147.1802460662277
 31
0.0
  0
LINE
  5
2CF
330
2AC
100
AcDbEntity
  8
Flansch KST 1101
  6
Continuous
 62
     4
100
AcDbLine
 10
221.8402439660861
 20
147.1802460662277
 30
0.0
 11
221.8402439660861
 21
147.7119235565478
 31
0.0
  0
LINE
  5
2D0
330
2AC
100
AcDbEntity
  8
Flansch KST 1101
  6
Continuous
 62
     4
100
AcDbLine
 10
208.8402439660861
 20
147.1802460662277
 30
0.0
 11
208.8402439660861
 21
147.7119235565478
 31
0.0
  0
LINE
  5
2D1
330
2AC
100
AcDbEntity
  8
Flansch KST 1101
  6
Continuous
 62
     4
100
AcDbLine
 10
221.8402439660861
 20
147.1802460662277
 30
0.0
 11
221.8402439660861
 21
146.5931710035102
 31
0.0
  0
LINE
  5
2D2
330
2AC
100
AcDbEntity
  8
Flansch KST 1101
  6
Continuous
 62
   136
100
AcDbLine
 10
221.8402439660861
 20
146.5931710035102
 30
0.0
 11
208.8402439660861
 21
146.5931710035102
 31
0.0
  0
LINE
  5
2D3
330
2AC
100
AcDbEntity
  8
Flansch KST 1101
  6
Continuous
 62
     4
100
AcDbLine
 10
208.8402439660861
 20
146.5931710035102
 30
0.0
 11
208.8402439660861
 21
147.1802460662277
 31
0.0
  0
LINE
  5
2D4
330
2AC
100
AcDbEntity
  8
Flansch KST 1101
  6
Continuous
 62
     4
100
AcDbLine
 10
221.8402439660861
 20
146.3802460662277
 30
0.0
 11
208.8402439660861
 21
146.3802460662277
 31
0.0
  0
LINE
  5
2D5
330
2AC
100
AcDbEntity
  8
Flansch KST 1101
  6
Continuous
 62
     4
100
AcDbLine
 10
208.8402439660861
 20
141.5577880962623
 30
0.0
 11
221.8402439660861
 21
141.5577880962623
 31
0.0
  0
LINE
  5
2D6
330
2AC
100
AcDbEntity
  8
Flansch KST 1101
  6
Continuous
 62
     4
100
AcDbLine
 10
221.8402439660861
 20
141.5577880962623
 30
0.0
 11
221.8402439660861
 21
146.3802460662277
 31
0.0
  0
LINE
  5
2D7
330
2AC
100
AcDbEntity
  8
Flansch KST 1101
  6
Continuous
 62
     4
100
AcDbLine
 10
208.8402439660861
 20
141.5577880962623
 30
0.0
 11
208.8402439660861
 21
146.3802460662277
 31
0.0
  0
LINE
  5
2D8
330
2AC
100
AcDbEntity
  8
Flansch KST 1101
  6
Continuous
 62
     4
100
AcDbLine
 10
221.8402439660861
 20
146.5931710035102
 30
0.0
 11
221.8402439660861
 21
146.3802460662277
 31
0.0
  0
LINE
  5
2D9
330
2AC
100
AcDbEntity
  8
Flansch KST 1101
  6
Continuous
 62
     4
100
AcDbLine
 10
208.8402439660861
 20
146.5931710035102
 30
0.0
 11
208.8402439660861
 21
146.3802460662277
 31
0.0
  0
LINE
  5
2DA
330
2AC
100
AcDbEntity
  8
Flansch KST 1101
  6
Continuous
 62
     4
100
AcDbLine
 10
221.8402439660861
 20
139.9577880962623
 30
0.0
 11
221.8402439660861
 21
141.5577880962623
 31
0.0
  0
LINE
  5
2DB
330
2AC
100
AcDbEntity
  8
Flansch KST 1101
  6
Continuous
 62
     4
100
AcDbLine
 10
208.8402439660861
 20
141.5577880962623
 30
0.0
 11
208.8402439660861
 21
139.9577880962623
 31
0.0
  0
LINE
  5
2DC
330
2AC
100
AcDbEntity
  8
Flansch KST 1101
  6
DIVIDE
 62
   100
100
AcDbLine
 10
205.8402439660861
 20
140.7577880962623
 30
0.0
 11
224.8402439660861
 21
140.7577880962623
 31
0.0
  0
TEXT
  5
2DD
330
2AC
100
AcDbEntity
  8
Flansch KST 1101
  6
Continuous
 62
     7
100
AcDbText
 10
209.4701135982471
 20
118.7577879062725
 30
0.0
 40
4.0
  1
A-A
 41
0.9317667250538111
  7
VERO0-courier new
 72
     5
 11
221.2103743339251
 21
118.7577879062725
 31
0.0
100
AcDbText
  0
ENDBLK
  5
2AE
330
2AC
100
AcDbEntity
  8
0
100
AcDbBlockEnd
  0
BLOCK
  5
2E0
330
2DF
100
AcDbEntity
  8
0
100
AcDbBlockBegin
  2
View  0
 70
     0
 10
0.0
 20
0.0
 30
0.0
  3
View  0
  1

  0
LINE
  5
2E2
330
2DF
100
AcDbEntity
  8
Flansch KST 1101
  6
Continuous
 62
     4
100
AcDbLine
 10
141.9296595431256
 20
146.5931710035102
 30
0.0
 11
141.8067272732683
 21
146.3802460662276
 31
0.0
  0
ARC
  5
2E3
330
2DF
100
AcDbEntity
  8
Flansch KST 1101
  6
Continuous
 62
     4
100
AcDbCircle
 10
-141.2368392200981
 20
146.9931710035102
 30
0.0
 40
0.7999999999999952
210
0.0
220
0.0
230
-1.0
100
AcDbArc
 50
30.00000000000139
 51
209.9999999999987
  0
LINE
  5
2E4
330
2DF
100
AcDbEntity
  8
Flansch KST 1101
  6
Continuous
 62
     4
100
AcDbLine
 10
140.4210866272132
 20
147.1802460662277
 30
0.0
 11
140.5440188970705
 21
147.3931710035102
 31
0.0
  0
ARC
  5
2E5
330
2DF
100
AcDbEntity
  8
Flansch KST 1101
  6
Continuous
 62
     4
100
AcDbCircle
 10
137.6368392200981
 20
140.7577880962622
 30
0.0
 40
7.000000000000006
100
AcDbArc
 50
66.5624278686341
 51
83.43757213136588
  0
LINE
  5
2E6
330
2DF
100
AcDbEntity
  8
Flansch KST 1101
  6
Continuous
 62
     4
100
AcDbLine
 10
138.4368392200981
 20
147.9577880962622
 30
0.0
 11
138.4368392200981
 21
147.7119235565477
 31
0.0
  0
ARC
  5
2E7
330
2DF
100
AcDbEntity
  8
Flansch KST 1101
  6
Continuous
 62
     4
100
AcDbCircle
 10
-137.6368392200981
 20
147.9577880962622
 30
0.0
 40
0.7999999999999952
210
0.0
220
0.0
230
-1.0
100
AcDbArc
 50
0.0
 51
180.0
  0
LINE
  5
2E8
330
2DF
100
AcDbEntity
  8
Flansch KST 1101
  6
Continuous
 62
     4
100
AcDbLine
 10
136.8368392200981
 20
147.7119235565477
 30
0.0
 11
136.8368392200981
 21
147.9577880962622
 31
0.0
  0
ARC
  5
2E9
330
2DF
100
AcDbEntity
  8
Flansch KST 1101
  6
Continuous
 62
     4
100
AcDbCircle
 10
137.6368392200981
 20
140.7577880962622
 30
0.0
 40
7.000000000000006
100
AcDbArc
 50
96.56242786863413
 51
353.4375721313659
  0
LINE
  5
2EA
330
2DF
100
AcDbEntity
  8
Flansch KST 1101
  6
Continuous
 62
     4
100
AcDbLine
 10
144.8368392200981
 20
139.9577880962622
 30
0.0
 11
144.5909746803835
 21
139.9577880962622
 31
0.0
  0
LINE
  5
2EB
330
2DF
100
AcDbEntity
  8
Flansch KST 1101
  6
Continuous
 62
     4
100
AcDbLine
 10
144.5909746803835
 20
141.5577880962622
 30
0.0
 11
144.8368392200981
 21
141.5577880962622
 31
0.0
  0
ARC
  5
2EC
330
2DF
100
AcDbEntity
  8
Flansch KST 1101
  6
Continuous
 62
     4
100
AcDbCircle
 10
137.6368392200981
 20
140.7577880962622
 30
0.0
 40
7.000000000000006
100
AcDbArc
 50
6.56242786863412
 51
53.43757213136586
  0
CIRCLE
  5
2ED
330
2DF
100
AcDbEntity
  8
Flansch KST 1101
  6
Continuous
 62
     4
100
AcDbCircle
 10
-137.6368392200981
 20
140.7577880962622
 30
0.0
 40
10.00000000000001
210
0.0
220
0.0
230
-1.0
  0
ARC
  5
2EE
330
2DF
100
AcDbEntity
  8
Flansch KST 1101
  6
Continuous
 62
     4
100
AcDbCircle
 10
-144.8368392200981
 20
140.7577880962622
 30
0.0
 40
0.7999999999999952
210
0.0
220
0.0
230
-1.0
100
AcDbArc
 50
90.0
 51
270.0
  0
ARC
  5
2EF
330
2DF
100
AcDbEntity
  8
Flansch KST 1101
  6
Continuous
 62
     4
100
AcDbCircle
 10
-156.636839220098
 20
140.7577880962622
 30
0.0
 40
2.250000000000002
210
0.0
220
0.0
230
-1.0
100
AcDbArc
 50
90.0
 51
270.0
  0
LINE
  5
2F0
330
2DF
100
AcDbEntity
  8
Flansch KST 1101
  6
Continuous
 62
     4
100
AcDbLine
 10
153.6368392200981
 20
143.0077880962622
 30
0.0
 11
156.636839220098
 21
143.0077880962622
 31
0.0
  0
ARC
  5
2F1
330
2DF
100
AcDbEntity
  8
Flansch KST 1101
  6
Continuous
 62
     4
100
AcDbCircle
 10
-153.6368392200981
 20
140.7577880962622
 30
0.0
 40
2.250000000000002
210
0.0
220
0.0
230
-1.0
100
AcDbArc
 50
270.0
 51
90.0
  0
LINE
  5
2F2
330
2DF
100
AcDbEntity
  8
Flansch KST 1101
  6
Continuous
 62
     4
100
AcDbLine
 10
156.636839220098
 20
138.5077880962622
 30
0.0
 11
153.6368392200981
 21
138.5077880962622
 31
0.0
  0
ARC
  5
2F3
330
2DF
100
AcDbEntity
  8
Flansch KST 1101
  6
Continuous
 62
     4
100
AcDbCircle
 10
-120.1368392200981
 20
140.7577880962622
 30
0.0
 40
6.500000000000005
210
0.0
220
0.0
230
-1.0
100
AcDbArc
 50
271.1802623170136
 51
88.81973768298646
  0
ARC
  5
2F4
330
2DF
100
AcDbEntity
  8
Flansch KST 1101
  6
Continuous
 62
     4
100
AcDbCircle
 10
119.6939820772409
 20
162.2532266251925
 30
0.0
 40
15.0
100
AcDbArc
 50
271.1802623170136
 51
309.8527178787209
  0
ARC
  5
2F5
330
2DF
100
AcDbEntity
  8
Flansch KST 1101
  6
Continuous
 62
     4
100
AcDbCircle
 10
-137.6368392200981
 20
140.7577880962622
 30
0.0
 40
13.00000000000001
210
0.0
220
0.0
230
-1.0
100
AcDbArc
 50
230.1472821212792
 51
309.8527178787208
  0
ARC
  5
2F6
330
2DF
100
AcDbEntity
  8
Flansch KST 1101
  6
Continuous
 62
     4
100
AcDbCircle
 10
119.6939820772409
 20
119.262349567332
 30
0.0
 40
15.0
100
AcDbArc
 50
50.14728212127913
 51
88.81973768298643
  0
LINE
  5
2F7
330
2DF
100
AcDbEntity
  8
Flansch KST 1101
  6
Continuous
 62
     4
100
AcDbLine
 10
121.6368392200981
 20
143.0077880962622
 30
0.0
 11
118.6368392200981
 21
143.0077880962622
 31
0.0
  0
ARC
  5
2F8
330
2DF
100
AcDbEntity
  8
Flansch KST 1101
  6
Continuous
 62
     4
100
AcDbCircle
 10
118.6368392200981
 20
140.7577880962622
 30
0.0
 40
2.250000000000002
100
AcDbArc
 50
90.0
 51
270.0
  0
LINE
  5
2F9
330
2DF
100
AcDbEntity
  8
Flansch KST 1101
  6
Continuous
 62
     4
100
AcDbLine
 10
118.6368392200981
 20
138.5077880962622
 30
0.0
 11
121.6368392200981
 21
138.5077880962622
 31
0.0
  0
ARC
  5
2FA
330
2DF
100
AcDbEntity
  8
Flansch KST 1101
  6
Continuous
 62
     4
100
AcDbCircle
 10
121.6368392200981
 20
140.7577880962622
 30
0.0
 40
2.250000000000002
100
AcDbArc
 50
270.0
 51
90.0
  0
ARC
  5
2FB
330
2DF
100
AcDbEntity
  8
Flansch KST 1101
  6
Continuous
 62
     4
100
AcDbCircle
 10
155.5796963629552
 20
162.2532266251925
 30
0.0
 40
15.0
100
AcDbArc
 50
230.1472821212792
 51
268.8197376829863
  0
ARC
  5
2FC
330
2DF
100
AcDbEntity
  8
Flansch KST 1101
  6
Continuous
 62
     4
100
AcDbCircle
 10
155.5796963629552
 20
119.262349567332
 30
0.0
 40
15.0
100
AcDbArc
 50
91.18026231701354
 51
129.8527178787209
  0
ARC
  5
2FD
330
2DF
100
AcDbEntity
  8
Flansch KST 1101
  6
Continuous
 62
     4
100
AcDbCircle
 10
-155.1368392200981
 20
140.7577880962622
 30
0.0
 40
6.500000000000005
210
0.0
220
0.0
230
-1.0
100
AcDbArc
 50
91.18026231701333
 51
268.8197376829864
  0
ARC
  5
2FE
330
2DF
100
AcDbEntity
  8
Flansch KST 1101
  6
Continuous
 62
     4
100
AcDbCircle
 10
-137.6368392200981
 20
140.7577880962622
 30
0.0
 40
13.00000000000001
210
0.0
220
0.0
230
-1.0
100
AcDbArc
 50
50.14728212127918
 51
129.8527178787208
  0
LINE
  5
2FF
330
2DF
100
AcDbEntity
  8
Flansch KST 1101
  6
DIVIDE
 62
   100
100
AcDbLine
 10
141.2368392200981
 20
147.9531710035102
 30
0.0
 11
141.2368392200981
 21
146.0331710035102
 31
0.0
  0
LINE
  5
300
330
2DF
100
AcDbEntity
  8
Flansch KST 1101
  6
DIVIDE
 62
   100
100
AcDbLine
 10
140.2768392200981
 20
146.9931710035102
 30
0.0
 11
142.196839220098
 21
146.9931710035102
 31
0.0
  0
LINE
  5
301
330
2DF
100
AcDbEntity
  8
Flansch KST 1101
  6
DIVIDE
 62
   100
100
AcDbLine
 10
137.6368392200981
 20
148.9177880962623
 30
0.0
 11
137.6368392200981
 21
146.9977880962623
 31
0.0
  0
LINE
  5
302
330
2DF
100
AcDbEntity
  8
Flansch KST 1101
  6
DIVIDE
 62
   100
100
AcDbLine
 10
136.6768392200981
 20
147.9577880962622
 30
0.0
 11
138.596839220098
 21
147.9577880962622
 31
0.0
  0
LINE
  5
303
330
2DF
100
AcDbEntity
  8
Flansch KST 1101
  6
DIVIDE
 62
   100
100
AcDbLine
 10
137.6368392200981
 20
128.7577880962622
 30
0.0
 11
137.6368392200981
 21
152.7577880962623
 31
0.0
  0
LINE
  5
304
330
2DF
100
AcDbEntity
  8
Flansch KST 1101
  6
DIVIDE
 62
   100
100
AcDbLine
 10
149.6368392200981
 20
140.7577880962622
 30
0.0
 11
125.6368392200981
 21
140.7577880962622
 31
0.0
  0
LINE
  5
305
330
2DF
100
AcDbEntity
  8
Flansch KST 1101
  6
DIVIDE
 62
   100
100
AcDbLine
 10
144.8368392200981
 20
141.7177880962622
 30
0.0
 11
144.8368392200981
 21
139.7977880962623
 31
0.0
  0
LINE
  5
306
330
2DF
100
AcDbEntity
  8
Flansch KST 1101
  6
DIVIDE
 62
   100
100
AcDbLine
 10
143.8768392200981
 20
140.7577880962622
 30
0.0
 11
145.7968392200981
 21
140.7577880962622
 31
0.0
  0
LINE
  5
307
330
2DF
100
AcDbEntity
  8
Flansch KST 1101
  6
DIVIDE
 62
   100
100
AcDbLine
 10
156.636839220098
 20
143.4577880962622
 30
0.0
 11
156.636839220098
 21
138.0577880962622
 31
0.0
  0
LINE
  5
308
330
2DF
100
AcDbEntity
  8
Flansch KST 1101
  6
DIVIDE
 62
   100
100
AcDbLine
 10
153.9368392200981
 20
140.7577880962622
 30
0.0
 11
159.3368392200981
 21
140.7577880962622
 31
0.0
  0
LINE
  5
309
330
2DF
100
AcDbEntity
  8
Flansch KST 1101
  6
DIVIDE
 62
   100
100
AcDbLine
 10
153.6368392200981
 20
143.4577880962622
 30
0.0
 11
153.6368392200981
 21
138.0577880962622
 31
0.0
  0
LINE
  5
30A
330
2DF
100
AcDbEntity
  8
Flansch KST 1101
  6
DIVIDE
 62
   100
100
AcDbLine
 10
150.9368392200981
 20
140.7577880962622
 30
0.0
 11
156.3368392200981
 21
140.7577880962622
 31
0.0
  0
LINE
  5
30B
330
2DF
100
AcDbEntity
  8
Flansch KST 1101
  6
DIVIDE
 62
   100
100
AcDbLine
 10
118.6368392200981
 20
138.0577880962622
 30
0.0
 11
118.6368392200981
 21
143.4577880962622
 31
0.0
  0
LINE
  5
30C
330
2DF
100
AcDbEntity
  8
Flansch KST 1101
  6
DIVIDE
 62
   100
100
AcDbLine
 10
121.3368392200981
 20
140.7577880962622
 30
0.0
 11
115.9368392200981
 21
140.7577880962622
 31
0.0
  0
LINE
  5
30D
330
2DF
100
AcDbEntity
  8
Flansch KST 1101
  6
DIVIDE
 62
   100
100
AcDbLine
 10
121.6368392200981
 20
138.0577880962622
 30
0.0
 11
121.6368392200981
 21
143.4577880962622
 31
0.0
  0
LINE
  5
30E
330
2DF
100
AcDbEntity
  8
Flansch KST 1101
  6
DIVIDE
 62
   100
100
AcDbLine
 10
124.3368392200981
 20
140.7577880962622
 30
0.0
 11
118.9368392200981
 21
140.7577880962622
 31
0.0
  0
LINE
  5
30F
330
2DF
100
AcDbEntity
  8
Flansch KST 1101
  6
DIVIDE
 62
   100
100
AcDbLine
 10
137.6368392200981
 20
153.7577880962623
 30
0.0
 11
137.6368392200981
 21
127.7577880962622
 31
0.0
  0
LINE
  5
310
330
2DF
100
AcDbEntity
  8
Flansch KST 1101
  6
Continuous
 62
   100
100
AcDbLine
 10
137.6368392200981
 20
127.7577880962622
 30
0.0
 11
137.6368392200981
 21
117.7577880962622
 31
0.0
  0
INSERT
  5
311
330
2DF
100
AcDbEntity
  8
Flansch KST 1101
  6
Continuous
 62
   100
100
AcDbBlockReference
  2
ArrowheadSectionClosed
 10
137.6368392200981
 20
117.7577880962622
 30
0.0
 41
5.0
 42
20.4
 50
270.0
  0
LINE
  5
312
330
2DF
100
AcDbEntity
  8
Flansch KST 1101
  6
Continuous
 62
   100
100
AcDbLine
 10
137.6368392200981
 20
163.7577880962623
 30
0.0
 11
137.6368392200981
 21
153.7577880962623
 31
0.0
  0
INSERT
  5
313
330
2DF
100
AcDbEntity
  8
Flansch KST 1101
  6
Continuous
 62
   100
100
AcDbBlockReference
  2
ArrowheadSectionClosed
 10
-137.6368392200981
 20
163.7577880962623
 30
0.0
 41
5.0
 42
20.4
 50
90.0
210
0.0
220
0.0
230
-1.0
  0
TEXT
  5
314
330
2DF
100
AcDbEntity
  8
Flansch KST 1101
  6
Continuous
 62
     7
100
AcDbText
 10
117.2368392200981
 20
121.2577880962622
 30
0.0
 40
4.0
  1
A
 41
0.9317667250538112
  7
VERO0-courier new
 72
     5
 11
121.1502594653241
 21
121.2577880962622
 31
0.0
100
AcDbText
  0
TEXT
  5
315
330
2DF
100
AcDbEntity
  8
Flansch KST 1101
  6
Continuous
 62
     7
100
AcDbText
 10
117.2368392200981
 20
162.2577880962623
 30
0.0
 40
4.0
  1
A
 41
0.9317667250538112
  7
VERO0-courier new
 72
     5
 11
121.1502594653241
 21
162.2577880962623
 31
0.0
100
AcDbText
  0
ENDBLK
  5
2E1
330
2DF
100
AcDbEntity
  8
0
100
AcDbBlockEnd
  0
BLOCK
  5
318
330
317
100
AcDbEntity
  8
0
100
AcDbBlockBegin
  2
View  1
 70
     0
 10
0.0
 20
0.0
 30
0.0
  3
View  1
  1

  0
LINE
  5
31A
330
317
100
AcDbEntity
  8
Flansch KST 1101
  6
Continuous
 62
   136
100
AcDbLine
 10
129.3062269752001
 20
211.463465204299
 30
0.0
 11
129.3062269752001
 21
207.463465204299
 31
0.0
  0
LINE
  5
31B
330
317
100
AcDbEntity
  8
Flansch KST 1101
  6
Continuous
 62
   136
100
AcDbLine
 10
145.967451464996
 20
211.463465204299
 30
0.0
 11
145.967451464996
 21
207.463465204299
 31
0.0
  0
LINE
  5
31C
330
317
100
AcDbEntity
  8
Flansch KST 1101
  6
Continuous
 62
     4
100
AcDbLine
 10
145.967451464996
 20
207.463465204299
 30
0.0
 11
129.3062269752001
 21
207.463465204299
 31
0.0
  0
LINE
  5
31D
330
317
100
AcDbEntity
  8
Flansch KST 1101
  6
Continuous
 62
     4
100
AcDbLine
 10
145.967451464996
 20
211.463465204299
 30
0.0
 11
129.3062269752001
 21
211.463465204299
 31
0.0
  0
LINE
  5
31E
330
317
100
AcDbEntity
  8
Flansch KST 1101
  6
Continuous
 62
     4
100
AcDbLine
 10
127.6368392200981
 20
220.463465204299
 30
0.0
 11
127.6368392200981
 21
211.463465204299
 31
0.0
  0
LINE
  5
31F
330
317
100
AcDbEntity
  8
Flansch KST 1101
  6
Continuous
 62
     4
100
AcDbLine
 10
147.6368392200981
 20
211.463465204299
 30
0.0
 11
147.6368392200981
 21
220.463465204299
 31
0.0
  0
LINE
  5
320
330
317
100
AcDbEntity
  8
Flansch KST 1101
  6
Continuous
 62
     4
100
AcDbLine
 10
147.6368392200981
 20
220.463465204299
 30
0.0
 11
127.6368392200981
 21
220.463465204299
 31
0.0
  0
LINE
  5
321
330
317
100
AcDbEntity
  8
Flansch KST 1101
  6
Continuous
 62
   136
100
AcDbLine
 10
120.0029521769087
 20
211.463465204299
 30
0.0
 11
120.0029521769087
 21
207.463465204299
 31
0.0
  0
LINE
  5
322
330
317
100
AcDbEntity
  8
Flansch KST 1101
  6
Continuous
 62
     4
100
AcDbLine
 10
129.3062269752001
 20
207.463465204299
 30
0.0
 11
120.0029521769087
 21
207.463465204299
 31
0.0
  0
LINE
  5
323
330
317
100
AcDbEntity
  8
Flansch KST 1101
  6
Continuous
 62
     4
100
AcDbLine
 10
129.3062269752001
 20
211.463465204299
 30
0.0
 11
120.0029521769087
 21
211.463465204299
 31
0.0
  0
LINE
  5
324
330
317
100
AcDbEntity
  8
Flansch KST 1101
  6
Continuous
 62
   136
100
AcDbLine
 10
155.2707262632875
 20
211.463465204299
 30
0.0
 11
155.2707262632875
 21
207.463465204299
 31
0.0
  0
LINE
  5
325
330
317
100
AcDbEntity
  8
Flansch KST 1101
  6
Continuous
 62
     4
100
AcDbLine
 10
155.2707262632875
 20
207.463465204299
 30
0.0
 11
145.967451464996
 21
207.463465204299
 31
0.0
  0
LINE
  5
326
330
317
100
AcDbEntity
  8
Flansch KST 1101
  6
Continuous
 62
     4
100
AcDbLine
 10
155.2707262632875
 20
211.463465204299
 30
0.0
 11
145.967451464996
 21
211.463465204299
 31
0.0
  0
LINE
  5
327
330
317
100
AcDbEntity
  8
Flansch KST 1101
  6
Continuous
 62
     4
100
AcDbLine
 10
113.6368392200981
 20
211.463465204299
 30
0.0
 11
113.6368392200981
 21
207.463465204299
 31
0.0
  0
LINE
  5
328
330
317
100
AcDbEntity
  8
Flansch KST 1101
  6
Continuous
 62
     4
100
AcDbLine
 10
120.0029521769087
 20
207.463465204299
 30
0.0
 11
113.6368392200981
 21
207.463465204299
 31
0.0
  0
LINE
  5
329
330
317
100
AcDbEntity
  8
Flansch KST 1101
  6
Continuous
 62
     4
100
AcDbLine
 10
120.0029521769087
 20
211.463465204299
 30
0.0
 11
113.6368392200981
 21
211.463465204299
 31
0.0
  0
LINE
  5
32A
330
317
100
AcDbEntity
  8
Flansch KST 1101
  6
Continuous
 62
     4
100
AcDbLine
 10
161.6368392200981
 20
211.463465204299
 30
0.0
 11
155.2707262632875
 21
211.463465204299
 31
0.0
  0
LINE
  5
32B
330
317
100
AcDbEntity
  8
Flansch KST 1101
  6
Continuous
 62
     4
100
AcDbLine
 10
161.6368392200981
 20
207.463465204299
 30
0.0
 11
155.2707262632875
 21
207.463465204299
 31
0.0
  0
LINE
  5
32C
330
317
100
AcDbEntity
  8
Flansch KST 1101
  6
Continuous
 62
     4
100
AcDbLine
 10
161.6368392200981
 20
207.463465204299
 30
0.0
 11
161.6368392200981
 21
211.463465204299
 31
0.0
  0
LINE
  5
32D
330
317
100
AcDbEntity
  8
Flansch KST 1101
  6
DIVIDE
 62
   100
100
AcDbLine
 10
137.6368392200981
 20
223.463465204299
 30
0.0
 11
137.6368392200981
 21
208.463465204299
 31
0.0
  0
LINE
  5
32E
330
317
100
AcDbEntity
  8
Flansch KST 1101
  6
DIVIDE
 62
   100
100
AcDbLine
 10
120.1368392200981
 20
214.463465204299
 30
0.0
 11
120.1368392200981
 21
204.463465204299
 31
0.0
  0
LINE
  5
32F
330
317
100
AcDbEntity
  8
Flansch KST 1101
  6
DIVIDE
 62
   100
100
AcDbLine
 10
155.1368392200981
 20
204.463465204299
 30
0.0
 11
155.1368392200981
 21
214.463465204299
 31
0.0
  0
ENDBLK
  5
319
330
317
100
AcDbEntity
  8
0
100
AcDbBlockEnd
  0
BLOCK
  5
332
330
331
100
AcDbEntity
  8
0
100
AcDbBlockBegin
  2
View  2
 70
     0
 10
0.0
 20
0.0
 30
0.0
  3
View  2
  1

  0
LWPOLYLINE
  5
334
330
331
100
AcDbEntity
  8
Flansch KST 1101
  6
Continuous
 62
     4
100
AcDbPolyline
 90
        6
 70
   128
 43
0.0
 10
374.4801898640002
 20
164.3919133644271
 10
374.9843935462831
 20
164.0449946902482
 10
375.3765943878527
 20
163.6527976219218
 10
375.6448755646898
 20
163.2272388688192
 10
375.7810854890536
 20
162.7812488182142
 10
375.7982093486607
 20
162.5548137275405
  0
LINE
  5
335
330
331
100
AcDbEntity
  8
Flansch KST 1101
  6
Continuous
 62
     4
100
AcDbLine
 10
370.2375491768809
 20
166.8413795469426
 30
0.0
 11
374.4801898640002
 21
164.3919133644271
 31
0.0
  0
LWPOLYLINE
  5
336
330
331
100
AcDbEntity
  8
Flansch KST 1101
  6
Continuous
 62
     4
100
AcDbPolyline
 90
        6
 70
   128
 43
0.0
 10
363.8735881462019
 20
163.1671802731694
 10
363.3693844639191
 20
163.5140989473484
 10
362.9771836223495
 20
163.9062960156748
 10
362.7089024455124
 20
164.3318547687774
 10
362.5726925211486
 20
164.7778448193823
 10
362.5555686615414
 20
165.004279910056
  0
LINE
  5
337
330
331
100
AcDbEntity
  8
Flansch KST 1101
  6
Continuous
 62
     4
100
AcDbLine
 10
368.1162288333213
 20
160.717714090654
 30
0.0
 11
363.8735881462019
 21
163.1671802731694
 31
0.0
  0
LWPOLYLINE
  5
338
330
331
100
AcDbEntity
  8
Flansch KST 1101
  6
Continuous
 62
     4
100
AcDbPolyline
 90
        6
 70
   128
 43
0.0
 10
310.2996315646682
 20
187.1599187925023
 10
308.8791081470372
 20
188.1792376338257
 10
307.7867465648764
 20
189.3254851044011
 10
307.0557376718514
 20
190.5638330551228
 10
306.7082928031032
 20
191.8566549104223
 10
306.6794143220428
 20
192.3566522814784
  0
LWPOLYLINE
  5
339
330
331
100
AcDbEntity
  8
Flansch KST 1101
  6
Continuous
 62
     4
100
AcDbPolyline
 90
        6
 70
   128
 43
0.0
 10
364.428151663572
 20
187.6596703399376
 10
366.3301214609849
 20
186.1571856695271
 10
367.8954618722829
 20
184.5303731820395
 10
369.1001138933399
 20
182.8042366964943
 10
369.9255622365321
 20
181.0053066241219
 10
370.32330323525
 20
179.4148264972295
  0
LWPOLYLINE
  5
33A
330
331
100
AcDbEntity
  8
Flansch KST 1101
  6
Continuous
 62
     4
100
AcDbPolyline
 90
        7
 70
   128
 43
0.0
 10
370.32330323525
 20
179.4148264972295
 10
370.8324695573179
 20
177.4374103547397
 10
371.7329076043368
 20
175.5070393991484
 10
373.0126215407396
 20
173.6494304608837
 10
374.6545627333589
 20
171.8893310186252
 10
376.6368568771027
 20
170.2501895078987
 10
378.5566717624757
 20
168.9762803077744
  0
LWPOLYLINE
  5
33B
330
331
100
AcDbEntity
  8
Flansch KST 1101
  6
Continuous
 62
     4
100
AcDbPolyline
 90
        6
 70
   128
 43
0.0
 10
378.5566717624757
 20
168.9762803077744
 10
379.9771951801067
 20
167.9569614664509
 10
381.0695567622674
 20
166.8107139958756
 10
381.8005656552925
 20
165.5723660451538
 10
382.1480105240406
 20
164.2795441898544
 10
382.1768890051011
 20
163.7795468187983
  0
LWPOLYLINE
  5
33C
330
331
100
AcDbEntity
  8
Flansch KST 1101
  6
Continuous
 62
     4
100
AcDbPolyline
 90
        7
 70
   128
 43
0.0
 10
360.1757959923354
 20
158.3641788067759
 10
357.5432140133307
 20
159.6628209954036
 10
354.6689779695263
 20
160.7776745346908
 10
351.5913790716014
 20
161.6938870982806
 10
348.3514177753253
 20
162.3992526989945
 10
344.9922575643844
 20
162.884374299703
 10
342.095529731106
 20
163.1176706206961
  0
LWPOLYLINE
  5
33D
330
331
100
AcDbEntity
  8
Flansch KST 1101
  6
Continuous
 62
     4
100
AcDbPolyline
 90
       13
 70
   128
 43
0.0
 10
342.095529731106
 20
163.1176706206961
 10
338.9092757898125
 20
163.3992028529671
 10
335.8078459905761
 20
163.906193422357
 10
332.8389087586141
 20
164.6308499738532
 10
330.0480961319146
 20
165.5620346649542
 10
327.4783024049169
 20
166.6854353523312
 10
325.1690248508233
 20
167.983785566929
 10
323.1557566555252
 20
169.4371298965293
 10
321.4694413936387
 20
171.0231306968921
 10
320.1359974312587
 20
172.7174114173811
 10
319.1759195652743
 20
174.4939312642174
 10
318.6039640219814
 20
176.3253854428553
 10
318.5330000918939
 20
176.7213726030471
  0
LWPOLYLINE
  5
33E
330
331
100
AcDbEntity
  8
Flansch KST 1101
  6
Continuous
 62
     4
100
AcDbPolyline
 90
        7
 70
   128
 43
0.0
 10
318.5330000918939
 20
176.7213726030471
 10
318.0238337698259
 20
178.698788745537
 10
317.1233957228071
 20
180.6291597011283
 10
315.8436817864043
 20
182.486768639393
 10
314.201740593785
 20
184.2468680816515
 10
312.2194464500412
 20
185.886009592378
 10
310.2996315646682
 20
187.1599187925022
  0
LINE
  5
33F
330
331
100
AcDbEntity
  8
Flansch KST 1101
  6
Continuous
 62
     4
100
AcDbLine
 10
324.4478761084644
 20
193.2778053395025
 30
0.0
 11
320.7400744938226
 21
195.4184850096227
 31
0.0
  0
LWPOLYLINE
  5
340
330
331
100
AcDbEntity
  8
Flansch KST 1101
  6
Continuous
 62
     4
100
AcDbPolyline
 90
       15
 70
   128
 43
0.0
 10
320.7400744938226
 20
195.4184850096227
 10
320.1391879444595
 20
195.709584341367
 10
319.4598761616197
 20
195.9360194248506
 10
318.7227796899229
 20
196.0909101446947
 10
317.9502948325064
 20
196.1695502247904
 10
317.1658931506922
 20
196.1695502261154
 10
316.3934082924786
 20
196.0909101486295
 10
315.656311819212
 20
195.9360194312756
 10
314.977000034077
 20
195.709584350087
 10
314.3761134817635
 20
195.4184850203728
 10
313.8719097959646
 20
195.0715663478972
 10
313.4797089504198
 20
194.6793692808959
 10
313.2114277692694
 20
194.2538105286997
 10
313.0752178403853
 20
193.8078204785549
 10
313.0580939784831
 20
193.5813853727361
  0
LINE
  5
341
330
331
100
AcDbEntity
  8
Flansch KST 1101
  6
Continuous
 62
     4
100
AcDbLine
 10
314.3761134631437
 20
191.7442857358495
 30
0.0
 11
318.618754150263
 21
189.2948195533341
 31
0.0
  0
LWPOLYLINE
  5
342
330
331
100
AcDbEntity
  8
Flansch KST 1101
  6
Continuous
 62
     4
100
AcDbPolyline
 90
       10
 70
   128
 43
0.0
 10
318.618754150263
 20
189.2948195533341
 10
319.219640699626
 20
189.0037202215898
 10
319.8989524824659
 20
188.7772851381062
 10
320.6360489541626
 20
188.622394418262
 10
321.4085338115792
 20
188.5437543381664
 10
322.1929354933934
 20
188.5437543368413
 10
322.9654203516069
 20
188.6223944143272
 10
323.7025168248736
 20
188.7772851316811
 10
324.3818286100085
 20
189.0037202128697
 10
324.4281516635719
 20
189.022699494728
  0
LWPOLYLINE
  5
343
330
331
100
AcDbEntity
  8
Flansch KST 1101
  6
Continuous
 62
     4
100
AcDbPolyline
 90
       15
 70
   128
 43
0.0
 10
382.1768890051011
 20
163.7795468187983
 10
381.9793897957276
 20
162.476233671999
 10
381.3928930810997
 20
161.2125210353626
 10
380.4352192669774
 20
160.0268061775986
 10
379.1354667873803
 20
158.9551164443916
 10
377.5331279634007
 20
158.030014585742
 10
375.6768890490212
 20
157.2796093532918
 10
373.6231509239335
 20
156.7267014301363
 10
371.4343153813632
 20
156.3880906436107
 10
369.1768890811729
 20
156.2740655110419
 10
366.9194627786711
 20
156.3880906283576
 10
364.7306272292368
 20
156.7267014000935
 10
362.6768890929412
 20
157.2796093093722
 10
360.8206501633501
 20
158.03001452928
 10
360.1757959923354
 20
158.3641788067759
  0
LWPOLYLINE
  5
344
330
331
100
AcDbEntity
  8
Flansch KST 1101
  6
Continuous
 62
     4
100
AcDbPolyline
 90
       15
 70
   128
 43
0.0
 10
382.1768890051011
 20
157.2475427579128
 10
381.9793897957276
 20
155.9442296111135
 10
381.3928930810997
 20
154.6805169744771
 10
380.4352192669774
 20
153.494802116713
 10
379.1354667873803
 20
152.4231123835061
 10
377.5331279634007
 20
151.4980105248565
 10
375.6768890490212
 20
150.7476052924063
 10
373.6231509239335
 20
150.1946973692508
 10
371.4343153813632
 20
149.8560865827252
 10
369.1768890811729
 20
149.7420614501563
 10
366.9194627786711
 20
149.8560865674721
 10
364.7306272292368
 20
150.194697339208
 10
362.6768890929412
 20
150.7476052484867
 10
360.8206501633501
 20
151.4980104683945
 10
360.1757959923354
 20
151.8321747458904
  0
LINE
  5
345
330
331
100
AcDbEntity
  8
Flansch KST 1101
  6
Continuous
 62
     4
100
AcDbLine
 10
382.1768890051011
 20
157.2475427579128
 30
0.0
 11
382.1768890051011
 21
163.7795468187983
 31
0.0
  0
LINE
  5
346
330
331
100
AcDbEntity
  8
Flansch KST 1101
  6
Continuous
 62
   136
100
AcDbLine
 10
360.1757959923354
 20
158.3641788067759
 30
0.0
 11
360.1757959923354
 21
151.8321747458904
 31
0.0
  0
LINE
  5
347
330
331
100
AcDbEntity
  8
Flansch KST 1101
  6
Continuous
 62
     4
100
AcDbLine
 10
358.7515940342986
 20
194.0245936486179
 30
0.0
 11
358.2766202169407
 21
193.9511156501071
 31
0.0
  0
LWPOLYLINE
  5
348
330
331
100
AcDbEntity
  8
Flansch KST 1101
  6
Continuous
 62
     4
100
AcDbPolyline
 90
       12
 70
   128
 43
0.0
 10
357.9233730899705
 20
195.809144598499
 10
358.1980343727019
 20
195.837105515557
 10
358.4769327484581
 20
195.837105515714
 10
358.751594031284
 20
195.8091445989653
 10
359.0136727771483
 20
195.754072343611
 10
359.2552058560354
 20
195.6735620922497
 10
359.4688544076194
 20
195.5700601081107
 10
359.64812682882
 20
195.4467112465842
 10
359.7875760178759
 20
195.3072634003822
 10
359.8829648817738
 20
195.1559536217162
 10
359.9313950781746
 20
194.9973793816101
 10
359.9374835621345
 20
194.9168691235584
  0
LINE
  5
349
330
331
100
AcDbEntity
  8
Flansch KST 1101
  6
Continuous
 62
     4
100
AcDbLine
 10
357.4483992726126
 20
195.7356665999881
 30
0.0
 11
357.9233730899705
 21
195.809144598499
 31
0.0
  0
LWPOLYLINE
  5
34A
330
331
100
AcDbEntity
  8
Flansch KST 1101
  6
Continuous
 62
     4
100
AcDbPolyline
 90
        3
 70
   128
 43
0.0
 10
357.4483992726126
 20
195.7356665999881
 10
356.3969093702227
 20
196.958270749401
 10
355.3941551959858
 20
197.7898909179936
  0
LINE
  5
34B
330
331
100
AcDbEntity
  8
Flansch KST 1101
  6
Continuous
 62
     4
100
AcDbLine
 10
355.7418601625567
 20
197.9906365431637
 30
0.0
 11
355.3941551959858
 21
197.7898909179935
 31
0.0
  0
LWPOLYLINE
  5
34C
330
331
100
AcDbEntity
  8
Flansch KST 1101
  6
Continuous
 62
     4
100
AcDbPolyline
 90
       15
 70
   128
 43
0.0
 10
353.4791184627597
 20
199.2970185071719
 10
353.6927670136444
 20
199.4005204917921
 10
353.9343000919874
 20
199.4810307436974
 10
354.1963788374796
 20
199.536102999642
 10
354.4710401201166
 20
199.5640639170093
 10
354.7499384958728
 20
199.5640639174804
 10
355.0245997787931
 20
199.536103001041
 10
355.2866785248435
 20
199.4810307459818
 10
355.5282116040026
 20
199.4005204948925
 10
355.7418601559363
 20
199.2970185109941
 10
355.9211325775537
 20
199.1736696496695
 10
356.0605817670807
 20
199.0342218036246
 10
356.1559706314898
 20
198.8829120250659
 10
356.2044008284263
 20
198.7243377850145
 10
356.2104893126582
 20
198.6438275251678
  0
LINE
  5
34D
330
331
100
AcDbEntity
  8
Flansch KST 1101
  6
Continuous
 62
     4
100
AcDbLine
 10
353.1314134961889
 20
199.0962728820018
 30
0.0
 11
353.4791184627597
 21
199.2970185071719
 31
0.0
  0
LWPOLYLINE
  5
34E
330
331
100
AcDbEntity
  8
Flansch KST 1101
  6
Continuous
 62
     4
100
AcDbPolyline
 90
       15
 70
   128
 43
0.0
 10
353.1314134961889
 20
199.0962728820018
 10
351.1619800925712
 20
199.8515430646393
 10
349.0004951537204
 20
200.4047052464748
 10
346.7086051123109
 20
200.7399830163069
 10
344.3516756077674
 20
200.8478141152951
 10
341.9969272315496
 20
200.7251231564846
 10
339.7115183684466
 20
200.3754093360975
 10
337.5606298120327
 20
199.8086466350283
 10
335.6056057818303
 20
199.0409993568379
 10
333.9022043611313
 20
198.0943611152183
 10
332.499007253704
 20
196.9957304191947
 10
331.4360342137724
 20
195.7764406646281
 10
330.7436016662921
 20
194.4712664929765
 10
330.4414580701362
 20
193.1174320043272
 10
330.4281516635719
 20
192.7651086871307
  0
LINE
  5
34F
330
331
100
AcDbEntity
  8
Flansch KST 1101
  6
Continuous
 62
     4
100
AcDbLine
 10
353.4791184627597
 20
186.2331988670896
 30
0.0
 11
353.1314134961889
 21
186.4339444922597
 31
0.0
  0
LWPOLYLINE
  5
350
330
331
100
AcDbEntity
  8
Flansch KST 1101
  6
Continuous
 62
     4
100
AcDbPolyline
 90
        6
 70
   128
 43
0.0
 10
355.7418601625567
 20
187.5395808310978
 10
355.9211325829239
 20
187.4162319691675
 10
356.0605817710376
 20
187.2767841226514
 10
356.1559706339129
 20
187.1254743437705
 10
356.2044008292423
 20
186.9669001035554
 10
356.2104893126582
 20
186.8863898490937
  0
LINE
  5
351
330
331
100
AcDbEntity
  8
Flansch KST 1101
  6
Continuous
 62
     4
100
AcDbLine
 10
355.3941551959858
 20
187.740326456268
 30
0.0
 11
355.7418601625567
 21
187.5395808310978
 31
0.0
  0
LWPOLYLINE
  5
352
330
331
100
AcDbEntity
  8
Flansch KST 1101
  6
Continuous
 62
     4
100
AcDbPolyline
 90
        5
 70
   128
 43
0.0
 10
355.3941551959858
 20
187.740326456268
 10
356.702334108395
 20
188.8773684253236
 10
357.6604483277228
 20
190.1252903334423
 10
358.2411720453761
 20
191.4485009384601
 10
358.428151663572
 20
192.7651086871307
  0
LWPOLYLINE
  5
353
330
331
100
AcDbEntity
  8
Flansch KST 1101
  6
Continuous
 62
     4
100
AcDbPolyline
 90
       18
 70
   128
 43
0.0
 10
358.5702872873029
 20
184.6002214120793
 10
356.435289974701
 20
183.5306856180388
 10
354.0604500747679
 20
182.64560742447
 10
351.4932050144188
 20
181.9626662682575
 10
348.7848355136417
 20
181.4955038989721
 10
345.9894412531166
 20
181.2534518849232
 10
343.1628602330969
 20
181.2413452150828
 10
340.3615534093552
 20
181.4594257201805
 10
337.6414768855946
 20
181.9033372421349
 10
335.0569641902791
 20
182.564212648311
 10
332.6596409644043
 20
183.4288509524942
 10
330.4973937393204
 20
184.4799810045897
 10
328.6134134032707
 20
185.6966064818448
 10
327.0453324633994
 20
187.0544252903953
 10
325.824473336424
 20
188.5263149995895
 10
324.9752226833618
 20
190.0828746125392
 10
324.5145442859769
 20
191.6930118510321
 10
324.4281516635719
 20
192.7651086871307
  0
LWPOLYLINE
  5
354
330
331
100
AcDbEntity
  8
Flansch KST 1101
  6
Continuous
 62
     4
100
AcDbPolyline
 90
       24
 70
   128
 43
0.0
 10
324.4281516635719
 20
178.0680995501383
 10
324.6279016632109
 20
176.4402229179539
 10
325.2231616558922
 20
174.8448631214387
 10
326.2020413232836
 20
173.3138874724703
 10
327.5449875440643
 20
171.8778772095818
 10
329.2251749675225
 20
170.5655166377223
 10
331.2090418499355
 20
169.4030201592675
 10
333.4569604503986
 20
168.4136086413325
 10
335.9240285949488
 20
167.6170455789524
 10
338.5609665974877
 20
167.0292423192693
 10
341.3151016215098
 20
166.6619402323744
 10
344.1314198200097
 20
166.52247617744
 10
346.9536652370741
 20
166.6136359489584
 10
349.7254635205989
 20
166.9335986304968
 10
352.3914479999708
 20
167.4759729675031
 10
354.8983656353107
 20
168.2299250326152
 10
357.1961407469431
 20
169.1803946333595
 10
359.2388752770962
 20
170.3083961394957
 10
360.9857656036037
 20
171.5913977209792
 10
362.401917592257
 20
173.0037714212665
 10
363.4590436071336
 20
174.5173050757451
 10
364.1360275561248
 20
176.1017658497215
 10
364.4193466848736
 20
177.7255041392927
 10
364.428151663572
 20
178.0680995501383
  0
LWPOLYLINE
  5
355
330
331
100
AcDbEntity
  8
Flansch KST 1101
  6
Continuous
 62
     4
100
AcDbPolyline
 90
        7
 70
   128
 43
0.0
 10
364.428151663572
 20
192.7651086871307
 10
364.228401663933
 20
191.1372320549464
 10
363.6331416712517
 20
189.5418722584311
 10
362.6542620038603
 20
188.0108966094628
 10
361.3113157830796
 20
186.5748863465742
 10
359.6311283596214
 20
185.2625257747148
 10
358.5702872873029
 20
184.6002214120793
  0
LWPOLYLINE
  5
356
330
331
100
AcDbEntity
  8
Flansch KST 1101
  6
Continuous
 62
     4
100
AcDbPolyline
 90
       24
 70
   128
 43
0.0
 10
324.4281516635719
 20
192.7651086871307
 10
324.6279016632109
 20
194.3929853193152
 10
325.2231616558923
 20
195.9883451158304
 10
326.2020413232836
 20
197.5193207647988
 10
327.5449875440643
 20
198.9553310276874
 10
329.2251749675225
 20
200.2676915995468
 10
331.2090418499355
 20
201.4301880780016
 10
333.4569604503986
 20
202.4195995959366
 10
335.9240285949488
 20
203.2161626583167
 10
338.5609665974877
 20
203.8039659179998
 10
341.3151016215098
 20
204.1712680048947
 10
344.1314198200097
 20
204.3107320598291
 10
346.9536652370741
 20
204.2195722883107
 10
349.7254635205989
 20
203.8996096067723
 10
352.3914479999708
 20
203.357235269766
 10
354.8983656353107
 20
202.6032832046539
 10
357.1961407469431
 20
201.6528136039096
 10
359.2388752770962
 20
200.5248120977734
 10
360.9857656036037
 20
199.2418105162898
 10
362.401917592257
 20
197.8294368160026
 10
363.4590436071336
 20
196.315903161524
 10
364.1360275561248
 20
194.7314423875476
 10
364.4193466848736
 20
193.1077040979764
 10
364.428151663572
 20
192.7651086871307
  0
LINE
  5
357
330
331
100
AcDbEntity
  8
Flansch KST 1101
  6
Continuous
 62
     4
100
AcDbLine
 10
324.4281516635719
 20
192.7651086871307
 30
0.0
 11
324.4281516635719
 21
178.0680995501383
 31
0.0
  0
LINE
  5
358
330
331
100
AcDbEntity
  8
Flansch KST 1101
  6
Continuous
 62
     4
100
AcDbLine
 10
364.428151663572
 20
178.0680995501383
 30
0.0
 11
364.428151663572
 21
192.7651086871307
 31
0.0
  0
LINE
  5
359
330
331
100
AcDbEntity
  8
Flansch KST 1101
  6
Continuous
 62
   136
100
AcDbLine
 10
342.095529731106
 20
163.1176706206961
 30
0.0
 11
342.095529731106
 21
156.5856665598106
 31
0.0
  0
LWPOLYLINE
  5
35A
330
331
100
AcDbEntity
  8
Flansch KST 1101
  6
Continuous
 62
     4
100
AcDbPolyline
 90
        7
 70
   128
 43
0.0
 10
360.1757959923354
 20
151.8321747458904
 10
357.5432140133307
 20
153.1308169345181
 10
354.6689779695263
 20
154.2456704738052
 10
351.5913790716014
 20
155.1618830373951
 10
348.3514177753253
 20
155.867248638109
 10
344.9922575643844
 20
156.3523702388174
 10
342.095529731106
 20
156.5856665598106
  0
LWPOLYLINE
  5
35B
330
331
100
AcDbEntity
  8
Flansch KST 1101
  6
Continuous
 62
     4
100
AcDbPolyline
 90
       15
 70
   128
 43
0.0
 10
375.7982093486607
 20
162.5548137275405
 10
375.7298442377237
 20
162.1036668690331
 10
375.5268261441988
 20
161.6662278794282
 10
375.1953236700795
 20
161.2557881209714
 10
374.7454093502189
 20
160.8848185979382
 10
374.1907536034568
 20
160.5645910314826
 10
373.5482093638639
 20
160.304835374096
 10
372.837300012872
 20
160.1134441699268
 10
372.079626171213
 20
159.9962327438218
 10
371.2982093749933
 20
159.9567625056249
 10
370.5167925779734
 20
159.9962327385419
 10
369.7591187339385
 20
160.1134441595273
 10
369.048209379067
 20
160.3048353588931
 10
368.4056651342084
 20
160.5645910119381
 10
368.1162288333213
 20
160.717714090654
  0
LINE
  5
35C
330
331
100
AcDbEntity
  8
Flansch KST 1101
  6
Continuous
 62
   136
100
AcDbLine
 10
374.4801898640002
 20
164.3919133644271
 30
0.0
 11
374.4801898640002
 21
160.717714090654
 31
0.0
  0
LWPOLYLINE
  5
35D
330
331
100
AcDbEntity
  8
Flansch KST 1101
  6
Continuous
 62
     4
100
AcDbPolyline
 90
       15
 70
   128
 43
0.0
 10
330.4281516635719
 20
192.7651086871307
 10
330.6277945206489
 20
191.4049572297715
 10
331.2210291961113
 20
190.0835978471272
 10
332.1909363948836
 20
188.8387162481087
 10
333.5098539677855
 20
187.7058169640235
 10
335.1401658473167
 20
186.7172107448507
 10
337.0353748732548
 20
185.9010930434646
 10
339.1414289106431
 20
185.2807398698104
 10
341.3982624387413
 20
184.8738439496002
 10
343.7415096441926
 20
184.6920101205546
 10
346.1043401602922
 20
184.7404243576941
 10
348.4193650963226
 20
185.017705867215
 10
350.6205589962217
 20
185.5159464672923
 10
352.6451429115386
 20
186.220936132653
 10
353.1314134961889
 20
186.4339444922597
  0
LINE
  5
35E
330
331
100
AcDbEntity
  8
Flansch KST 1101
  6
Continuous
 62
     4
100
AcDbLine
 10
353.1314134961889
 20
186.4339444922597
 30
0.0
 11
353.1314134961889
 21
199.0962728820018
 31
0.0
  0
LINE
  5
35F
330
331
100
AcDbEntity
  8
Flansch KST 1101
  6
Continuous
 62
   136
100
AcDbLine
 10
318.5330000918939
 20
176.7213726030471
 30
0.0
 11
318.5330000918939
 21
170.1893685421616
 31
0.0
  0
LWPOLYLINE
  5
360
330
331
100
AcDbEntity
  8
Flansch KST 1101
  6
Continuous
 62
     4
100
AcDbPolyline
 90
       13
 70
   128
 43
0.0
 10
342.095529731106
 20
156.5856665598106
 10
338.9092757898125
 20
156.8671987920815
 10
335.8078459905761
 20
157.3741893614715
 10
332.8389087586141
 20
158.0988459129677
 10
330.0480961319146
 20
159.0300306040687
 10
327.4783024049169
 20
160.1534312914457
 10
325.1690248508233
 20
161.4517815060435
 10
323.1557566555252
 20
162.9051258356438
 10
321.4694413936387
 20
164.4911266360066
 10
320.1359974312587
 20
166.1854073564956
 10
319.1759195652743
 20
167.9619272033318
 10
318.6039640219814
 20
169.7933813819698
 10
318.5330000918939
 20
170.1893685421616
  0
LWPOLYLINE
  5
361
330
331
100
AcDbEntity
  8
Flansch KST 1101
  6
Continuous
 62
     4
100
AcDbPolyline
 90
       15
 70
   128
 43
0.0
 10
362.5555686615415
 20
165.004279910056
 10
362.6239337724784
 20
165.4554267685635
 10
362.8269518660035
 20
165.8928657581683
 10
363.1584543401227
 20
166.3033055166251
 10
363.6083686599832
 20
166.6742750396583
 10
364.1630244067454
 20
166.9945026061139
 10
364.8055686463383
 20
167.2542582635005
 10
365.5164779973302
 20
167.4456494676698
 10
366.2741518389892
 20
167.5628608937748
 10
367.0555686352089
 20
167.6023311319717
 10
367.8369854322287
 20
167.5628608990547
 10
368.5946592762637
 20
167.4456494780692
 10
369.3055686311352
 20
167.2542582787035
 10
369.9481128759937
 20
166.9945026256585
 10
370.2375491768809
 20
166.8413795469426
  0
LINE
  5
362
330
331
100
AcDbEntity
  8
Flansch KST 1101
  6
Continuous
 62
   136
100
AcDbLine
 10
370.2375491768809
 20
166.8413795469426
 30
0.0
 11
370.2375491768809
 21
160.3093754860571
 31
0.0
  0
LWPOLYLINE
  5
363
330
331
100
AcDbEntity
  8
Flansch KST 1101
  6
Continuous
 62
     4
100
AcDbPolyline
 90
        5
 70
   128
 43
0.0
 10
370.2375491768809
 20
160.3093754860571
 10
369.6366626275178
 20
160.6004748178013
 10
368.957350844678
 20
160.8269099012849
 10
368.2202543729812
 20
160.9818006211291
 10
367.5306250099985
 20
161.0558093637078
  0
LWPOLYLINE
  5
364
330
331
100
AcDbEntity
  8
Flansch KST 1101
  6
Continuous
 62
     4
100
AcDbPolyline
 90
       15
 70
   128
 43
0.0
 10
356.2104893126582
 20
186.8863898490937
 10
356.1861817176584
 20
186.7259820771799
 10
356.1139975066272
 20
186.5704482142093
 10
355.9961299602737
 20
186.4245140778691
 10
355.8361604243233
 20
186.2926138030129
 10
355.6389494921413
 20
186.1787551127176
 10
355.4104893180638
 20
186.0863975456468
 10
355.1577215488222
 20
186.0183473397199
 10
354.8883264051212
 20
185.9766721659937
 10
354.6104893220209
 20
185.9626383035237
 10
354.332652238636
 20
185.9766721641164
 10
354.0632570940903
 20
186.0183473360223
 10
353.8104893234693
 20
186.0863975402413
 10
353.5820291475196
 20
186.1787551057684
 10
353.4791184627597
 20
186.2331988670896
  0
LINE
  5
365
330
331
100
AcDbEntity
  8
Flansch KST 1101
  6
Continuous
 62
   136
100
AcDbLine
 10
355.7418601625567
 20
187.5395808310978
 30
0.0
 11
355.7418601625567
 21
186.2331988670896
 31
0.0
  0
LINE
  5
366
330
331
100
AcDbEntity
  8
Flansch KST 1101
  6
Continuous
 62
     4
100
AcDbLine
 10
370.8231530002037
 20
159.9712802130032
 30
0.0
 11
370.2375491768809
 21
160.3093754860571
 31
0.0
  0
LINE
  5
367
330
331
100
AcDbEntity
  8
Flansch KST 1101
  6
Continuous
 62
     4
100
AcDbLine
 10
355.3941551959858
 20
186.0810265043713
 30
0.0
 11
355.3941551959858
 21
187.740326456268
 31
0.0
  0
LWPOLYLINE
  5
368
330
331
100
AcDbEntity
  8
Flansch KST 1101
  6
Continuous
 62
     4
100
AcDbPolyline
 90
        2
 70
   128
 43
0.0
 10
358.428151663572
 20
192.7651086871307
 10
358.2766202169407
 20
193.9511156501071
  0
LINE
  5
369
330
331
100
AcDbEntity
  8
Flansch KST 1101
  6
Continuous
 62
     4
100
AcDbLine
 10
358.2766202169407
 20
193.9511156501071
 30
0.0
 11
358.2766202169407
 21
191.5791017241544
 31
0.0
  0
LWPOLYLINE
  5
36A
330
331
100
AcDbEntity
  8
Flansch KST 1101
  6
Continuous
 62
     4
100
AcDbPolyline
 90
        9
 70
   128
 43
0.0
 10
359.9374835621345
 20
194.9168691235584
 10
359.9131759671347
 20
194.7564613516447
 10
359.8409917561036
 20
194.600927488674
 10
359.72312420975
 20
194.4549933523338
 10
359.5631546737996
 20
194.3230930774776
 10
359.3659437416176
 20
194.2092343871823
 10
359.1374835675401
 20
194.1168768201115
 10
358.8847157982985
 20
194.0488266141847
 10
358.7515940342986
 20
194.0245936486179
  0
LINE
  5
36B
330
331
100
AcDbEntity
  8
Flansch KST 1101
  6
Continuous
 62
   136
100
AcDbLine
 10
357.9233730899705
 20
195.809144598499
 30
0.0
 11
357.9233730899705
 21
190.6142381916373
 31
0.0
  0
LINE
  5
36C
330
331
100
AcDbEntity
  8
Flansch KST 1101
  6
Continuous
 62
     4
100
AcDbLine
 10
357.4483992726126
 20
189.7945507742734
 30
0.0
 11
357.4483992726126
 21
195.7356665999881
 31
0.0
  0
LINE
  5
36D
330
331
100
AcDbEntity
  8
Flansch KST 1101
  6
Continuous
 62
     4
100
AcDbLine
 10
355.3941551959858
 20
197.7898909179935
 30
0.0
 11
355.3941551959858
 21
187.740326456268
 31
0.0
  0
LWPOLYLINE
  5
36E
330
331
100
AcDbEntity
  8
Flansch KST 1101
  6
Continuous
 62
     4
100
AcDbPolyline
 90
        6
 70
   128
 43
0.0
 10
356.2104893126582
 20
198.6438275251678
 10
356.1861817176584
 20
198.483419753254
 10
356.1139975066272
 20
198.3278858902834
 10
355.9961299602737
 20
198.1819517539432
 10
355.8361604243233
 20
198.050051479087
 10
355.7418601625566
 20
197.9906365431637
  0
LINE
  5
36F
330
331
100
AcDbEntity
  8
Flansch KST 1101
  6
Continuous
 62
   136
100
AcDbLine
 10
353.4791184627597
 20
199.2970185071719
 30
0.0
 11
353.4791184627597
 21
186.2331988670896
 31
0.0
  0
LINE
  5
370
330
331
100
AcDbEntity
  8
Flansch KST 1101
  6
Continuous
 62
   136
100
AcDbLine
 10
310.2996315646682
 20
187.1599187925023
 30
0.0
 11
310.2996315646682
 21
180.6279147316167
 31
0.0
  0
LWPOLYLINE
  5
371
330
331
100
AcDbEntity
  8
Flansch KST 1101
  6
Continuous
 62
     4
100
AcDbPolyline
 90
        7
 70
   128
 43
0.0
 10
318.5330000918939
 20
170.1893685421616
 10
318.0238337698259
 20
172.1667846846514
 10
317.1233957228071
 20
174.0971556402428
 10
315.8436817864043
 20
175.9547645785075
 10
314.201740593785
 20
177.714864020766
 10
312.2194464500412
 20
179.3540055314924
 10
310.2996315646682
 20
180.6279147316167
  0
LWPOLYLINE
  5
372
330
331
100
AcDbEntity
  8
Flansch KST 1101
  6
Continuous
 62
     4
100
AcDbPolyline
 90
       14
 70
   128
 43
0.0
 10
306.6794143220428
 20
192.3566522814784
 10
306.8769135314163
 20
193.6599654282777
 10
307.4634102460442
 20
194.923678064914
 10
308.4210840601664
 20
196.1093929226781
 10
309.7208365397636
 20
197.1810826558851
 10
311.3231753637431
 20
198.1061845145347
 10
313.1794142781227
 20
198.8565897469848
 10
315.2331524032104
 20
199.4094976701404
 10
317.4219879457806
 20
199.748108456666
 10
319.679414245971
 20
199.8621335892348
 10
321.9368405484728
 20
199.7481084719191
 10
324.125676097907
 20
199.4094977001832
 10
326.1794142342027
 20
198.8565897909045
 10
327.0916946650485
 20
198.5225776244549
  0
LINE
  5
373
330
331
100
AcDbEntity
  8
Flansch KST 1101
  6
Continuous
 62
     4
100
AcDbLine
 10
306.6794143220428
 20
192.3566522814784
 30
0.0
 11
306.6794143220428
 21
185.8246482205928
 31
0.0
  0
LWPOLYLINE
  5
374
330
331
100
AcDbEntity
  8
Flansch KST 1101
  6
Continuous
 62
     4
100
AcDbPolyline
 90
        6
 70
   128
 43
0.0
 10
310.2996315646682
 20
180.6279147316167
 10
308.8791081470372
 20
181.6472335729402
 10
307.7867465648764
 20
182.7934810435155
 10
307.0557376718514
 20
184.0318289942373
 10
306.7082928031032
 20
185.3246508495367
 10
306.6794143220428
 20
185.8246482205928
  0
LWPOLYLINE
  5
375
330
331
100
AcDbEntity
  8
Flansch KST 1101
  6
Continuous
 62
     4
100
AcDbPolyline
 90
        6
 70
   128
 43
0.0
 10
313.0580939784832
 20
193.5813853727361
 10
313.1264590894201
 20
193.1302385142287
 10
313.3294771829451
 20
192.6927995246238
 10
313.6609796570644
 20
192.282359766167
 10
314.110893976925
 20
191.9113902431338
 10
314.3761134631437
 20
191.7442857358495
  0
LINE
  5
376
330
331
100
AcDbEntity
  8
Flansch KST 1101
  6
Continuous
 62
   136
100
AcDbLine
 10
320.7400744938226
 20
195.4184850096227
 30
0.0
 11
320.7400744938226
 21
188.8864809487372
 31
0.0
  0
LWPOLYLINE
  5
377
330
331
100
AcDbEntity
  8
Flansch KST 1101
  6
Continuous
 62
     4
100
AcDbPolyline
 90
        5
 70
   128
 43
0.0
 10
320.7400744938226
 20
188.8864809487372
 10
320.1391879444595
 20
189.1775802804815
 10
319.4598761616197
 20
189.4040153639651
 10
318.7227796899229
 20
189.5589060838092
 10
318.0331503269402
 20
189.6329148263879
  0
LINE
  5
378
330
331
100
AcDbEntity
  8
Flansch KST 1101
  6
Continuous
 62
     4
100
AcDbLine
 10
321.3256783171454
 20
188.5483856756833
 30
0.0
 11
320.7400744938226
 21
188.8864809487372
 31
0.0
  0
TEXT
  5
379
330
331
100
AcDbEntity
  8
Flansch KST 1101
  6
Continuous
 62
     7
100
AcDbText
 10
320.9476301922159
 20
135.7420612601665
 30
0.0
 40
4.0
  1
Maßstab  2:1
 41
0.931766725053811
  7
VERO0-courier new
 72
     5
 11
367.908673134928
 21
135.7420612601665
 31
0.0
100
AcDbText
  0
ENDBLK
  5
333
330
331
100
AcDbEntity
  8
0
100
AcDbBlockEnd
  0
ENDSEC
  0
SECTION
  2
ENTITIES
  0
DIMENSION
  5
F1
330
1B
100
AcDbEntity
 67
     1
  8
Flansch KST 1101
  6
Continuous
 62
    56
100
AcDbDimension
  2
*D18
 10
153.679375440101
 20
169.536308156201
 30
0.0
 11
141.876233021774
 21
171.036308156201
 31
0.0
 70
    32
  1
<>
 71
     5
 42
-1.0
  3
Vero Software
100
AcDbAlignedDimension
 13
113.636839220098
 23
140.757788096262
 33
0.0
 14
161.636839220098
 24
140.757788096262
 34
0.0
100
AcDbRotatedDimension
1001
ACAD
1000
DSTYLE
1002
{
1070
   140
1040
2.8
1070
    41
1040
2.83564090980885
1070
   340
1005
71
1070
   278
1070
    46
1002
}
  0
DIMENSION
  5
FB
330
1B
100
AcDbEntity
 67
     1
  8
Flansch KST 1101
  6
Continuous
 62
    56
100
AcDbDimension
  2
*D19
 10
98.8503662853658
 20
137.792593883941
 30
0.0
 11
97.3503662853658
 21
144.997181897938
 31
0.0
 70
    32
  1
<>
 71
     5
 42
-1.0
  3
Vero Software
100
AcDbAlignedDimension
 13
137.636839220098
 23
153.757788096262
 33
0.0
 14
137.636839220098
 24
127.757788096262
 34
0.0
 50
90.0
100
AcDbRotatedDimension
1001
ACAD
1000
DSTYLE
1002
{
1070
   140
1040
2.8
1070
    41
1040
2.83564090980885
1070
   340
1005
71
1070
   278
1070
    46
1002
}
  0
DIMENSION
  5
105
330
1B
100
AcDbEntity
 67
     1
  8
Flansch KST 1101
  6
Continuous
 62
    56
100
AcDbDimension
  2
*D20
 10
97.91500610984049
 20
216.924069519221
 30
0.0
 11
96.41500610984049
 21
218.202859005975
 31
0.0
 70
    32
  1
<>
 71
     5
 42
-1.0
  3
Vero Software
100
AcDbAlignedDimension
 13
113.636839220098
 23
207.463465204299
 33
0.0
 14
127.636839220098
 24
220.463465204299
 34
0.0
 50
90.0
100
AcDbRotatedDimension
1001
ACAD
1000
DSTYLE
1002
{
1070
   140
1040
2.8
1070
    41
1040
2.83564090980885
1070
   340
1005
71
1070
   278
1070
    46
1002
}
  0
DIMENSION
  5
10F
330
1B
100
AcDbEntity
 67
     1
  8
Flansch KST 1101
  6
Continuous
 62
    56
100
AcDbDimension
  2
*D21
 10
174.167125942632
 20
157.07362391873
 30
0.0
 11
172.667125942632
 21
158.07362391873
 31
0.0
 70
    32
  1
<>
 71
     5
 42
-1.0
  3
Vero Software
100
AcDbAlignedDimension
 13
155.136839220098
 23
143.007788096262
 33
0.0
 14
155.136839220098
 24
138.507788096262
 34
0.0
 50
90.0
100
AcDbRotatedDimension
1001
ACAD
1000
DSTYLE
1002
{
1070
   140
1040
2.8
1070
    41
1040
2.83564090980885
1070
   340
1005
71
1070
   278
1070
    46
1002
}
  0
DIMENSION
  5
11B
330
1B
100
AcDbEntity
 67
     1
  8
Flansch KST 1101
  6
Continuous
 62
    56
100
AcDbDimension
  2
*D22
 10
138.890243575569
 20
108.835619611111
 30
0.0
 11
141.876233021774
 21
110.335619611111
 31
0.0
 70
    32
  1
<>
 71
     5
 42
-1.0
  3
Vero Software
100
AcDbAlignedDimension
 13
120.136839220098
 23
138.507788096262
 33
0.0
 14
155.136839220098
 24
138.507788096262
 34
0.0
100
AcDbRotatedDimension
1001
ACAD
1000
DSTYLE
1002
{
1070
   140
1040
2.8
1070
    41
1040
2.83564090980885
1070
   340
1005
71
1070
   278
1070
    46
1002
}
  0
INSERT
  5
2A4
330
1B
100
AcDbEntity
 67
     1
  8
Flansch KST 1101
  6
Continuous
 62
     4
100
AcDbBlockReference
  2
Entity set 0
 10
0.0
 20
0.0
 30
0.0
  0
INSERT
  5
2AB
330
1B
100
AcDbEntity
 67
     1
  8
Flansch KST 1101
  6
Continuous
 62
   136
100
AcDbBlockReference
  2
Hatch 0
 10
0.0
 20
0.0
 30
0.0
  0
INSERT
  5
2DE
330
1B
100
AcDbEntity
 67
     1
  8
Flansch KST 1101
  6
Continuous
 62
     4
100
AcDbBlockReference
  2
Section 0
 10
0.0
 20
0.0
 30
0.0
  0
INSERT
  5
316
330
1B
100
AcDbEntity
 67
     1
  8
Flansch KST 1101
  6
Continuous
 62
     4
100
AcDbBlockReference
  2
View  0
 10
0.0
 20
0.0
 30
0.0
  0
INSERT
  5
330
330
1B
100
AcDbEntity
 67
     1
  8
Flansch KST 1101
  6
Continuous
 62
     4
100
AcDbBlockReference
  2
View  1
 10
0.0
 20
0.0
 30
0.0
  0
INSERT
  5
37A
330
1B
100
AcDbEntity
 67
     1
  8
Flansch KST 1101
  6
Continuous
 62
     4
100
AcDbBlockReference
  2
View  2
 10
0.0
 20
0.0
 30
0.0
  0
VIEWPORT
  5
37B
102
{ACAD_XDICTIONARY
360
389
102
}
330
1B
100
AcDbEntity
 67
     1
  8
0
100
AcDbViewport
 10
0.0
 20
0.0
 30
0.0
 40
428.4
 41
302.9400000000001
 68
     1
 69
     1
 12
210.0
 22
148.5000000000001
 13
0.0
 23
0.0
 14
10.0
 24
10.0
 15
10.0
 25
10.0
 16
0.0
 26
0.0
 36
1.0
 17
0.0
 27
0.0
 37
0.0
 42
50.0
 43
0.0
 44
0.0
 45
302.9400000000001
 50
0.0
 51
0.0
 72
   100
 90
   557152
  1

281
     0
 71
     1
 74
     0
110
0.0
120
0.0
130
0.0
111
1.0
121
0.0
131
0.0
112
0.0
122
1.0
132
0.0
 79
     0
146
0.0
  0
ENDSEC
  0
SECTION
  2
OBJECTS
  0
DICTIONARY
  5
C
330
0
100
AcDbDictionary
281
     1
  3
ACAD_GROUP
350
D
  3
ACAD_LAYOUT
350
1A
  3
ACAD_MATERIAL
350
43
  3
ACAD_MLEADERSTYLE
350
6B
  3
ACAD_MLINESTYLE
350
17
  3
ACAD_PLOTSETTINGS
350
19
  3
ACAD_PLOTSTYLENAME
350
E
  3
ACAD_SCALELIST
350
47
  3
ACAD_TABLESTYLE
350
69
  3
ACAD_VISUALSTYLE
350
2A
  3
AcDbVariableDictionary
350
37D
  3
DWGPROPS
350
388
  0
DICTIONARY
  5
38B
330
8
100
AcDbDictionary
280
     1
281
     1
  3
ACAD_XREC_ROUNDTRIP
360
38C
  0
DICTIONARY
  5
389
330
37B
100
AcDbDictionary
280
     1
281
     1
  3
ACAD_XREC_ROUNDTRIP
360
38A
  0
DICTIONARY
  5
D
102
{ACAD_REACTORS
330
C
102
}
330
C
100
AcDbDictionary
281
     1
  0
DICTIONARY
  5
1A
102
{ACAD_REACTORS
330
C
102
}
330
C
100
AcDbDictionary
281
     1
  3
Blatt-1
350
1E
  3
Layout2
350
26
  3
Model
350
22
  0
DICTIONARY
  5
43
102
{ACAD_REACTORS
330
C
102
}
330
C
100
AcDbDictionary
281
     1
  3
ByBlock
350
45
  3
ByLayer
350
44
  3
Global
350
46
  0
DICTIONARY
  5
6B
102
{ACAD_REACTORS
330
C
102
}
330
C
100
AcDbDictionary
281
     1
  3
Standard
350
6C
  3
VisiBalloon
350
F0
  0
DICTIONARY
  5
17
102
{ACAD_REACTORS
330
C
102
}
330
C
100
AcDbDictionary
281
     1
  3
Standard
350
18
  0
DICTIONARY
  5
19
102
{ACAD_REACTORS
330
C
102
}
330
C
100
AcDbDictionary
281
     1
  0
ACDBDICTIONARYWDFLT
  5
E
102
{ACAD_REACTORS
330
C
102
}
330
C
100
AcDbDictionary
281
     1
  3
Normal
350
F
100
AcDbDictionaryWithDefault
340
F
  0
DICTIONARY
  5
47
102
{ACAD_REACTORS
330
C
102
}
330
C
100
AcDbDictionary
281
     1
  3
A0
350
48
  3
A1
350
49
  3
A2
350
4A
  3
A3
350
4B
  3
A4
350
4C
  3
A5
350
4D
  3
A6
350
4E
  3
A7
350
4F
  3
A8
350
50
  3
A9
350
51
  3
B0
350
52
  3
B1
350
53
  3
B2
350
54
  3
B3
350
55
  3
B4
350
56
  3
B5
350
57
  3
B6
350
58
  3
B7
350
59
  3
B8
350
5A
  3
B9
350
5B
  3
C0
350
5C
  3
C1
350
5D
  3
C2
350
5E
  3
C3
350
5F
  3
C4
350
60
  3
C5
350
61
  3
C6
350
62
  3
C7
350
63
  3
C8
350
64
  3
C9
350
65
  3
D0
350
66
  3
D1
350
67
  3
D2
350
68
  0
DICTIONARY
  5
69
102
{ACAD_REACTORS
330
C
102
}
330
C
100
AcDbDictionary
281
     1
  3
Standard
350
6A
  0
DICTIONARY
  5
2A
102
{ACAD_REACTORS
330
C
102
}
330
C
100
AcDbDictionary
281
     1
  3
2dWireframe
350
2F
  3
Basic
350
32
  3
Brighten
350
36
  3
ColorChange
350
3A
  3
Conceptual
350
34
  3
Dim
350
35
  3
EdgeColorOff
350
3D
  3
Facepattern
350
39
  3
Flat
350
2B
  3
FlatWithEdges
350
2C
  3
Gouraud
350
2D
  3
GouraudWithEdges
350
2E
  3
Hidden
350
31
  3
JitterOff
350
3B
  3
Linepattern
350
38
  3
OverhangOff
350
3C
  3
Realistic
350
33
  3
Shaded
350
42
  3
Shaded with edges
350
41
  3
Shades of Gray
350
3E
  3
Sketchy
350
3F
  3
Thicken
350
37
  3
Wireframe
350
30
  3
X-Ray
350
40
  0
DICTIONARY
  5
37D
102
{ACAD_REACTORS
330
C
102
}
330
C
100
AcDbDictionary
281
     1
  3
CANNOSCALE
350
38D
  3
CENTEREXE
350
384
  3
CENTERLTYPEFILE
350
385
  3
CMLEADERSTYLE
350
37F
  3
CTABLESTYLE
350
37E
  3
DIMASSOC
350
386
  3
HIDETEXT
350
387
  3
MSLTSCALE
350
38E
  3
PSOLHEIGHT
350
381
  3
PSOLWIDTH
350
380
  0
XRECORD
  5
388
102
{ACAD_REACTORS
330
C
102
}
330
C
100
AcDbXrecord
280
     1
  1
DWGPROPS COOKIE
  2

  3

  4
koester
  6

  7

  8
koester
  9

300
Vero Software=VISI 2021.0.2050
301
Source file=N:\Zeichnungen\560-Z_BST Solutions GmbH\560_001\Konstruktion\Artikel mit Zeichnungen\KLC Flansch 13mm.WKF
302
=
303
=
304
=
305
=
306
=
307
=
308
=
309
=
 40
0.0
 41
2459296.535541308
 42
2459296.535542673
  1

 90
        2
  0
XRECORD
  5
38C
102
{ACAD_REACTORS
330
38B
102
}
330
38B
100
AcDbXrecord
280
     1
102
VTR_0.000_0.000_1.000_1.000_VISUALSTYLE
340
2F
102
VTR_0.000_0.000_1.000_1.000_GRIDDISPLAY
 70
     3
102
VTR_0.000_0.000_1.000_1.000_GRIDMAJOR
 70
     5
102
VTR_0.000_0.000_1.000_1.000_DEFAULTLIGHTING
280
     1
102
VTR_0.000_0.000_1.000_1.000_DEFAULTLIGHTINGTYPE
 70
     1
102
VTR_0.000_0.000_1.000_1.000_BRIGHTNESS
141
0.0
102
VTR_0.000_0.000_1.000_1.000_CONTRAST
142
0.0
  0
XRECORD
  5
38A
102
{ACAD_REACTORS
330
389
102
}
330
389
100
AcDbXrecord
280
     1
102
VISUALSTYLE
340
2F
102
GRIDDISPLAY
 70
     2
102
GRIDMAJOR
 70
     5
102
DEFAULTLIGHTING
280
     1
102
DEFAULTLIGHTINGTYPE
 70
     1
102
BRIGHTNESS
141
0.0
102
CONTRAST
142
0.0
  0
LAYOUT
  5
1E
102
{ACAD_REACTORS
330
1A
102
}
330
1A
100
AcDbPlotSettings
  1
Blatt-1
  2
none_device
  4
ISO_A4_(210.00_x_297.00_MM)
  6

 40
4.0
 41
4.0
 42
4.0
 43
4.0
 44
337.0000000000001
 45
434.9999999999999
 46
0.0
 47
0.0
 48
0.0
 49
0.0
140
0.0
141
0.0
142
1.0
143
1.0
 70
   689
 72
     1
 73
     1
 74
     5
  7

 75
    16
147
1.0
148
0.0
149
0.0
100
AcDbLayout
  1
Blatt-1
 70
     1
 71
     1
 10
-20.0
 20
-7.5
 11
277.0
 21
202.5
 12
0.0
 22
0.0
 32
0.0
 14
0.0
 24
0.0
 34
0.0
 15
419.9999999999999
 25
297.0000000000001
 35
0.0
146
0.0
 13
0.0
 23
0.0
 33
0.0
 16
1.0
 26
0.0
 36
0.0
 17
0.0
 27
1.0
 37
0.0
 76
     0
330
1B
331
37B
  0
LAYOUT
  5
26
102
{ACAD_REACTORS
330
1A
102
}
330
1A
100
AcDbPlotSettings
  1

  2
none_device
  4

  6

 40
0.0
 41
0.0
 42
0.0
 43
0.0
 44
0.0
 45
0.0
 46
0.0
 47
0.0
 48
0.0
 49
0.0
140
0.0
141
0.0
142
1.0
143
1.0
 70
   688
 72
     1
 73
     0
 74
     5
  7

 75
    16
147
1.0
148
0.0
149
0.0
100
AcDbLayout
  1
Layout2
 70
     1
 71
     2
 10
0.0
 20
0.0
 11
0.0
 21
0.0
 12
0.0
 22
0.0
 32
0.0
 14
0.0
 24
0.0
 34
0.0
 15
0.0
 25
0.0
 35
0.0
146
0.0
 13
0.0
 23
0.0
 33
0.0
 16
1.0
 26
0.0
 36
0.0
 17
0.0
 27
1.0
 37
0.0
 76
     0
330
23
  0
LAYOUT
  5
22
102
{ACAD_REACTORS
330
1A
102
}
330
1A
100
AcDbPlotSettings
  1

  2
none_device
  4
Letter_(8.50_x_11.00_Inches)
  6

 40
6.35
 41
6.35
 42
6.35000508
 43
6.35000508
 44
215.9
 45
279.4
 46
0.0
 47
0.0
 48
0.0
 49
0.0
140
0.0
141
0.0
142
1.0
143
1.0
 70
  1713
 72
     1
 73
     0
 74
     0
  7

 75
     0
147
1.0
148
0.0
149
0.0
100
AcDbLayout
  1
Model
 70
     1
 71
     0
 10
0.0
 20
0.0
 11
420.0
 21
297.0
 12
0.0
 22
0.0
 32
0.0
 14
1.000000000000000E+20
 24
1.000000000000000E+20
 34
1.000000000000000E+20
 15
-1.000000000000000E+20
 25
-1.000000000000000E+20
 35
-1.000000000000000E+20
146
0.0
 13
0.0
 23
0.0
 33
0.0
 16
1.0
 26
0.0
 36
0.0
 17
0.0
 27
1.0
 37
0.0
 76
     0
330
1F
331
29
  0
MATERIAL
  5
45
102
{ACAD_REACTORS
330
43
102
}
102
{ACAD_XDICTIONARY
360
3C1
102
}
330
43
100
AcDbMaterial
  1
ByBlock
  0
MATERIAL
  5
44
102
{ACAD_REACTORS
330
43
102
}
102
{ACAD_XDICTIONARY
360
3BF
102
}
330
43
100
AcDbMaterial
  1
ByLayer
  0
MATERIAL
  5
46
102
{ACAD_REACTORS
330
43
102
}
102
{ACAD_XDICTIONARY
360
3C3
102
}
330
43
100
AcDbMaterial
  1
Global
  0
MLEADERSTYLE
  5
6C
102
{ACAD_REACTORS
330
6B
102
}
102
{ACAD_XDICTIONARY
360
3C6
102
}
330
6B
100
AcDbMLeaderStyle
170
     2
171
     1
172
     0
 90
        2
 40
0.0
 41
0.0
173
     1
 91
-1056964608
340
14
 92
       -2
290
     1
 42
2.0
291
     1
 43
8.0
  3
Standard
341
0
 44
4.0
300

342
11
174
     1
178
     6
175
     1
176
     0
 93
-1056964608
 45
4.0
292
     0
297
     0
 46
4.0
343
0
 94
-1056964608
 47
1.0
 49
1.0
140
1.0
293
     1
141
0.0
294
     1
177
     0
142
1.0
295
     0
296
     0
143
3.75
1001
ACAD_MLEADERVER
1070
     2
  0
MLEADERSTYLE
  5
F0
102
{ACAD_REACTORS
330
6B
102
}
102
{ACAD_XDICTIONARY
360
3C8
102
}
330
6B
100
AcDbMLeaderStyle
170
     2
171
     1
172
     0
 90
        2
 40
0.0
 41
0.0
173
     1
 91
-1056964608
340
14
 92
       -2
290
     0
 42
0.0
291
     0
 43
0.0
  3

341
0
 44
0.18
300

342
71
174
     1
178
     6
175
     1
176
     0
 93
-1023410169
 45
0.2
292
     0
297
     0
 46
5.0
343
0
 94
-1056964608
 47
1.0
 49
1.0
140
1.0
293
     1
141
0.0
294
     1
177
     0
142
1.0
295
     0
296
     0
143
0.125
1001
ACAD_MLEADERVER
1070
     2
  0
MLINESTYLE
  5
18
102
{ACAD_REACTORS
330
17
102
}
330
17
100
AcDbMlineStyle
  2
Standard
 70
     0
  3

 62
   256
 51
90.0
 52
90.0
 71
     2
 49
0.5
 62
   256
  6
BYLAYER
 49
-0.5
 62
   256
  6
BYLAYER
  0
ACDBPLACEHOLDER
  5
F
102
{ACAD_REACTORS
330
E
102
}
330
E
  0
SCALE
  5
48
102
{ACAD_REACTORS
330
47
102
}
330
47
100
AcDbScale
 70
     0
300
1:1
140
1.0
141
1.0
290
     1
  0
SCALE
  5
49
102
{ACAD_REACTORS
330
47
102
}
330
47
100
AcDbScale
 70
     0
300
1:2
140
1.0
141
2.0
290
     0
  0
SCALE
  5
4A
102
{ACAD_REACTORS
330
47
102
}
330
47
100
AcDbScale
 70
     0
300
1:4
140
1.0
141
4.0
290
     0
  0
SCALE
  5
4B
102
{ACAD_REACTORS
330
47
102
}
330
47
100
AcDbScale
 70
     0
300
1:5
140
1.0
141
5.0
290
     0
  0
SCALE
  5
4C
102
{ACAD_REACTORS
330
47
102
}
330
47
100
AcDbScale
 70
     0
300
1:8
140
1.0
141
8.0
290
     0
  0
SCALE
  5
4D
102
{ACAD_REACTORS
330
47
102
}
330
47
100
AcDbScale
 70
     0
300
1:10
140
1.0
141
10.0
290
     0
  0
SCALE
  5
4E
102
{ACAD_REACTORS
330
47
102
}
330
47
100
AcDbScale
 70
     0
300
1:16
140
1.0
141
16.0
290
     0
  0
SCALE
  5
4F
102
{ACAD_REACTORS
330
47
102
}
330
47
100
AcDbScale
 70
     0
300
1:20
140
1.0
141
20.0
290
     0
  0
SCALE
  5
50
102
{ACAD_REACTORS
330
47
102
}
330
47
100
AcDbScale
 70
     0
300
1:30
140
1.0
141
30.0
290
     0
  0
SCALE
  5
51
102
{ACAD_REACTORS
330
47
102
}
330
47
100
AcDbScale
 70
     0
300
1:40
140
1.0
141
40.0
290
     0
  0
SCALE
  5
52
102
{ACAD_REACTORS
330
47
102
}
330
47
100
AcDbScale
 70
     0
300
1:50
140
1.0
141
50.0
290
     0
  0
SCALE
  5
53
102
{ACAD_REACTORS
330
47
102
}
330
47
100
AcDbScale
 70
     0
300
1:100
140
1.0
141
100.0
290
     0
  0
SCALE
  5
54
102
{ACAD_REACTORS
330
47
102
}
330
47
100
AcDbScale
 70
     0
300
2:1
140
2.0
141
1.0
290
     0
  0
SCALE
  5
55
102
{ACAD_REACTORS
330
47
102
}
330
47
100
AcDbScale
 70
     0
300
4:1
140
4.0
141
1.0
290
     0
  0
SCALE
  5
56
102
{ACAD_REACTORS
330
47
102
}
330
47
100
AcDbScale
 70
     0
300
8:1
140
8.0
141
1.0
290
     0
  0
SCALE
  5
57
102
{ACAD_REACTORS
330
47
102
}
330
47
100
AcDbScale
 70
     0
300
10:1
140
10.0
141
1.0
290
     0
  0
SCALE
  5
58
102
{ACAD_REACTORS
330
47
102
}
330
47
100
AcDbScale
 70
     0
300
100:1
140
100.0
141
1.0
290
     0
  0
SCALE
  5
59
102
{ACAD_REACTORS
330
47
102
}
330
47
100
AcDbScale
 70
     0
300
1/128" = 1'-0"
140
0.0078125
141
12.0
290
     0
  0
SCALE
  5
5A
102
{ACAD_REACTORS
330
47
102
}
330
47
100
AcDbScale
 70
     0
300
1/64" = 1'-0"
140
0.015625
141
12.0
290
     0
  0
SCALE
  5
5B
102
{ACAD_REACTORS
330
47
102
}
330
47
100
AcDbScale
 70
     0
300
1/32" = 1'-0"
140
0.03125
141
12.0
290
     0
  0
SCALE
  5
5C
102
{ACAD_REACTORS
330
47
102
}
330
47
100
AcDbScale
 70
     0
300
1/16" = 1'-0"
140
0.0625
141
12.0
290
     0
  0
SCALE
  5
5D
102
{ACAD_REACTORS
330
47
102
}
330
47
100
AcDbScale
 70
     0
300
3/32" = 1'-0"
140
0.09375
141
12.0
290
     0
  0
SCALE
  5
5E
102
{ACAD_REACTORS
330
47
102
}
330
47
100
AcDbScale
 70
     0
300
1/8" = 1'-0"
140
0.125
141
12.0
290
     0
  0
SCALE
  5
5F
102
{ACAD_REACTORS
330
47
102
}
330
47
100
AcDbScale
 70
     0
300
3/16" = 1'-0"
140
0.1875
141
12.0
290
     0
  0
SCALE
  5
60
102
{ACAD_REACTORS
330
47
102
}
330
47
100
AcDbScale
 70
     0
300
1/4" = 1'-0"
140
0.25
141
12.0
290
     0
  0
SCALE
  5
61
102
{ACAD_REACTORS
330
47
102
}
330
47
100
AcDbScale
 70
     0
300
3/8" = 1'-0"
140
0.375
141
12.0
290
     0
  0
SCALE
  5
62
102
{ACAD_REACTORS
330
47
102
}
330
47
100
AcDbScale
 70
     0
300
1/2" = 1'-0"
140
0.5
141
12.0
290
     0
  0
SCALE
  5
63
102
{ACAD_REACTORS
330
47
102
}
330
47
100
AcDbScale
 70
     0
300
3/4" = 1'-0"
140
0.75
141
12.0
290
     0
  0
SCALE
  5
64
102
{ACAD_REACTORS
330
47
102
}
330
47
100
AcDbScale
 70
     0
300
1" = 1'-0"
140
1.0
141
12.0
290
     0
  0
SCALE
  5
65
102
{ACAD_REACTORS
330
47
102
}
330
47
100
AcDbScale
 70
     0
300
1-1/2" = 1'-0"
140
1.5
141
12.0
290
     0
  0
SCALE
  5
66
102
{ACAD_REACTORS
330
47
102
}
330
47
100
AcDbScale
 70
     0
300
3" = 1'-0"
140
3.0
141
12.0
290
     0
  0
SCALE
  5
67
102
{ACAD_REACTORS
330
47
102
}
330
47
100
AcDbScale
 70
     0
300
6" = 1'-0"
140
6.0
141
12.0
290
     0
  0
SCALE
  5
68
102
{ACAD_REACTORS
330
47
102
}
330
47
100
AcDbScale
 70
     0
300
1'-0" = 1'-0"
140
12.0
141
12.0
290
     0
  0
TABLESTYLE
  5
6A
102
{ACAD_REACTORS
330
69
102
}
330
69
100
AcDbTableStyle
  3
Standard
 70
     0
 71
     0
 40
1.5
 41
1.5
280
     0
281
     0
  7
Standard
140
4.5
170
     2
 62
     0
 63
   257
283
     0
274
    -2
284
     1
 64
     0
275
    -2
285
     1
 65
     0
276
    -2
286
     1
 66
     0
277
    -2
287
     1
 67
     0
278
    -2
288
     1
 68
     0
279
    -2
289
     1
 69
     0
  7
Standard
140
6.0
170
     5
 62
     0
 63
   257
283
     0
274
    -2
284
     1
 64
     0
275
    -2
285
     1
 65
     0
276
    -2
286
     1
 66
     0
277
    -2
287
     1
 67
     0
278
    -2
288
     1
 68
     0
279
    -2
289
     1
 69
     0
  7
Standard
140
4.5
170
     5
 62
     0
 63
   257
283
     0
274
    -2
284
     1
 64
     0
275
    -2
285
     1
 65
     0
276
    -2
286
     1
 66
     0
277
    -2
287
     1
 67
     0
278
    -2
288
     1
 68
     0
279
    -2
289
     1
 69
     0
  0
VISUALSTYLE
  5
2F
102
{ACAD_REACTORS
330
2A
102
}
102
{ACAD_XDICTIONARY
360
397
102
}
330
2A
100
AcDbVisualStyle
  2
2dWireframe
 70
     4
 71
     0
 72
     2
 73
     0
 90
        0
 40
0.6
 41
30.0
 62
     5
 63
     7
 74
     1
 91
        4
 64
     7
 65
   257
 75
     1
175
     1
 42
1.0
 92
        0
 66
   257
 43
1.0
 76
     1
 77
     6
 78
     2
 67
     7
 79
     5
170
     0
171
     0
290
     0
174
     0
 93
        1
 44
0.0
173
     0
291
     0
 45
0.0
1001
ACAD
1000
AcDbSavedByObjectVersion
1070
     0
  0
VISUALSTYLE
  5
32
102
{ACAD_REACTORS
330
2A
102
}
102
{ACAD_XDICTIONARY
360
39D
102
}
330
2A
100
AcDbVisualStyle
  2
Basic
 70
     7
 71
     1
 72
     0
 73
     1
 90
        0
 40
0.6
 41
30.0
 62
     5
 63
     7
 74
     0
 91
        4
 64
     7
 65
   257
 75
     1
175
     1
 42
1.0
 92
        8
 66
     7
 43
1.0
 76
     1
 77
     6
 78
     2
 67
     7
 79
     5
170
     0
171
     0
290
     0
174
     0
 93
        1
 44
0.0
173
     0
291
     1
 45
0.0
1001
ACAD
1000
AcDbSavedByObjectVersion
1070
     0
  0
VISUALSTYLE
  5
36
102
{ACAD_REACTORS
330
2A
102
}
102
{ACAD_XDICTIONARY
360
3A5
102
}
330
2A
100
AcDbVisualStyle
  2
Brighten
 70
    12
 71
     2
 72
     2
 73
     0
 90
        0
 40
0.6
 41
30.0
 62
     5
 63
     7
 74
     1
 91
        4
 64
     7
 65
   257
 75
     1
175
     1
 42
1.0
 92
        8
 66
     7
 43
1.0
 76
     1
 77
     6
 78
     2
 67
     7
 79
     5
170
     0
171
     0
290
     0
174
     0
 93
        1
 44
50.0
173
     0
291
     1
 45
0.0
1001
ACAD
1000
AcDbSavedByObjectVersion
1070
     0
  0
VISUALSTYLE
  5
3A
102
{ACAD_REACTORS
330
2A
102
}
102
{ACAD_XDICTIONARY
360
3AD
102
}
330
2A
100
AcDbVisualStyle
  2
ColorChange
 70
    16
 71
     2
 72
     2
 73
     3
 90
        0
 40
0.6
 41
30.0
 62
     5
 63
     8
 74
     1
 91
        4
 64
     7
 65
   257
 75
     1
175
     1
 42
1.0
 92
        8
 66
     8
 43
1.0
 76
     1
 77
     6
 78
     2
 67
     7
 79
     5
170
     0
171
     0
290
     0
174
     0
 93
        1
 44
0.0
173
     0
291
     1
 45
0.0
1001
ACAD
1000
AcDbSavedByObjectVersion
1070
     0
  0
VISUALSTYLE
  5
34
102
{ACAD_REACTORS
330
2A
102
}
102
{ACAD_XDICTIONARY
360
3A1
102
}
330
2A
100
AcDbVisualStyle
  2
Conceptual
 70
     9
 71
     3
 72
     2
 73
     0
 90
        0
 40
0.6
 41
30.0
 62
     5
 63
     7
 74
     2
 91
        2
 64
     7
 65
   257
 75
     1
175
     1
 42
179.0
 92
        8
 66
     7
 43
1.0
 76
     1
 77
     6
 78
     2
 67
     7
 79
     3
170
     0
171
     0
290
     0
174
     0
 93
        1
 44
0.0
173
     0
291
     0
 45
0.0
1001
ACAD
1000
AcDbSavedByObjectVersion
1070
     0
  0
VISUALSTYLE
  5
35
102
{ACAD_REACTORS
330
2A
102
}
102
{ACAD_XDICTIONARY
360
3A3
102
}
330
2A
100
AcDbVisualStyle
  2
Dim
 70
    11
 71
     2
 72
     2
 73
     0
 90
        0
 40
0.6
 41
30.0
 62
     5
 63
     7
 74
     1
 91
        4
 64
     7
 65
   257
 75
     1
175
     1
 42
1.0
 92
        8
 66
     7
 43
1.0
 76
     1
 77
     6
 78
     2
 67
     7
 79
     5
170
     0
171
     0
290
     0
174
     0
 93
        1
 44
-50.0
173
     0
291
     1
 45
0.0
1001
ACAD
1000
AcDbSavedByObjectVersion
1070
     0
  0
VISUALSTYLE
  5
3D
102
{ACAD_REACTORS
330
2A
102
}
102
{ACAD_XDICTIONARY
360
3B3
102
}
330
2A
100
AcDbVisualStyle
  2
EdgeColorOff
 70
    22
 71
     2
 72
     2
 73
     0
 90
        0
 40
0.6
 41
30.0
 62
     5
 63
     7
 74
     1
 91
        4
 64
     7
 65
   257
 75
     1
175
     1
 42
1.0
 92
        8
 66
     7
 43
1.0
 76
     1
 77
     6
 78
     2
 67
     7
 79
     5
170
     0
171
     0
290
     0
174
     0
 93
        1
 44
0.0
173
     0
291
     1
 45
0.0
1001
ACAD
1000
AcDbSavedByObjectVersion
1070
     0
  0
VISUALSTYLE
  5
39
102
{ACAD_REACTORS
330
2A
102
}
102
{ACAD_XDICTIONARY
360
3AB
102
}
330
2A
100
AcDbVisualStyle
  2
Facepattern
 70
    15
 71
     2
 72
     2
 73
     0
 90
        0
 40
0.6
 41
30.0
 62
     5
 63
     7
 74
     1
 91
        4
 64
     7
 65
   257
 75
     1
175
     1
 42
1.0
 92
        8
 66
     7
 43
1.0
 76
     1
 77
     6
 78
     2
 67
     7
 79
     5
170
     0
171
     0
290
     0
174
     0
 93
        1
 44
0.0
173
     0
291
     1
 45
0.0
1001
ACAD
1000
AcDbSavedByObjectVersion
1070
     0
  0
VISUALSTYLE
  5
2B
102
{ACAD_REACTORS
330
2A
102
}
102
{ACAD_XDICTIONARY
360
38F
102
}
330
2A
100
AcDbVisualStyle
  2
Flat
 70
     0
 71
     2
 72
     1
 73
     1
 90
        2
 40
0.6
 41
30.0
 62
     5
 63
     7
 74
     0
 91
        0
 64
     7
 65
   257
 75
     1
175
     1
 42
1.0
 92
        8
 66
     7
 43
1.0
 76
     1
 77
     6
 78
     2
 67
     7
 79
     5
170
     0
171
     0
290
     0
174
     0
 93
       13
 44
0.0
173
     0
291
     1
 45
0.0
1001
ACAD
1000
AcDbSavedByObjectVersion
1070
     0
  0
VISUALSTYLE
  5
2C
102
{ACAD_REACTORS
330
2A
102
}
102
{ACAD_XDICTIONARY
360
391
102
}
330
2A
100
AcDbVisualStyle
  2
FlatWithEdges
 70
     1
 71
     2
 72
     1
 73
     1
 90
        2
 40
0.6
 41
30.0
 62
     5
 63
     7
 74
     1
 91
        0
 64
     7
 65
   257
 75
     1
175
     1
 42
1.0
 92
        0
 66
   257
 43
1.0
 76
     1
 77
     6
 78
     2
 67
     7
 79
     5
170
     0
171
     0
290
     0
174
     0
 93
       13
 44
0.0
173
     0
291
     1
 45
0.0
1001
ACAD
1000
AcDbSavedByObjectVersion
1070
     0
  0
VISUALSTYLE
  5
2D
102
{ACAD_REACTORS
330
2A
102
}
102
{ACAD_XDICTIONARY
360
393
102
}
330
2A
100
AcDbVisualStyle
  2
Gouraud
 70
     2
 71
     2
 72
     2
 73
     1
 90
        2
 40
0.6
 41
30.0
 62
     5
 63
     7
 74
     0
 91
        0
 64
     7
 65
   257
 75
     1
175
     1
 42
1.0
 92
        0
 66
     7
 43
1.0
 76
     1
 77
     6
 78
     2
 67
     7
 79
     5
170
     0
171
     0
290
     0
174
     0
 93
       13
 44
0.0
173
     0
291
     1
 45
0.0
1001
ACAD
1000
AcDbSavedByObjectVersion
1070
     0
  0
VISUALSTYLE
  5
2E
102
{ACAD_REACTORS
330
2A
102
}
102
{ACAD_XDICTIONARY
360
395
102
}
330
2A
100
AcDbVisualStyle
  2
GouraudWithEdges
 70
     3
 71
     2
 72
     2
 73
     1
 90
        2
 40
0.6
 41
30.0
 62
     5
 63
     7
 74
     1
 91
        0
 64
     7
 65
   257
 75
     1
175
     1
 42
1.0
 92
        0
 66
   257
 43
1.0
 76
     1
 77
     6
 78
     2
 67
     7
 79
     5
170
     0
171
     0
290
     0
174
     0
 93
       13
 44
0.0
173
     0
291
     1
 45
0.0
1001
ACAD
1000
AcDbSavedByObjectVersion
1070
     0
  0
VISUALSTYLE
  5
31
102
{ACAD_REACTORS
330
2A
102
}
102
{ACAD_XDICTIONARY
360
39B
102
}
330
2A
100
AcDbVisualStyle
  2
Hidden
 70
     6
 71
     1
 72
     2
 73
     2
 90
        0
 40
0.6
 41
30.0
 62
     5
 63
     7
 74
     2
 91
        2
 64
     7
 65
   257
 75
     2
175
     1
 42
40.0
 92
        0
 66
   257
 43
1.0
 76
     1
 77
     6
 78
     2
 67
     7
 79
     3
170
     0
171
     0
290
     0
174
     0
 93
        1
 44
0.0
173
     0
291
     0
 45
0.0
1001
ACAD
1000
AcDbSavedByObjectVersion
1070
     0
  0
VISUALSTYLE
  5
3B
102
{ACAD_REACTORS
330
2A
102
}
102
{ACAD_XDICTIONARY
360
3AF
102
}
330
2A
100
AcDbVisualStyle
  2
JitterOff
 70
    20
 71
     2
 72
     2
 73
     0
 90
        0
 40
0.6
 41
30.0
 62
     5
 63
     7
 74
     1
 91
        4
 64
     7
 65
   257
 75
     1
175
     1
 42
1.0
 92
       10
 66
     7
 43
1.0
 76
     1
 77
     6
 78
     2
 67
     7
 79
     5
170
     0
171
     0
290
     0
174
     0
 93
        1
 44
0.0
173
     0
291
     1
 45
0.0
1001
ACAD
1000
AcDbSavedByObjectVersion
1070
     0
  0
VISUALSTYLE
  5
38
102
{ACAD_REACTORS
330
2A
102
}
102
{ACAD_XDICTIONARY
360
3A9
102
}
330
2A
100
AcDbVisualStyle
  2
Linepattern
 70
    14
 71
     2
 72
     2
 73
     0
 90
        0
 40
0.6
 41
30.0
 62
     5
 63
     7
 74
     1
 91
        4
 64
     7
 65
   257
 75
     7
175
     7
 42
1.0
 92
        8
 66
     7
 43
1.0
 76
     1
 77
     6
 78
     2
 67
     7
 79
     5
170
     0
171
     0
290
     0
174
     0
 93
        1
 44
0.0
173
     0
291
     1
 45
0.0
1001
ACAD
1000
AcDbSavedByObjectVersion
1070
     0
  0
VISUALSTYLE
  5
3C
102
{ACAD_REACTORS
330
2A
102
}
102
{ACAD_XDICTIONARY
360
3B1
102
}
330
2A
100
AcDbVisualStyle
  2
OverhangOff
 70
    21
 71
     2
 72
     2
 73
     0
 90
        0
 40
0.6
 41
30.0
 62
     5
 63
     7
 74
     1
 91
        4
 64
     7
 65
   257
 75
     1
175
     1
 42
1.0
 92
        9
 66
     7
 43
1.0
 76
     1
 77
     6
 78
     2
 67
     7
 79
     5
170
     0
171
     0
290
     0
174
     0
 93
        1
 44
0.0
173
     0
291
     1
 45
0.0
1001
ACAD
1000
AcDbSavedByObjectVersion
1070
     0
  0
VISUALSTYLE
  5
33
102
{ACAD_REACTORS
330
2A
102
}
102
{ACAD_XDICTIONARY
360
39F
102
}
330
2A
100
AcDbVisualStyle
  2
Realistic
 70
     8
 71
     2
 72
     3
 73
     0
 90
        2
 40
0.6
 41
30.0
 62
     5
 63
     7
 74
     0
 91
        0
 64
     7
 65
   257
 75
     1
175
     1
 42
1.0
 92
        8
 66
   257
 43
1.0
 76
     1
 77
     6
 78
     2
 67
     7
 79
     3
170
     0
171
     0
290
     0
174
     0
 93
       13
 44
0.0
173
     0
291
     0
 45
0.0
1001
ACAD
1000
AcDbSavedByObjectVersion
1070
     0
  0
VISUALSTYLE
  5
42
102
{ACAD_REACTORS
330
2A
102
}
102
{ACAD_XDICTIONARY
360
3BD
102
}
330
2A
100
AcDbVisualStyle
  2
Shaded
 70
    27
 71
     2
 72
     2
 73
     1
 90
        2
 40
0.6
 41
30.0
 62
     5
 63
     7
 74
     0
 91
        4
 64
     7
 65
   257
 75
     1
175
     1
 42
1.0
 92
        8
 66
   257
 43
1.0
 76
     1
 77
     6
 78
     2
 67
     8
 79
     3
170
     0
171
     0
290
     0
174
     0
 93
        5
 44
0.0
173
     0
291
     0
 45
0.0
1001
ACAD
1000
AcDbSavedByObjectVersion
1070
     0
  0
VISUALSTYLE
  5
41
102
{ACAD_REACTORS
330
2A
102
}
102
{ACAD_XDICTIONARY
360
3BB
102
}
330
2A
100
AcDbVisualStyle
  2
Shaded with edges
 70
    26
 71
     2
 72
     2
 73
     1
 90
        2
 40
0.6
 41
30.0
 62
     5
 63
     7
 74
     1
 91
       10
 64
     7
 65
   257
 75
     2
175
     1
 42
1.0
 92
        8
 66
   257
 43
1.0
 76
     1
 77
     6
 78
     2
 67
     7
 79
     3
170
     0
171
     0
290
     0
174
     0
 93
        5
 44
0.0
173
     0
291
     0
 45
0.0
1001
ACAD
1000
AcDbSavedByObjectVersion
1070
     0
  0
VISUALSTYLE
  5
3E
102
{ACAD_REACTORS
330
2A
102
}
102
{ACAD_XDICTIONARY
360
3B5
102
}
330
2A
100
AcDbVisualStyle
  2
Shades of Gray
 70
    23
 71
     2
 72
     2
 73
     3
 90
        0
 40
0.6
 41
30.0
 62
     5
 63
     7
 74
     2
 91
        2
 64
     7
 65
     7
 75
     1
175
     1
 42
40.0
 92
        8
 66
     7
 43
1.0
 76
     1
 77
     6
 78
     2
 67
     7
 79
     3
170
     0
171
     0
290
     0
174
     0
 93
        1
 44
0.0
173
     0
291
     0
 45
0.0
1001
ACAD
1000
AcDbSavedByObjectVersion
1070
     0
  0
VISUALSTYLE
  5
3F
102
{ACAD_REACTORS
330
2A
102
}
102
{ACAD_XDICTIONARY
360
3B7
102
}
330
2A
100
AcDbVisualStyle
  2
Sketchy
 70
    24
 71
     1
 72
     2
 73
     2
 90
        0
 40
0.6
 41
30.0
 62
     5
 63
     7
 74
     2
 91
        2
 64
     7
 65
     7
 75
     1
175
     1
 42
40.0
 92
       11
 66
     7
 43
1.0
 76
     1
 77
     6
 78
     2
 67
     7
 79
     6
170
     0
171
     0
290
     0
174
     0
 93
        1
 44
0.0
173
     0
291
     0
 45
0.0
1001
ACAD
1000
AcDbSavedByObjectVersion
1070
     0
  0
VISUALSTYLE
  5
37
102
{ACAD_REACTORS
330
2A
102
}
102
{ACAD_XDICTIONARY
360
3A7
102
}
330
2A
100
AcDbVisualStyle
  2
Thicken
 70
    13
 71
     2
 72
     2
 73
     0
 90
        0
 40
0.6
 41
30.0
 62
     5
 63
     7
 74
     1
 91
        4
 64
     7
 65
   257
 75
     1
175
     1
 42
1.0
 92
       12
 66
     7
 43
1.0
 76
     1
 77
     6
 78
     2
 67
     7
 79
     5
170
     0
171
     0
290
     0
174
     0
 93
        1
 44
0.0
173
     0
291
     1
 45
0.0
1001
ACAD
1000
AcDbSavedByObjectVersion
1070
     0
  0
VISUALSTYLE
  5
30
102
{ACAD_REACTORS
330
2A
102
}
102
{ACAD_XDICTIONARY
360
399
102
}
330
2A
100
AcDbVisualStyle
  2
Wireframe
 70
     5
 71
     0
 72
     2
 73
     0
 90
        0
 40
0.6
 41
30.0
 62
     5
 63
     7
 74
     1
 91
        4
 64
     7
 65
   257
 75
     1
175
     1
 42
1.0
 92
        0
 66
   257
 43
1.0
 76
     1
 77
     6
 78
     2
 67
     7
 79
     3
170
     0
171
     0
290
     0
174
     0
 93
        1
 44
0.0
173
     0
291
     0
 45
0.0
1001
ACAD
1000
AcDbSavedByObjectVersion
1070
     0
  0
VISUALSTYLE
  5
40
102
{ACAD_REACTORS
330
2A
102
}
102
{ACAD_XDICTIONARY
360
3B9
102
}
330
2A
100
AcDbVisualStyle
  2
X-Ray
 70
    25
 71
     2
 72
     2
 73
     1
 90
        1
 40
0.5
 41
30.0
 62
     5
 63
     7
 74
     1
 91
        0
 64
     7
 65
   257
 75
     1
175
     1
 42
1.0
 92
        8
 66
     7
 43
1.0
 76
     1
 77
     6
 78
     2
 67
     7
 79
     3
170
     0
171
     0
290
     0
174
     0
 93
       13
 44
0.0
173
     0
291
     0
 45
0.0
1001
ACAD
1000
AcDbSavedByObjectVersion
1070
     0
  0
DICTIONARYVAR
  5
38D
102
{ACAD_REACTORS
330
37D
102
}
330
37D
100
DictionaryVariables
280
     0
  1
1:1
  0
DICTIONARYVAR
  5
384
102
{ACAD_REACTORS
330
37D
102
}
330
37D
100
DictionaryVariables
280
     0
  1
3.500000
  0
DICTIONARYVAR
  5
385
102
{ACAD_REACTORS
330
37D
102
}
330
37D
100
DictionaryVariables
280
     0
  1
acadiso.lin
  0
DICTIONARYVAR
  5
37F
102
{ACAD_REACTORS
330
37D
102
}
330
37D
100
DictionaryVariables
280
     0
  1
Standard
  0
DICTIONARYVAR
  5
37E
102
{ACAD_REACTORS
330
37D
102
}
330
37D
100
DictionaryVariables
280
     0
  1
Standard
  0
DICTIONARYVAR
  5
386
102
{ACAD_REACTORS
330
37D
102
}
330
37D
100
DictionaryVariables
280
     0
  1
2
  0
DICTIONARYVAR
  5
387
102
{ACAD_REACTORS
330
37D
102
}
330
37D
100
DictionaryVariables
280
     0
  1
1
  0
DICTIONARYVAR
  5
38E
102
{ACAD_REACTORS
330
37D
102
}
330
37D
100
DictionaryVariables
280
     0
  1
1
  0
DICTIONARYVAR
  5
381
102
{ACAD_REACTORS
330
37D
102
}
330
37D
100
DictionaryVariables
280
     0
  1
80.000000
  0
DICTIONARYVAR
  5
380
102
{ACAD_REACTORS
330
37D
102
}
330
37D
100
DictionaryVariables
280
     0
  1
5.000000
  0
DICTIONARY
  5
3C1
330
45
100
AcDbDictionary
280
     1
281
     1
  3
ACAD_XREC_ROUNDTRIP
360
3C2
  0
DICTIONARY
  5
3BF
330
44
100
AcDbDictionary
280
     1
281
     1
  3
ACAD_XREC_ROUNDTRIP
360
3C0
  0
DICTIONARY
  5
3C3
330
46
100
AcDbDictionary
280
     1
281
     1
  3
ACAD_XREC_ROUNDTRIP
360
3C4
  0
DICTIONARY
  5
3C6
330
6C
100
AcDbDictionary
280
     1
281
     1
  3
ACAD_XREC_ROUNDTRIP
360
3C7
  0
DICTIONARY
  5
3C8
330
F0
100
AcDbDictionary
280
     1
281
     1
  3
ACAD_XREC_ROUNDTRIP
360
3C9
  0
DICTIONARY
  5
397
330
2F
100
AcDbDictionary
280
     1
281
     1
  3
ACAD_XREC_ROUNDTRIP
360
398
  0
DICTIONARY
  5
39D
330
32
100
AcDbDictionary
280
     1
281
     1
  3
ACAD_XREC_ROUNDTRIP
360
39E
  0
DICTIONARY
  5
3A5
330
36
100
AcDbDictionary
280
     1
281
     1
  3
ACAD_XREC_ROUNDTRIP
360
3A6
  0
DICTIONARY
  5
3AD
330
3A
100
AcDbDictionary
280
     1
281
     1
  3
ACAD_XREC_ROUNDTRIP
360
3AE
  0
DICTIONARY
  5
3A1
330
34
100
AcDbDictionary
280
     1
281
     1
  3
ACAD_XREC_ROUNDTRIP
360
3A2
  0
DICTIONARY
  5
3A3
330
35
100
AcDbDictionary
280
     1
281
     1
  3
ACAD_XREC_ROUNDTRIP
360
3A4
  0
DICTIONARY
  5
3B3
330
3D
100
AcDbDictionary
280
     1
281
     1
  3
ACAD_XREC_ROUNDTRIP
360
3B4
  0
DICTIONARY
  5
3AB
330
39
100
AcDbDictionary
280
     1
281
     1
  3
ACAD_XREC_ROUNDTRIP
360
3AC
  0
DICTIONARY
  5
38F
330
2B
100
AcDbDictionary
280
     1
281
     1
  3
ACAD_XREC_ROUNDTRIP
360
390
  0
DICTIONARY
  5
391
330
2C
100
AcDbDictionary
280
     1
281
     1
  3
ACAD_XREC_ROUNDTRIP
360
392
  0
DICTIONARY
  5
393
330
2D
100
AcDbDictionary
280
     1
281
     1
  3
ACAD_XREC_ROUNDTRIP
360
394
  0
DICTIONARY
  5
395
330
2E
100
AcDbDictionary
280
     1
281
     1
  3
ACAD_XREC_ROUNDTRIP
360
396
  0
DICTIONARY
  5
39B
330
31
100
AcDbDictionary
280
     1
281
     1
  3
ACAD_XREC_ROUNDTRIP
360
39C
  0
DICTIONARY
  5
3AF
330
3B
100
AcDbDictionary
280
     1
281
     1
  3
ACAD_XREC_ROUNDTRIP
360
3B0
  0
DICTIONARY
  5
3A9
330
38
100
AcDbDictionary
280
     1
281
     1
  3
ACAD_XREC_ROUNDTRIP
360
3AA
  0
DICTIONARY
  5
3B1
330
3C
100
AcDbDictionary
280
     1
281
     1
  3
ACAD_XREC_ROUNDTRIP
360
3B2
  0
DICTIONARY
  5
39F
330
33
100
AcDbDictionary
280
     1
281
     1
  3
ACAD_XREC_ROUNDTRIP
360
3A0
  0
DICTIONARY
  5
3BD
330
42
100
AcDbDictionary
280
     1
281
     1
  3
ACAD_XREC_ROUNDTRIP
360
3BE
  0
DICTIONARY
  5
3BB
330
41
100
AcDbDictionary
280
     1
281
     1
  3
ACAD_XREC_ROUNDTRIP
360
3BC
  0
DICTIONARY
  5
3B5
330
3E
100
AcDbDictionary
280
     1
281
     1
  3
ACAD_XREC_ROUNDTRIP
360
3B6
  0
DICTIONARY
  5
3B7
330
3F
100
AcDbDictionary
280
     1
281
     1
  3
ACAD_XREC_ROUNDTRIP
360
3B8
  0
DICTIONARY
  5
3A7
330
37
100
AcDbDictionary
280
     1
281
     1
  3
ACAD_XREC_ROUNDTRIP
360
3A8
  0
DICTIONARY
  5
399
330
30
100
AcDbDictionary
280
     1
281
     1
  3
ACAD_XREC_ROUNDTRIP
360
39A
  0
DICTIONARY
  5
3B9
330
40
100
AcDbDictionary
280
     1
281
     1
  3
ACAD_XREC_ROUNDTRIP
360
3BA
  0
XRECORD
  5
3C2
102
{ACAD_REACTORS
330
3C1
102
}
330
3C1
100
AcDbXrecord
280
     1
102
MATERIAL
148
0.0
149
0.0
149
0.0
 93
        0
 94
      127
282
     0
 72
     1
 77
     1
171
     1
175
     1
179
     1
273
     0
  0
XRECORD
  5
3C0
102
{ACAD_REACTORS
330
3BF
102
}
330
3BF
100
AcDbXrecord
280
     1
102
MATERIAL
148
0.0
149
0.0
149
0.0
 93
        0
 94
      127
282
     0
 72
     1
 77
     1
171
     1
175
     1
179
     1
273
     0
  0
XRECORD
  5
3C4
102
{ACAD_REACTORS
330
3C3
102
}
330
3C3
100
AcDbXrecord
280
     1
102
MATERIAL
148
0.0
149
0.0
149
0.0
 93
        0
 94
      127
282
     0
 72
     1
 77
     1
171
     1
175
     1
179
     1
273
     0
  0
XRECORD
  5
3C7
102
{ACAD_REACTORS
330
3C6
102
}
330
3C6
100
AcDbXrecord
280
     1
102
ACAD_ROUNDTRIP_2010_MLEADER_STYLE
  0
XRECORD
  5
3C9
102
{ACAD_REACTORS
330
3C8
102
}
330
3C8
100
AcDbXrecord
280
     1
102
ACAD_ROUNDTRIP_2010_MLEADER_STYLE
  0
XRECORD
  5
398
102
{ACAD_REACTORS
330
397
102
}
330
397
100
AcDbXrecord
280
     1
102
RTVSPropertyOp0
 70
     1
102
RTVSPropertyOp1
 70
     1
102
RTVSPropertyOp2
 70
     1
102
RTVSPropertyOp3
 70
     1
102
RTVSPropertyOp4
 70
     1
102
RTVSPropertyOp5
 70
     1
102
RTVSPropertyOp6
 70
     1
102
RTVSPropertyOp7
 70
     1
102
RTVSPropertyOp8
 70
     1
102
RTVSPropertyOp9
 70
     1
102
RTVSPropertyOp10
 70
     1
102
RTVSPropertyOp11
 70
     1
102
RTVSPropertyOp12
 70
     1
102
RTVSPropertyOp13
 70
     1
102
RTVSPropertyOp14
 70
     1
102
RTVSPropertyOp15
 70
     1
102
RTVSPropertyOp16
 70
     1
102
RTVSPropertyOp17
 70
     1
102
RTVSPropertyOp18
 70
     1
102
RTVSPropertyOp19
 70
     1
102
RTVSPropertyOp20
 70
     1
102
RTVSPropertyOp21
 70
     1
102
RTVSPropertyOp22
 70
     1
102
RTVSPropertyOp23
 70
     1
102
RTVSPropertyOp24
 70
     1
102
RTVSPropertyOp25
 70
     1
102
RTVSPropertyOp26
 70
     1
102
RTVSPropertyOp27
 70
     1
102
RTVSPropertyOp28
 70
     1
102
RTVSPropertyOp29
 70
     1
102
RTVSPropertyOp30
 70
     1
102
RTVSPropertyOp31
 70
     1
102
RTVSPropertyOp32
 70
     1
102
RTVSPropertyOp33
 70
     1
102
RTVSPropertyOp34
 70
     1
102
RTVSPropertyOp35
 70
     1
102
RTVSPropertyOp36
 70
     1
102
RTVSPropertyOp37
 70
     1
102
RTVSPropertyOp38
 70
     1
102
RTVSPropertyOp39
 70
     1
102
RTVSPropertyOp40
 70
     1
102
RTVSPropertyOp41
 70
     1
102
RTVSPropertyOp42
 70
     1
102
RTVSPropertyOp43
 70
     1
102
RTVSPropertyOp44
 70
     1
102
RTVSPropertyOp45
 70
     1
102
RTVSPropertyOp46
 70
     1
102
RTVSPropertyOp47
 70
     1
102
RTVSPropertyOp48
 70
     1
102
RTVSPropertyOp49
 70
     1
102
RTVSPropertyOp50
 70
     1
102
RTVSPropertyOp51
 70
     0
102
RTVSPropertyOp52
 70
     0
102
RTVSPropertyOp53
 70
     1
102
RTVSPropertyOp54
 70
     1
102
RTVSPropertyOp55
 70
     1
102
RTVSPropertyOp56
 70
     1
102
RTVSPropertyOp57
 70
     1
102
RTVSPost2010Prop28
280
     1
102
RTVSPost2010PropOp28
 70
     1
102
RTVSPost2010Prop29
280
     1
102
RTVSPost2010PropOp29
 70
     1
102
RTVSPost2010Prop30
280
     0
102
RTVSPost2010PropOp30
 70
     1
102
RTVSPost2010Prop31
280
     0
102
RTVSPost2010PropOp31
 70
     1
102
RTVSPost2010Prop32
280
     0
102
RTVSPost2010PropOp32
 70
     1
102
RTVSPost2010Prop33
280
     0
102
RTVSPost2010PropOp33
 70
     1
102
RTVSPost2010Prop34
280
     0
102
RTVSPost2010PropOp34
 70
     1
102
RTVSPost2010Prop35
280
     0
102
RTVSPost2010PropOp35
 70
     1
102
RTVSPost2010Prop36
280
     0
102
RTVSPost2010PropOp36
 70
     1
102
RTVSPost2010Prop37
 90
       50
102
RTVSPost2010PropOp37
 70
     1
102
RTVSPost2010Prop38
140
0.0
102
RTVSPost2010PropOp38
 70
     1
102
RTVSPost2010Prop39
140
1.0
102
RTVSPost2010PropOp39
 70
     1
102
RTVSPost2010Prop40
 90
        0
102
RTVSPost2010PropOp40
 70
     1
102
RTVSPost2010Prop41ColorIndex
 90
       18
102
RTVSPost2010Prop41ColorRGB
 90
        0
102
RTVSPost2010PropOp41
 70
     1
102
RTVSPost2010Prop42
 90
       50
102
RTVSPost2010PropOp42
 70
     1
102
RTVSPost2010Prop43
 90
        3
102
RTVSPost2010PropOp43
 70
     1
102
RTVSPost2010Prop44ColorIndex
 90
        5
102
RTVSPost2010Prop44ColorRGB
 90
      255
102
RTVSPost2010PropOp44
 70
     1
102
RTVSPost2010Prop45
280
     0
102
RTVSPost2010PropOp45
 70
     1
102
RTVSPost2010Prop46
 90
       50
102
RTVSPost2010PropOp46
 70
     1
102
RTVSPost2010Prop47
 90
       50
102
RTVSPost2010PropOp47
 70
     1
102
RTVSPost2010Prop48
 90
       50
102
RTVSPost2010PropOp48
 70
     1
102
RTVSPost2010Prop49
280
     0
102
RTVSPost2010PropOp49
 70
     1
102
RTVSPost2010Prop50
 90
       50
102
RTVSPost2010PropOp50
 70
     1
102
RTVSPost2010Prop51ColorIndex
 90
      256
102
RTVSPost2010Prop51ColorRGB
 90
-16777216
102
RTVSPost2010PropOp51
 70
     0
102
RTVSPost2010Prop52
140
1.0
102
RTVSPost2010PropOp52
 70
     0
102
RTVSPost2010Prop53
 90
        2
102
RTVSPost2010PropOp53
 70
     1
102
RTVSPost2010Prop54
  1
strokes_ogs.tif
102
RTVSPost2010PropOp54
 70
     1
102
RTVSPost2010Prop55
280
     0
102
RTVSPost2010PropOp55
 70
     1
102
RTVSPost2010Prop56
140
1.0
102
RTVSPost2010PropOp56
 70
     1
102
RTVSPost2010Prop57
140
1.0
102
RTVSPost2010PropOp57
 70
     1
  0
XRECORD
  5
39E
102
{ACAD_REACTORS
330
39D
102
}
330
39D
100
AcDbXrecord
280
     1
102
RTVSPropertyOp0
 70
     1
102
RTVSPropertyOp1
 70
     1
102
RTVSPropertyOp2
 70
     1
102
RTVSPropertyOp3
 70
     1
102
RTVSPropertyOp4
 70
     1
102
RTVSPropertyOp5
 70
     1
102
RTVSPropertyOp6
 70
     1
102
RTVSPropertyOp7
 70
     1
102
RTVSPropertyOp8
 70
     1
102
RTVSPropertyOp9
 70
     1
102
RTVSPropertyOp10
 70
     1
102
RTVSPropertyOp11
 70
     1
102
RTVSPropertyOp12
 70
     1
102
RTVSPropertyOp13
 70
     1
102
RTVSPropertyOp14
 70
     1
102
RTVSPropertyOp15
 70
     1
102
RTVSPropertyOp16
 70
     1
102
RTVSPropertyOp17
 70
     1
102
RTVSPropertyOp18
 70
     1
102
RTVSPropertyOp19
 70
     1
102
RTVSPropertyOp20
 70
     1
102
RTVSPropertyOp21
 70
     1
102
RTVSPropertyOp22
 70
     1
102
RTVSPropertyOp23
 70
     1
102
RTVSPropertyOp24
 70
     1
102
RTVSPropertyOp25
 70
     1
102
RTVSPropertyOp26
 70
     1
102
RTVSPropertyOp27
 70
     1
102
RTVSPropertyOp28
 70
     1
102
RTVSPropertyOp29
 70
     1
102
RTVSPropertyOp30
 70
     1
102
RTVSPropertyOp31
 70
     1
102
RTVSPropertyOp32
 70
     1
102
RTVSPropertyOp33
 70
     1
102
RTVSPropertyOp34
 70
     1
102
RTVSPropertyOp35
 70
     1
102
RTVSPropertyOp36
 70
     1
102
RTVSPropertyOp37
 70
     1
102
RTVSPropertyOp38
 70
     1
102
RTVSPropertyOp39
 70
     1
102
RTVSPropertyOp40
 70
     1
102
RTVSPropertyOp41
 70
     1
102
RTVSPropertyOp42
 70
     1
102
RTVSPropertyOp43
 70
     1
102
RTVSPropertyOp44
 70
     1
102
RTVSPropertyOp45
 70
     1
102
RTVSPropertyOp46
 70
     1
102
RTVSPropertyOp47
 70
     1
102
RTVSPropertyOp48
 70
     1
102
RTVSPropertyOp49
 70
     1
102
RTVSPropertyOp50
 70
     1
102
RTVSPropertyOp51
 70
     0
102
RTVSPropertyOp52
 70
     0
102
RTVSPropertyOp53
 70
     1
102
RTVSPropertyOp54
 70
     1
102
RTVSPropertyOp55
 70
     1
102
RTVSPropertyOp56
 70
     1
102
RTVSPropertyOp57
 70
     1
102
RTVSPost2010Prop28
280
     0
102
RTVSPost2010PropOp28
 70
     1
102
RTVSPost2010Prop29
280
     1
102
RTVSPost2010PropOp29
 70
     1
102
RTVSPost2010Prop30
280
     1
102
RTVSPost2010PropOp30
 70
     1
102
RTVSPost2010Prop31
280
     0
102
RTVSPost2010PropOp31
 70
     1
102
RTVSPost2010Prop32
280
     0
102
RTVSPost2010PropOp32
 70
     1
102
RTVSPost2010Prop33
280
     0
102
RTVSPost2010PropOp33
 70
     1
102
RTVSPost2010Prop34
280
     0
102
RTVSPost2010PropOp34
 70
     1
102
RTVSPost2010Prop35
280
     0
102
RTVSPost2010PropOp35
 70
     1
102
RTVSPost2010Prop36
280
     0
102
RTVSPost2010PropOp36
 70
     1
102
RTVSPost2010Prop37
 90
       50
102
RTVSPost2010PropOp37
 70
     1
102
RTVSPost2010Prop38
140
0.0
102
RTVSPost2010PropOp38
 70
     1
102
RTVSPost2010Prop39
140
1.0
102
RTVSPost2010PropOp39
 70
     1
102
RTVSPost2010Prop40
 90
        0
102
RTVSPost2010PropOp40
 70
     1
102
RTVSPost2010Prop41ColorIndex
 90
       18
102
RTVSPost2010Prop41ColorRGB
 90
        0
102
RTVSPost2010PropOp41
 70
     1
102
RTVSPost2010Prop42
 90
       50
102
RTVSPost2010PropOp42
 70
     1
102
RTVSPost2010Prop43
 90
        3
102
RTVSPost2010PropOp43
 70
     1
102
RTVSPost2010Prop44ColorIndex
 90
        5
102
RTVSPost2010Prop44ColorRGB
 90
      255
102
RTVSPost2010PropOp44
 70
     1
102
RTVSPost2010Prop45
280
     0
102
RTVSPost2010PropOp45
 70
     1
102
RTVSPost2010Prop46
 90
       50
102
RTVSPost2010PropOp46
 70
     1
102
RTVSPost2010Prop47
 90
       50
102
RTVSPost2010PropOp47
 70
     1
102
RTVSPost2010Prop48
 90
       50
102
RTVSPost2010PropOp48
 70
     1
102
RTVSPost2010Prop49
280
     0
102
RTVSPost2010PropOp49
 70
     1
102
RTVSPost2010Prop50
 90
       50
102
RTVSPost2010PropOp50
 70
     1
102
RTVSPost2010Prop51ColorIndex
 90
      256
102
RTVSPost2010Prop51ColorRGB
 90
-16777216
102
RTVSPost2010PropOp51
 70
     0
102
RTVSPost2010Prop52
140
1.0
102
RTVSPost2010PropOp52
 70
     0
102
RTVSPost2010Prop53
 90
        2
102
RTVSPost2010PropOp53
 70
     1
102
RTVSPost2010Prop54
  1
strokes_ogs.tif
102
RTVSPost2010PropOp54
 70
     1
102
RTVSPost2010Prop55
280
     0
102
RTVSPost2010PropOp55
 70
     1
102
RTVSPost2010Prop56
140
1.0
102
RTVSPost2010PropOp56
 70
     1
102
RTVSPost2010Prop57
140
1.0
102
RTVSPost2010PropOp57
 70
     1
  0
XRECORD
  5
3A6
102
{ACAD_REACTORS
330
3A5
102
}
330
3A5
100
AcDbXrecord
280
     1
102
RTVSPropertyOp0
 70
     1
102
RTVSPropertyOp1
 70
     1
102
RTVSPropertyOp2
 70
     1
102
RTVSPropertyOp3
 70
     1
102
RTVSPropertyOp4
 70
     1
102
RTVSPropertyOp5
 70
     1
102
RTVSPropertyOp6
 70
     1
102
RTVSPropertyOp7
 70
     1
102
RTVSPropertyOp8
 70
     1
102
RTVSPropertyOp9
 70
     1
102
RTVSPropertyOp10
 70
     1
102
RTVSPropertyOp11
 70
     1
102
RTVSPropertyOp12
 70
     1
102
RTVSPropertyOp13
 70
     1
102
RTVSPropertyOp14
 70
     1
102
RTVSPropertyOp15
 70
     1
102
RTVSPropertyOp16
 70
     1
102
RTVSPropertyOp17
 70
     1
102
RTVSPropertyOp18
 70
     1
102
RTVSPropertyOp19
 70
     1
102
RTVSPropertyOp20
 70
     1
102
RTVSPropertyOp21
 70
     1
102
RTVSPropertyOp22
 70
     1
102
RTVSPropertyOp23
 70
     1
102
RTVSPropertyOp24
 70
     1
102
RTVSPropertyOp25
 70
     1
102
RTVSPropertyOp26
 70
     1
102
RTVSPropertyOp27
 70
     1
102
RTVSPropertyOp28
 70
     1
102
RTVSPropertyOp29
 70
     1
102
RTVSPropertyOp30
 70
     1
102
RTVSPropertyOp31
 70
     1
102
RTVSPropertyOp32
 70
     1
102
RTVSPropertyOp33
 70
     1
102
RTVSPropertyOp34
 70
     1
102
RTVSPropertyOp35
 70
     1
102
RTVSPropertyOp36
 70
     1
102
RTVSPropertyOp37
 70
     1
102
RTVSPropertyOp38
 70
     1
102
RTVSPropertyOp39
 70
     1
102
RTVSPropertyOp40
 70
     1
102
RTVSPropertyOp41
 70
     1
102
RTVSPropertyOp42
 70
     1
102
RTVSPropertyOp43
 70
     1
102
RTVSPropertyOp44
 70
     1
102
RTVSPropertyOp45
 70
     1
102
RTVSPropertyOp46
 70
     1
102
RTVSPropertyOp47
 70
     1
102
RTVSPropertyOp48
 70
     1
102
RTVSPropertyOp49
 70
     1
102
RTVSPropertyOp50
 70
     1
102
RTVSPropertyOp51
 70
     0
102
RTVSPropertyOp52
 70
     0
102
RTVSPropertyOp53
 70
     1
102
RTVSPropertyOp54
 70
     1
102
RTVSPropertyOp55
 70
     1
102
RTVSPropertyOp56
 70
     1
102
RTVSPropertyOp57
 70
     1
102
RTVSPost2010Prop28
280
     0
102
RTVSPost2010PropOp28
 70
     1
102
RTVSPost2010Prop29
280
     1
102
RTVSPost2010PropOp29
 70
     1
102
RTVSPost2010Prop30
280
     1
102
RTVSPost2010PropOp30
 70
     1
102
RTVSPost2010Prop31
280
     0
102
RTVSPost2010PropOp31
 70
     1
102
RTVSPost2010Prop32
280
     0
102
RTVSPost2010PropOp32
 70
     1
102
RTVSPost2010Prop33
280
     0
102
RTVSPost2010PropOp33
 70
     1
102
RTVSPost2010Prop34
280
     0
102
RTVSPost2010PropOp34
 70
     1
102
RTVSPost2010Prop35
280
     0
102
RTVSPost2010PropOp35
 70
     1
102
RTVSPost2010Prop36
280
     0
102
RTVSPost2010PropOp36
 70
     1
102
RTVSPost2010Prop37
 90
       50
102
RTVSPost2010PropOp37
 70
     1
102
RTVSPost2010Prop38
140
0.0
102
RTVSPost2010PropOp38
 70
     1
102
RTVSPost2010Prop39
140
1.0
102
RTVSPost2010PropOp39
 70
     1
102
RTVSPost2010Prop40
 90
        0
102
RTVSPost2010PropOp40
 70
     1
102
RTVSPost2010Prop41ColorIndex
 90
       18
102
RTVSPost2010Prop41ColorRGB
 90
        0
102
RTVSPost2010PropOp41
 70
     1
102
RTVSPost2010Prop42
 90
       50
102
RTVSPost2010PropOp42
 70
     1
102
RTVSPost2010Prop43
 90
        3
102
RTVSPost2010PropOp43
 70
     1
102
RTVSPost2010Prop44ColorIndex
 90
        5
102
RTVSPost2010Prop44ColorRGB
 90
      255
102
RTVSPost2010PropOp44
 70
     1
102
RTVSPost2010Prop45
280
     0
102
RTVSPost2010PropOp45
 70
     1
102
RTVSPost2010Prop46
 90
       50
102
RTVSPost2010PropOp46
 70
     1
102
RTVSPost2010Prop47
 90
       50
102
RTVSPost2010PropOp47
 70
     1
102
RTVSPost2010Prop48
 90
       50
102
RTVSPost2010PropOp48
 70
     1
102
RTVSPost2010Prop49
280
     0
102
RTVSPost2010PropOp49
 70
     1
102
RTVSPost2010Prop50
 90
       50
102
RTVSPost2010PropOp50
 70
     1
102
RTVSPost2010Prop51ColorIndex
 90
      256
102
RTVSPost2010Prop51ColorRGB
 90
-16777216
102
RTVSPost2010PropOp51
 70
     0
102
RTVSPost2010Prop52
140
1.0
102
RTVSPost2010PropOp52
 70
     0
102
RTVSPost2010Prop53
 90
        2
102
RTVSPost2010PropOp53
 70
     1
102
RTVSPost2010Prop54
  1
strokes_ogs.tif
102
RTVSPost2010PropOp54
 70
     1
102
RTVSPost2010Prop55
280
     0
102
RTVSPost2010PropOp55
 70
     1
102
RTVSPost2010Prop56
140
1.0
102
RTVSPost2010PropOp56
 70
     1
102
RTVSPost2010Prop57
140
1.0
102
RTVSPost2010PropOp57
 70
     1
  0
XRECORD
  5
3AE
102
{ACAD_REACTORS
330
3AD
102
}
330
3AD
100
AcDbXrecord
280
     1
102
RTVSPropertyOp0
 70
     1
102
RTVSPropertyOp1
 70
     1
102
RTVSPropertyOp2
 70
     1
102
RTVSPropertyOp3
 70
     1
102
RTVSPropertyOp4
 70
     1
102
RTVSPropertyOp5
 70
     1
102
RTVSPropertyOp6
 70
     1
102
RTVSPropertyOp7
 70
     1
102
RTVSPropertyOp8
 70
     1
102
RTVSPropertyOp9
 70
     1
102
RTVSPropertyOp10
 70
     1
102
RTVSPropertyOp11
 70
     1
102
RTVSPropertyOp12
 70
     1
102
RTVSPropertyOp13
 70
     1
102
RTVSPropertyOp14
 70
     1
102
RTVSPropertyOp15
 70
     1
102
RTVSPropertyOp16
 70
     1
102
RTVSPropertyOp17
 70
     1
102
RTVSPropertyOp18
 70
     1
102
RTVSPropertyOp19
 70
     1
102
RTVSPropertyOp20
 70
     1
102
RTVSPropertyOp21
 70
     1
102
RTVSPropertyOp22
 70
     1
102
RTVSPropertyOp23
 70
     1
102
RTVSPropertyOp24
 70
     1
102
RTVSPropertyOp25
 70
     1
102
RTVSPropertyOp26
 70
     1
102
RTVSPropertyOp27
 70
     1
102
RTVSPropertyOp28
 70
     1
102
RTVSPropertyOp29
 70
     1
102
RTVSPropertyOp30
 70
     1
102
RTVSPropertyOp31
 70
     1
102
RTVSPropertyOp32
 70
     1
102
RTVSPropertyOp33
 70
     1
102
RTVSPropertyOp34
 70
     1
102
RTVSPropertyOp35
 70
     1
102
RTVSPropertyOp36
 70
     1
102
RTVSPropertyOp37
 70
     1
102
RTVSPropertyOp38
 70
     1
102
RTVSPropertyOp39
 70
     1
102
RTVSPropertyOp40
 70
     1
102
RTVSPropertyOp41
 70
     1
102
RTVSPropertyOp42
 70
     1
102
RTVSPropertyOp43
 70
     1
102
RTVSPropertyOp44
 70
     1
102
RTVSPropertyOp45
 70
     1
102
RTVSPropertyOp46
 70
     1
102
RTVSPropertyOp47
 70
     1
102
RTVSPropertyOp48
 70
     1
102
RTVSPropertyOp49
 70
     1
102
RTVSPropertyOp50
 70
     1
102
RTVSPropertyOp51
 70
     0
102
RTVSPropertyOp52
 70
     0
102
RTVSPropertyOp53
 70
     1
102
RTVSPropertyOp54
 70
     1
102
RTVSPropertyOp55
 70
     1
102
RTVSPropertyOp56
 70
     1
102
RTVSPropertyOp57
 70
     1
102
RTVSPost2010Prop28
280
     0
102
RTVSPost2010PropOp28
 70
     1
102
RTVSPost2010Prop29
280
     1
102
RTVSPost2010PropOp29
 70
     1
102
RTVSPost2010Prop30
280
     1
102
RTVSPost2010PropOp30
 70
     1
102
RTVSPost2010Prop31
280
     0
102
RTVSPost2010PropOp31
 70
     1
102
RTVSPost2010Prop32
280
     0
102
RTVSPost2010PropOp32
 70
     1
102
RTVSPost2010Prop33
280
     0
102
RTVSPost2010PropOp33
 70
     1
102
RTVSPost2010Prop34
280
     0
102
RTVSPost2010PropOp34
 70
     1
102
RTVSPost2010Prop35
280
     0
102
RTVSPost2010PropOp35
 70
     1
102
RTVSPost2010Prop36
280
     0
102
RTVSPost2010PropOp36
 70
     1
102
RTVSPost2010Prop37
 90
       50
102
RTVSPost2010PropOp37
 70
     1
102
RTVSPost2010Prop38
140
0.0
102
RTVSPost2010PropOp38
 70
     1
102
RTVSPost2010Prop39
140
1.0
102
RTVSPost2010PropOp39
 70
     1
102
RTVSPost2010Prop40
 90
        0
102
RTVSPost2010PropOp40
 70
     1
102
RTVSPost2010Prop41ColorIndex
 90
       18
102
RTVSPost2010Prop41ColorRGB
 90
        0
102
RTVSPost2010PropOp41
 70
     1
102
RTVSPost2010Prop42
 90
       50
102
RTVSPost2010PropOp42
 70
     1
102
RTVSPost2010Prop43
 90
        3
102
RTVSPost2010PropOp43
 70
     1
102
RTVSPost2010Prop44ColorIndex
 90
        5
102
RTVSPost2010Prop44ColorRGB
 90
      255
102
RTVSPost2010PropOp44
 70
     1
102
RTVSPost2010Prop45
280
     0
102
RTVSPost2010PropOp45
 70
     1
102
RTVSPost2010Prop46
 90
       50
102
RTVSPost2010PropOp46
 70
     1
102
RTVSPost2010Prop47
 90
       50
102
RTVSPost2010PropOp47
 70
     1
102
RTVSPost2010Prop48
 90
       50
102
RTVSPost2010PropOp48
 70
     1
102
RTVSPost2010Prop49
280
     0
102
RTVSPost2010PropOp49
 70
     1
102
RTVSPost2010Prop50
 90
       50
102
RTVSPost2010PropOp50
 70
     1
102
RTVSPost2010Prop51ColorIndex
 90
      256
102
RTVSPost2010Prop51ColorRGB
 90
-16777216
102
RTVSPost2010PropOp51
 70
     0
102
RTVSPost2010Prop52
140
1.0
102
RTVSPost2010PropOp52
 70
     0
102
RTVSPost2010Prop53
 90
        2
102
RTVSPost2010PropOp53
 70
     1
102
RTVSPost2010Prop54
  1
strokes_ogs.tif
102
RTVSPost2010PropOp54
 70
     1
102
RTVSPost2010Prop55
280
     0
102
RTVSPost2010PropOp55
 70
     1
102
RTVSPost2010Prop56
140
1.0
102
RTVSPost2010PropOp56
 70
     1
102
RTVSPost2010Prop57
140
1.0
102
RTVSPost2010PropOp57
 70
     1
  0
XRECORD
  5
3A2
102
{ACAD_REACTORS
330
3A1
102
}
330
3A1
100
AcDbXrecord
280
     1
102
RTVSPropertyOp0
 70
     1
102
RTVSPropertyOp1
 70
     1
102
RTVSPropertyOp2
 70
     1
102
RTVSPropertyOp3
 70
     1
102
RTVSPropertyOp4
 70
     1
102
RTVSPropertyOp5
 70
     1
102
RTVSPropertyOp6
 70
     1
102
RTVSPropertyOp7
 70
     1
102
RTVSPropertyOp8
 70
     1
102
RTVSPropertyOp9
 70
     1
102
RTVSPropertyOp10
 70
     1
102
RTVSPropertyOp11
 70
     1
102
RTVSPropertyOp12
 70
     1
102
RTVSPropertyOp13
 70
     1
102
RTVSPropertyOp14
 70
     1
102
RTVSPropertyOp15
 70
     1
102
RTVSPropertyOp16
 70
     1
102
RTVSPropertyOp17
 70
     1
102
RTVSPropertyOp18
 70
     1
102
RTVSPropertyOp19
 70
     1
102
RTVSPropertyOp20
 70
     1
102
RTVSPropertyOp21
 70
     1
102
RTVSPropertyOp22
 70
     1
102
RTVSPropertyOp23
 70
     1
102
RTVSPropertyOp24
 70
     1
102
RTVSPropertyOp25
 70
     1
102
RTVSPropertyOp26
 70
     1
102
RTVSPropertyOp27
 70
     1
102
RTVSPropertyOp28
 70
     1
102
RTVSPropertyOp29
 70
     1
102
RTVSPropertyOp30
 70
     1
102
RTVSPropertyOp31
 70
     1
102
RTVSPropertyOp32
 70
     1
102
RTVSPropertyOp33
 70
     1
102
RTVSPropertyOp34
 70
     1
102
RTVSPropertyOp35
 70
     1
102
RTVSPropertyOp36
 70
     1
102
RTVSPropertyOp37
 70
     1
102
RTVSPropertyOp38
 70
     1
102
RTVSPropertyOp39
 70
     1
102
RTVSPropertyOp40
 70
     1
102
RTVSPropertyOp41
 70
     1
102
RTVSPropertyOp42
 70
     1
102
RTVSPropertyOp43
 70
     1
102
RTVSPropertyOp44
 70
     1
102
RTVSPropertyOp45
 70
     1
102
RTVSPropertyOp46
 70
     1
102
RTVSPropertyOp47
 70
     1
102
RTVSPropertyOp48
 70
     1
102
RTVSPropertyOp49
 70
     1
102
RTVSPropertyOp50
 70
     1
102
RTVSPropertyOp51
 70
     0
102
RTVSPropertyOp52
 70
     0
102
RTVSPropertyOp53
 70
     1
102
RTVSPropertyOp54
 70
     1
102
RTVSPropertyOp55
 70
     1
102
RTVSPropertyOp56
 70
     1
102
RTVSPropertyOp57
 70
     1
102
RTVSPost2010Prop28
280
     0
102
RTVSPost2010PropOp28
 70
     1
102
RTVSPost2010Prop29
280
     1
102
RTVSPost2010PropOp29
 70
     1
102
RTVSPost2010Prop30
280
     1
102
RTVSPost2010PropOp30
 70
     1
102
RTVSPost2010Prop31
280
     0
102
RTVSPost2010PropOp31
 70
     1
102
RTVSPost2010Prop32
280
     0
102
RTVSPost2010PropOp32
 70
     1
102
RTVSPost2010Prop33
280
     0
102
RTVSPost2010PropOp33
 70
     1
102
RTVSPost2010Prop34
280
     0
102
RTVSPost2010PropOp34
 70
     1
102
RTVSPost2010Prop35
280
     0
102
RTVSPost2010PropOp35
 70
     1
102
RTVSPost2010Prop36
280
     0
102
RTVSPost2010PropOp36
 70
     1
102
RTVSPost2010Prop37
 90
       50
102
RTVSPost2010PropOp37
 70
     1
102
RTVSPost2010Prop38
140
0.0
102
RTVSPost2010PropOp38
 70
     1
102
RTVSPost2010Prop39
140
1.0
102
RTVSPost2010PropOp39
 70
     1
102
RTVSPost2010Prop40
 90
        0
102
RTVSPost2010PropOp40
 70
     1
102
RTVSPost2010Prop41ColorIndex
 90
       18
102
RTVSPost2010Prop41ColorRGB
 90
        0
102
RTVSPost2010PropOp41
 70
     1
102
RTVSPost2010Prop42
 90
       50
102
RTVSPost2010PropOp42
 70
     1
102
RTVSPost2010Prop43
 90
        3
102
RTVSPost2010PropOp43
 70
     1
102
RTVSPost2010Prop44ColorIndex
 90
        5
102
RTVSPost2010Prop44ColorRGB
 90
      255
102
RTVSPost2010PropOp44
 70
     1
102
RTVSPost2010Prop45
280
     0
102
RTVSPost2010PropOp45
 70
     1
102
RTVSPost2010Prop46
 90
       50
102
RTVSPost2010PropOp46
 70
     1
102
RTVSPost2010Prop47
 90
       50
102
RTVSPost2010PropOp47
 70
     1
102
RTVSPost2010Prop48
 90
       50
102
RTVSPost2010PropOp48
 70
     1
102
RTVSPost2010Prop49
280
     0
102
RTVSPost2010PropOp49
 70
     1
102
RTVSPost2010Prop50
 90
       50
102
RTVSPost2010PropOp50
 70
     1
102
RTVSPost2010Prop51ColorIndex
 90
      256
102
RTVSPost2010Prop51ColorRGB
 90
-16777216
102
RTVSPost2010PropOp51
 70
     0
102
RTVSPost2010Prop52
140
1.0
102
RTVSPost2010PropOp52
 70
     0
102
RTVSPost2010Prop53
 90
        2
102
RTVSPost2010PropOp53
 70
     1
102
RTVSPost2010Prop54
  1
strokes_ogs.tif
102
RTVSPost2010PropOp54
 70
     1
102
RTVSPost2010Prop55
280
     0
102
RTVSPost2010PropOp55
 70
     1
102
RTVSPost2010Prop56
140
1.0
102
RTVSPost2010PropOp56
 70
     1
102
RTVSPost2010Prop57
140
1.0
102
RTVSPost2010PropOp57
 70
     1
  0
XRECORD
  5
3A4
102
{ACAD_REACTORS
330
3A3
102
}
330
3A3
100
AcDbXrecord
280
     1
102
RTVSPropertyOp0
 70
     1
102
RTVSPropertyOp1
 70
     1
102
RTVSPropertyOp2
 70
     1
102
RTVSPropertyOp3
 70
     1
102
RTVSPropertyOp4
 70
     1
102
RTVSPropertyOp5
 70
     1
102
RTVSPropertyOp6
 70
     1
102
RTVSPropertyOp7
 70
     1
102
RTVSPropertyOp8
 70
     1
102
RTVSPropertyOp9
 70
     1
102
RTVSPropertyOp10
 70
     1
102
RTVSPropertyOp11
 70
     1
102
RTVSPropertyOp12
 70
     1
102
RTVSPropertyOp13
 70
     1
102
RTVSPropertyOp14
 70
     1
102
RTVSPropertyOp15
 70
     1
102
RTVSPropertyOp16
 70
     1
102
RTVSPropertyOp17
 70
     1
102
RTVSPropertyOp18
 70
     1
102
RTVSPropertyOp19
 70
     1
102
RTVSPropertyOp20
 70
     1
102
RTVSPropertyOp21
 70
     1
102
RTVSPropertyOp22
 70
     1
102
RTVSPropertyOp23
 70
     1
102
RTVSPropertyOp24
 70
     1
102
RTVSPropertyOp25
 70
     1
102
RTVSPropertyOp26
 70
     1
102
RTVSPropertyOp27
 70
     1
102
RTVSPropertyOp28
 70
     1
102
RTVSPropertyOp29
 70
     1
102
RTVSPropertyOp30
 70
     1
102
RTVSPropertyOp31
 70
     1
102
RTVSPropertyOp32
 70
     1
102
RTVSPropertyOp33
 70
     1
102
RTVSPropertyOp34
 70
     1
102
RTVSPropertyOp35
 70
     1
102
RTVSPropertyOp36
 70
     1
102
RTVSPropertyOp37
 70
     1
102
RTVSPropertyOp38
 70
     1
102
RTVSPropertyOp39
 70
     1
102
RTVSPropertyOp40
 70
     1
102
RTVSPropertyOp41
 70
     1
102
RTVSPropertyOp42
 70
     1
102
RTVSPropertyOp43
 70
     1
102
RTVSPropertyOp44
 70
     1
102
RTVSPropertyOp45
 70
     1
102
RTVSPropertyOp46
 70
     1
102
RTVSPropertyOp47
 70
     1
102
RTVSPropertyOp48
 70
     1
102
RTVSPropertyOp49
 70
     1
102
RTVSPropertyOp50
 70
     1
102
RTVSPropertyOp51
 70
     0
102
RTVSPropertyOp52
 70
     0
102
RTVSPropertyOp53
 70
     1
102
RTVSPropertyOp54
 70
     1
102
RTVSPropertyOp55
 70
     1
102
RTVSPropertyOp56
 70
     1
102
RTVSPropertyOp57
 70
     1
102
RTVSPost2010Prop28
280
     0
102
RTVSPost2010PropOp28
 70
     1
102
RTVSPost2010Prop29
280
     1
102
RTVSPost2010PropOp29
 70
     1
102
RTVSPost2010Prop30
280
     1
102
RTVSPost2010PropOp30
 70
     1
102
RTVSPost2010Prop31
280
     0
102
RTVSPost2010PropOp31
 70
     1
102
RTVSPost2010Prop32
280
     0
102
RTVSPost2010PropOp32
 70
     1
102
RTVSPost2010Prop33
280
     0
102
RTVSPost2010PropOp33
 70
     1
102
RTVSPost2010Prop34
280
     0
102
RTVSPost2010PropOp34
 70
     1
102
RTVSPost2010Prop35
280
     0
102
RTVSPost2010PropOp35
 70
     1
102
RTVSPost2010Prop36
280
     0
102
RTVSPost2010PropOp36
 70
     1
102
RTVSPost2010Prop37
 90
       50
102
RTVSPost2010PropOp37
 70
     1
102
RTVSPost2010Prop38
140
0.0
102
RTVSPost2010PropOp38
 70
     1
102
RTVSPost2010Prop39
140
1.0
102
RTVSPost2010PropOp39
 70
     1
102
RTVSPost2010Prop40
 90
        0
102
RTVSPost2010PropOp40
 70
     1
102
RTVSPost2010Prop41ColorIndex
 90
       18
102
RTVSPost2010Prop41ColorRGB
 90
        0
102
RTVSPost2010PropOp41
 70
     1
102
RTVSPost2010Prop42
 90
       50
102
RTVSPost2010PropOp42
 70
     1
102
RTVSPost2010Prop43
 90
        3
102
RTVSPost2010PropOp43
 70
     1
102
RTVSPost2010Prop44ColorIndex
 90
        5
102
RTVSPost2010Prop44ColorRGB
 90
      255
102
RTVSPost2010PropOp44
 70
     1
102
RTVSPost2010Prop45
280
     0
102
RTVSPost2010PropOp45
 70
     1
102
RTVSPost2010Prop46
 90
       50
102
RTVSPost2010PropOp46
 70
     1
102
RTVSPost2010Prop47
 90
       50
102
RTVSPost2010PropOp47
 70
     1
102
RTVSPost2010Prop48
 90
       50
102
RTVSPost2010PropOp48
 70
     1
102
RTVSPost2010Prop49
280
     0
102
RTVSPost2010PropOp49
 70
     1
102
RTVSPost2010Prop50
 90
       50
102
RTVSPost2010PropOp50
 70
     1
102
RTVSPost2010Prop51ColorIndex
 90
      256
102
RTVSPost2010Prop51ColorRGB
 90
-16777216
102
RTVSPost2010PropOp51
 70
     0
102
RTVSPost2010Prop52
140
1.0
102
RTVSPost2010PropOp52
 70
     0
102
RTVSPost2010Prop53
 90
        2
102
RTVSPost2010PropOp53
 70
     1
102
RTVSPost2010Prop54
  1
strokes_ogs.tif
102
RTVSPost2010PropOp54
 70
     1
102
RTVSPost2010Prop55
280
     0
102
RTVSPost2010PropOp55
 70
     1
102
RTVSPost2010Prop56
140
1.0
102
RTVSPost2010PropOp56
 70
     1
102
RTVSPost2010Prop57
140
1.0
102
RTVSPost2010PropOp57
 70
     1
  0
XRECORD
  5
3B4
102
{ACAD_REACTORS
330
3B3
102
}
330
3B3
100
AcDbXrecord
280
     1
102
RTVSPropertyOp0
 70
     0
102
RTVSPropertyOp1
 70
     0
102
RTVSPropertyOp2
 70
     0
102
RTVSPropertyOp3
 70
     0
102
RTVSPropertyOp4
 70
     0
102
RTVSPropertyOp5
 70
     0
102
RTVSPropertyOp6
 70
     0
102
RTVSPropertyOp7
 70
     0
102
RTVSPropertyOp8
 70
     0
102
RTVSPropertyOp9
 70
     0
102
RTVSPropertyOp10
 70
     0
102
RTVSPropertyOp11
 70
     0
102
RTVSPropertyOp12
 70
     0
102
RTVSPropertyOp13
 70
     0
102
RTVSPropertyOp14
 70
     2
102
RTVSPropertyOp15
 70
     0
102
RTVSPropertyOp16
 70
     0
102
RTVSPropertyOp17
 70
     0
102
RTVSPropertyOp18
 70
     0
102
RTVSPropertyOp19
 70
     0
102
RTVSPropertyOp20
 70
     0
102
RTVSPropertyOp21
 70
     0
102
RTVSPropertyOp22
 70
     0
102
RTVSPropertyOp23
 70
     0
102
RTVSPropertyOp24
 70
     0
102
RTVSPropertyOp25
 70
     0
102
RTVSPropertyOp26
 70
     0
102
RTVSPropertyOp27
 70
     0
102
RTVSPropertyOp28
 70
     0
102
RTVSPropertyOp29
 70
     0
102
RTVSPropertyOp30
 70
     0
102
RTVSPropertyOp31
 70
     0
102
RTVSPropertyOp32
 70
     0
102
RTVSPropertyOp33
 70
     0
102
RTVSPropertyOp34
 70
     0
102
RTVSPropertyOp35
 70
     0
102
RTVSPropertyOp36
 70
     0
102
RTVSPropertyOp37
 70
     0
102
RTVSPropertyOp38
 70
     0
102
RTVSPropertyOp39
 70
     0
102
RTVSPropertyOp40
 70
     0
102
RTVSPropertyOp41
 70
     0
102
RTVSPropertyOp42
 70
     0
102
RTVSPropertyOp43
 70
     0
102
RTVSPropertyOp44
 70
     0
102
RTVSPropertyOp45
 70
     0
102
RTVSPropertyOp46
 70
     0
102
RTVSPropertyOp47
 70
     0
102
RTVSPropertyOp48
 70
     0
102
RTVSPropertyOp49
 70
     0
102
RTVSPropertyOp50
 70
     0
102
RTVSPropertyOp51
 70
     0
102
RTVSPropertyOp52
 70
     0
102
RTVSPropertyOp53
 70
     0
102
RTVSPropertyOp54
 70
     0
102
RTVSPropertyOp55
 70
     0
102
RTVSPropertyOp56
 70
     0
102
RTVSPropertyOp57
 70
     0
102
RTVSPost2010Prop28
280
     0
102
RTVSPost2010PropOp28
 70
     0
102
RTVSPost2010Prop29
280
     1
102
RTVSPost2010PropOp29
 70
     0
102
RTVSPost2010Prop30
280
     1
102
RTVSPost2010PropOp30
 70
     0
102
RTVSPost2010Prop31
280
     0
102
RTVSPost2010PropOp31
 70
     0
102
RTVSPost2010Prop32
280
     0
102
RTVSPost2010PropOp32
 70
     0
102
RTVSPost2010Prop33
280
     0
102
RTVSPost2010PropOp33
 70
     0
102
RTVSPost2010Prop34
280
     0
102
RTVSPost2010PropOp34
 70
     0
102
RTVSPost2010Prop35
280
     0
102
RTVSPost2010PropOp35
 70
     0
102
RTVSPost2010Prop36
280
     0
102
RTVSPost2010PropOp36
 70
     0
102
RTVSPost2010Prop37
 90
       50
102
RTVSPost2010PropOp37
 70
     0
102
RTVSPost2010Prop38
140
0.0
102
RTVSPost2010PropOp38
 70
     0
102
RTVSPost2010Prop39
140
1.0
102
RTVSPost2010PropOp39
 70
     0
102
RTVSPost2010Prop40
 90
        0
102
RTVSPost2010PropOp40
 70
     0
102
RTVSPost2010Prop41ColorIndex
 90
       18
102
RTVSPost2010Prop41ColorRGB
 90
        0
102
RTVSPost2010PropOp41
 70
     0
102
RTVSPost2010Prop42
 90
       50
102
RTVSPost2010PropOp42
 70
     0
102
RTVSPost2010Prop43
 90
        3
102
RTVSPost2010PropOp43
 70
     0
102
RTVSPost2010Prop44ColorIndex
 90
        5
102
RTVSPost2010Prop44ColorRGB
 90
      255
102
RTVSPost2010PropOp44
 70
     0
102
RTVSPost2010Prop45
280
     0
102
RTVSPost2010PropOp45
 70
     0
102
RTVSPost2010Prop46
 90
       50
102
RTVSPost2010PropOp46
 70
     0
102
RTVSPost2010Prop47
 90
       50
102
RTVSPost2010PropOp47
 70
     0
102
RTVSPost2010Prop48
 90
       50
102
RTVSPost2010PropOp48
 70
     0
102
RTVSPost2010Prop49
280
     0
102
RTVSPost2010PropOp49
 70
     0
102
RTVSPost2010Prop50
 90
       50
102
RTVSPost2010PropOp50
 70
     0
102
RTVSPost2010Prop51ColorIndex
 90
      256
102
RTVSPost2010Prop51ColorRGB
 90
-16777216
102
RTVSPost2010PropOp51
 70
     0
102
RTVSPost2010Prop52
140
1.0
102
RTVSPost2010PropOp52
 70
     0
102
RTVSPost2010Prop53
 90
        2
102
RTVSPost2010PropOp53
 70
     0
102
RTVSPost2010Prop54
  1
strokes_ogs.tif
102
RTVSPost2010PropOp54
 70
     0
102
RTVSPost2010Prop55
280
     0
102
RTVSPost2010PropOp55
 70
     0
102
RTVSPost2010Prop56
140
1.0
102
RTVSPost2010PropOp56
 70
     0
102
RTVSPost2010Prop57
140
1.0
102
RTVSPost2010PropOp57
 70
     0
  0
XRECORD
  5
3AC
102
{ACAD_REACTORS
330
3AB
102
}
330
3AB
100
AcDbXrecord
280
     1
102
RTVSPropertyOp0
 70
     1
102
RTVSPropertyOp1
 70
     1
102
RTVSPropertyOp2
 70
     1
102
RTVSPropertyOp3
 70
     1
102
RTVSPropertyOp4
 70
     1
102
RTVSPropertyOp5
 70
     1
102
RTVSPropertyOp6
 70
     1
102
RTVSPropertyOp7
 70
     1
102
RTVSPropertyOp8
 70
     1
102
RTVSPropertyOp9
 70
     1
102
RTVSPropertyOp10
 70
     1
102
RTVSPropertyOp11
 70
     1
102
RTVSPropertyOp12
 70
     1
102
RTVSPropertyOp13
 70
     1
102
RTVSPropertyOp14
 70
     1
102
RTVSPropertyOp15
 70
     1
102
RTVSPropertyOp16
 70
     1
102
RTVSPropertyOp17
 70
     1
102
RTVSPropertyOp18
 70
     1
102
RTVSPropertyOp19
 70
     1
102
RTVSPropertyOp20
 70
     1
102
RTVSPropertyOp21
 70
     1
102
RTVSPropertyOp22
 70
     1
102
RTVSPropertyOp23
 70
     1
102
RTVSPropertyOp24
 70
     1
102
RTVSPropertyOp25
 70
     1
102
RTVSPropertyOp26
 70
     1
102
RTVSPropertyOp27
 70
     1
102
RTVSPropertyOp28
 70
     1
102
RTVSPropertyOp29
 70
     1
102
RTVSPropertyOp30
 70
     1
102
RTVSPropertyOp31
 70
     1
102
RTVSPropertyOp32
 70
     1
102
RTVSPropertyOp33
 70
     1
102
RTVSPropertyOp34
 70
     1
102
RTVSPropertyOp35
 70
     1
102
RTVSPropertyOp36
 70
     1
102
RTVSPropertyOp37
 70
     1
102
RTVSPropertyOp38
 70
     1
102
RTVSPropertyOp39
 70
     1
102
RTVSPropertyOp40
 70
     1
102
RTVSPropertyOp41
 70
     1
102
RTVSPropertyOp42
 70
     1
102
RTVSPropertyOp43
 70
     1
102
RTVSPropertyOp44
 70
     1
102
RTVSPropertyOp45
 70
     1
102
RTVSPropertyOp46
 70
     1
102
RTVSPropertyOp47
 70
     1
102
RTVSPropertyOp48
 70
     1
102
RTVSPropertyOp49
 70
     1
102
RTVSPropertyOp50
 70
     1
102
RTVSPropertyOp51
 70
     0
102
RTVSPropertyOp52
 70
     0
102
RTVSPropertyOp53
 70
     1
102
RTVSPropertyOp54
 70
     1
102
RTVSPropertyOp55
 70
     1
102
RTVSPropertyOp56
 70
     1
102
RTVSPropertyOp57
 70
     1
102
RTVSPost2010Prop28
280
     0
102
RTVSPost2010PropOp28
 70
     1
102
RTVSPost2010Prop29
280
     1
102
RTVSPost2010PropOp29
 70
     1
102
RTVSPost2010Prop30
280
     1
102
RTVSPost2010PropOp30
 70
     1
102
RTVSPost2010Prop31
280
     0
102
RTVSPost2010PropOp31
 70
     1
102
RTVSPost2010Prop32
280
     0
102
RTVSPost2010PropOp32
 70
     1
102
RTVSPost2010Prop33
280
     0
102
RTVSPost2010PropOp33
 70
     1
102
RTVSPost2010Prop34
280
     0
102
RTVSPost2010PropOp34
 70
     1
102
RTVSPost2010Prop35
280
     0
102
RTVSPost2010PropOp35
 70
     1
102
RTVSPost2010Prop36
280
     0
102
RTVSPost2010PropOp36
 70
     1
102
RTVSPost2010Prop37
 90
       50
102
RTVSPost2010PropOp37
 70
     1
102
RTVSPost2010Prop38
140
0.0
102
RTVSPost2010PropOp38
 70
     1
102
RTVSPost2010Prop39
140
1.0
102
RTVSPost2010PropOp39
 70
     1
102
RTVSPost2010Prop40
 90
        0
102
RTVSPost2010PropOp40
 70
     1
102
RTVSPost2010Prop41ColorIndex
 90
       18
102
RTVSPost2010Prop41ColorRGB
 90
        0
102
RTVSPost2010PropOp41
 70
     1
102
RTVSPost2010Prop42
 90
       50
102
RTVSPost2010PropOp42
 70
     1
102
RTVSPost2010Prop43
 90
        3
102
RTVSPost2010PropOp43
 70
     1
102
RTVSPost2010Prop44ColorIndex
 90
        5
102
RTVSPost2010Prop44ColorRGB
 90
      255
102
RTVSPost2010PropOp44
 70
     1
102
RTVSPost2010Prop45
280
     0
102
RTVSPost2010PropOp45
 70
     1
102
RTVSPost2010Prop46
 90
       50
102
RTVSPost2010PropOp46
 70
     1
102
RTVSPost2010Prop47
 90
       50
102
RTVSPost2010PropOp47
 70
     1
102
RTVSPost2010Prop48
 90
       50
102
RTVSPost2010PropOp48
 70
     1
102
RTVSPost2010Prop49
280
     0
102
RTVSPost2010PropOp49
 70
     1
102
RTVSPost2010Prop50
 90
       50
102
RTVSPost2010PropOp50
 70
     1
102
RTVSPost2010Prop51ColorIndex
 90
      256
102
RTVSPost2010Prop51ColorRGB
 90
-16777216
102
RTVSPost2010PropOp51
 70
     0
102
RTVSPost2010Prop52
140
1.0
102
RTVSPost2010PropOp52
 70
     0
102
RTVSPost2010Prop53
 90
        2
102
RTVSPost2010PropOp53
 70
     1
102
RTVSPost2010Prop54
  1
strokes_ogs.tif
102
RTVSPost2010PropOp54
 70
     1
102
RTVSPost2010Prop55
280
     0
102
RTVSPost2010PropOp55
 70
     1
102
RTVSPost2010Prop56
140
1.0
102
RTVSPost2010PropOp56
 70
     1
102
RTVSPost2010Prop57
140
1.0
102
RTVSPost2010PropOp57
 70
     1
  0
XRECORD
  5
390
102
{ACAD_REACTORS
330
38F
102
}
330
38F
100
AcDbXrecord
280
     1
102
RTVSPropertyOp0
 70
     1
102
RTVSPropertyOp1
 70
     1
102
RTVSPropertyOp2
 70
     1
102
RTVSPropertyOp3
 70
     1
102
RTVSPropertyOp4
 70
     1
102
RTVSPropertyOp5
 70
     1
102
RTVSPropertyOp6
 70
     1
102
RTVSPropertyOp7
 70
     1
102
RTVSPropertyOp8
 70
     1
102
RTVSPropertyOp9
 70
     1
102
RTVSPropertyOp10
 70
     1
102
RTVSPropertyOp11
 70
     1
102
RTVSPropertyOp12
 70
     1
102
RTVSPropertyOp13
 70
     1
102
RTVSPropertyOp14
 70
     1
102
RTVSPropertyOp15
 70
     1
102
RTVSPropertyOp16
 70
     1
102
RTVSPropertyOp17
 70
     1
102
RTVSPropertyOp18
 70
     1
102
RTVSPropertyOp19
 70
     1
102
RTVSPropertyOp20
 70
     1
102
RTVSPropertyOp21
 70
     1
102
RTVSPropertyOp22
 70
     1
102
RTVSPropertyOp23
 70
     1
102
RTVSPropertyOp24
 70
     1
102
RTVSPropertyOp25
 70
     1
102
RTVSPropertyOp26
 70
     1
102
RTVSPropertyOp27
 70
     1
102
RTVSPropertyOp28
 70
     1
102
RTVSPropertyOp29
 70
     1
102
RTVSPropertyOp30
 70
     1
102
RTVSPropertyOp31
 70
     1
102
RTVSPropertyOp32
 70
     1
102
RTVSPropertyOp33
 70
     1
102
RTVSPropertyOp34
 70
     1
102
RTVSPropertyOp35
 70
     1
102
RTVSPropertyOp36
 70
     1
102
RTVSPropertyOp37
 70
     1
102
RTVSPropertyOp38
 70
     1
102
RTVSPropertyOp39
 70
     1
102
RTVSPropertyOp40
 70
     1
102
RTVSPropertyOp41
 70
     1
102
RTVSPropertyOp42
 70
     1
102
RTVSPropertyOp43
 70
     1
102
RTVSPropertyOp44
 70
     1
102
RTVSPropertyOp45
 70
     1
102
RTVSPropertyOp46
 70
     1
102
RTVSPropertyOp47
 70
     1
102
RTVSPropertyOp48
 70
     1
102
RTVSPropertyOp49
 70
     1
102
RTVSPropertyOp50
 70
     1
102
RTVSPropertyOp51
 70
     0
102
RTVSPropertyOp52
 70
     0
102
RTVSPropertyOp53
 70
     1
102
RTVSPropertyOp54
 70
     1
102
RTVSPropertyOp55
 70
     1
102
RTVSPropertyOp56
 70
     1
102
RTVSPropertyOp57
 70
     1
102
RTVSPost2010Prop28
280
     0
102
RTVSPost2010PropOp28
 70
     1
102
RTVSPost2010Prop29
280
     1
102
RTVSPost2010PropOp29
 70
     1
102
RTVSPost2010Prop30
280
     1
102
RTVSPost2010PropOp30
 70
     1
102
RTVSPost2010Prop31
280
     0
102
RTVSPost2010PropOp31
 70
     1
102
RTVSPost2010Prop32
280
     0
102
RTVSPost2010PropOp32
 70
     1
102
RTVSPost2010Prop33
280
     0
102
RTVSPost2010PropOp33
 70
     1
102
RTVSPost2010Prop34
280
     0
102
RTVSPost2010PropOp34
 70
     1
102
RTVSPost2010Prop35
280
     0
102
RTVSPost2010PropOp35
 70
     1
102
RTVSPost2010Prop36
280
     0
102
RTVSPost2010PropOp36
 70
     1
102
RTVSPost2010Prop37
 90
       50
102
RTVSPost2010PropOp37
 70
     1
102
RTVSPost2010Prop38
140
0.0
102
RTVSPost2010PropOp38
 70
     1
102
RTVSPost2010Prop39
140
1.0
102
RTVSPost2010PropOp39
 70
     1
102
RTVSPost2010Prop40
 90
        0
102
RTVSPost2010PropOp40
 70
     1
102
RTVSPost2010Prop41ColorIndex
 90
       18
102
RTVSPost2010Prop41ColorRGB
 90
        0
102
RTVSPost2010PropOp41
 70
     1
102
RTVSPost2010Prop42
 90
       50
102
RTVSPost2010PropOp42
 70
     1
102
RTVSPost2010Prop43
 90
        3
102
RTVSPost2010PropOp43
 70
     1
102
RTVSPost2010Prop44ColorIndex
 90
        5
102
RTVSPost2010Prop44ColorRGB
 90
      255
102
RTVSPost2010PropOp44
 70
     1
102
RTVSPost2010Prop45
280
     0
102
RTVSPost2010PropOp45
 70
     1
102
RTVSPost2010Prop46
 90
       50
102
RTVSPost2010PropOp46
 70
     1
102
RTVSPost2010Prop47
 90
       50
102
RTVSPost2010PropOp47
 70
     1
102
RTVSPost2010Prop48
 90
       50
102
RTVSPost2010PropOp48
 70
     1
102
RTVSPost2010Prop49
280
     0
102
RTVSPost2010PropOp49
 70
     1
102
RTVSPost2010Prop50
 90
       50
102
RTVSPost2010PropOp50
 70
     1
102
RTVSPost2010Prop51ColorIndex
 90
      256
102
RTVSPost2010Prop51ColorRGB
 90
-16777216
102
RTVSPost2010PropOp51
 70
     0
102
RTVSPost2010Prop52
140
1.0
102
RTVSPost2010PropOp52
 70
     0
102
RTVSPost2010Prop53
 90
        2
102
RTVSPost2010PropOp53
 70
     1
102
RTVSPost2010Prop54
  1
strokes_ogs.tif
102
RTVSPost2010PropOp54
 70
     1
102
RTVSPost2010Prop55
280
     0
102
RTVSPost2010PropOp55
 70
     1
102
RTVSPost2010Prop56
140
1.0
102
RTVSPost2010PropOp56
 70
     1
102
RTVSPost2010Prop57
140
1.0
102
RTVSPost2010PropOp57
 70
     1
  0
XRECORD
  5
392
102
{ACAD_REACTORS
330
391
102
}
330
391
100
AcDbXrecord
280
     1
102
RTVSPropertyOp0
 70
     1
102
RTVSPropertyOp1
 70
     1
102
RTVSPropertyOp2
 70
     1
102
RTVSPropertyOp3
 70
     1
102
RTVSPropertyOp4
 70
     1
102
RTVSPropertyOp5
 70
     1
102
RTVSPropertyOp6
 70
     1
102
RTVSPropertyOp7
 70
     1
102
RTVSPropertyOp8
 70
     1
102
RTVSPropertyOp9
 70
     1
102
RTVSPropertyOp10
 70
     1
102
RTVSPropertyOp11
 70
     1
102
RTVSPropertyOp12
 70
     1
102
RTVSPropertyOp13
 70
     1
102
RTVSPropertyOp14
 70
     1
102
RTVSPropertyOp15
 70
     1
102
RTVSPropertyOp16
 70
     1
102
RTVSPropertyOp17
 70
     1
102
RTVSPropertyOp18
 70
     1
102
RTVSPropertyOp19
 70
     1
102
RTVSPropertyOp20
 70
     1
102
RTVSPropertyOp21
 70
     1
102
RTVSPropertyOp22
 70
     1
102
RTVSPropertyOp23
 70
     1
102
RTVSPropertyOp24
 70
     1
102
RTVSPropertyOp25
 70
     1
102
RTVSPropertyOp26
 70
     1
102
RTVSPropertyOp27
 70
     1
102
RTVSPropertyOp28
 70
     1
102
RTVSPropertyOp29
 70
     1
102
RTVSPropertyOp30
 70
     1
102
RTVSPropertyOp31
 70
     1
102
RTVSPropertyOp32
 70
     1
102
RTVSPropertyOp33
 70
     1
102
RTVSPropertyOp34
 70
     1
102
RTVSPropertyOp35
 70
     1
102
RTVSPropertyOp36
 70
     1
102
RTVSPropertyOp37
 70
     1
102
RTVSPropertyOp38
 70
     1
102
RTVSPropertyOp39
 70
     1
102
RTVSPropertyOp40
 70
     1
102
RTVSPropertyOp41
 70
     1
102
RTVSPropertyOp42
 70
     1
102
RTVSPropertyOp43
 70
     1
102
RTVSPropertyOp44
 70
     1
102
RTVSPropertyOp45
 70
     1
102
RTVSPropertyOp46
 70
     1
102
RTVSPropertyOp47
 70
     1
102
RTVSPropertyOp48
 70
     1
102
RTVSPropertyOp49
 70
     1
102
RTVSPropertyOp50
 70
     1
102
RTVSPropertyOp51
 70
     0
102
RTVSPropertyOp52
 70
     0
102
RTVSPropertyOp53
 70
     1
102
RTVSPropertyOp54
 70
     1
102
RTVSPropertyOp55
 70
     1
102
RTVSPropertyOp56
 70
     1
102
RTVSPropertyOp57
 70
     1
102
RTVSPost2010Prop28
280
     0
102
RTVSPost2010PropOp28
 70
     1
102
RTVSPost2010Prop29
280
     1
102
RTVSPost2010PropOp29
 70
     1
102
RTVSPost2010Prop30
280
     1
102
RTVSPost2010PropOp30
 70
     1
102
RTVSPost2010Prop31
280
     0
102
RTVSPost2010PropOp31
 70
     1
102
RTVSPost2010Prop32
280
     0
102
RTVSPost2010PropOp32
 70
     1
102
RTVSPost2010Prop33
280
     0
102
RTVSPost2010PropOp33
 70
     1
102
RTVSPost2010Prop34
280
     0
102
RTVSPost2010PropOp34
 70
     1
102
RTVSPost2010Prop35
280
     0
102
RTVSPost2010PropOp35
 70
     1
102
RTVSPost2010Prop36
280
     0
102
RTVSPost2010PropOp36
 70
     1
102
RTVSPost2010Prop37
 90
       50
102
RTVSPost2010PropOp37
 70
     1
102
RTVSPost2010Prop38
140
0.0
102
RTVSPost2010PropOp38
 70
     1
102
RTVSPost2010Prop39
140
1.0
102
RTVSPost2010PropOp39
 70
     1
102
RTVSPost2010Prop40
 90
        0
102
RTVSPost2010PropOp40
 70
     1
102
RTVSPost2010Prop41ColorIndex
 90
       18
102
RTVSPost2010Prop41ColorRGB
 90
        0
102
RTVSPost2010PropOp41
 70
     1
102
RTVSPost2010Prop42
 90
       50
102
RTVSPost2010PropOp42
 70
     1
102
RTVSPost2010Prop43
 90
        3
102
RTVSPost2010PropOp43
 70
     1
102
RTVSPost2010Prop44ColorIndex
 90
        5
102
RTVSPost2010Prop44ColorRGB
 90
      255
102
RTVSPost2010PropOp44
 70
     1
102
RTVSPost2010Prop45
280
     0
102
RTVSPost2010PropOp45
 70
     1
102
RTVSPost2010Prop46
 90
       50
102
RTVSPost2010PropOp46
 70
     1
102
RTVSPost2010Prop47
 90
       50
102
RTVSPost2010PropOp47
 70
     1
102
RTVSPost2010Prop48
 90
       50
102
RTVSPost2010PropOp48
 70
     1
102
RTVSPost2010Prop49
280
     0
102
RTVSPost2010PropOp49
 70
     1
102
RTVSPost2010Prop50
 90
       50
102
RTVSPost2010PropOp50
 70
     1
102
RTVSPost2010Prop51ColorIndex
 90
      256
102
RTVSPost2010Prop51ColorRGB
 90
-16777216
102
RTVSPost2010PropOp51
 70
     0
102
RTVSPost2010Prop52
140
1.0
102
RTVSPost2010PropOp52
 70
     0
102
RTVSPost2010Prop53
 90
        2
102
RTVSPost2010PropOp53
 70
     1
102
RTVSPost2010Prop54
  1
strokes_ogs.tif
102
RTVSPost2010PropOp54
 70
     1
102
RTVSPost2010Prop55
280
     0
102
RTVSPost2010PropOp55
 70
     1
102
RTVSPost2010Prop56
140
1.0
102
RTVSPost2010PropOp56
 70
     1
102
RTVSPost2010Prop57
140
1.0
102
RTVSPost2010PropOp57
 70
     1
  0
XRECORD
  5
394
102
{ACAD_REACTORS
330
393
102
}
330
393
100
AcDbXrecord
280
     1
102
RTVSPropertyOp0
 70
     1
102
RTVSPropertyOp1
 70
     1
102
RTVSPropertyOp2
 70
     1
102
RTVSPropertyOp3
 70
     1
102
RTVSPropertyOp4
 70
     1
102
RTVSPropertyOp5
 70
     1
102
RTVSPropertyOp6
 70
     1
102
RTVSPropertyOp7
 70
     1
102
RTVSPropertyOp8
 70
     1
102
RTVSPropertyOp9
 70
     1
102
RTVSPropertyOp10
 70
     1
102
RTVSPropertyOp11
 70
     1
102
RTVSPropertyOp12
 70
     1
102
RTVSPropertyOp13
 70
     1
102
RTVSPropertyOp14
 70
     1
102
RTVSPropertyOp15
 70
     1
102
RTVSPropertyOp16
 70
     1
102
RTVSPropertyOp17
 70
     1
102
RTVSPropertyOp18
 70
     1
102
RTVSPropertyOp19
 70
     1
102
RTVSPropertyOp20
 70
     1
102
RTVSPropertyOp21
 70
     1
102
RTVSPropertyOp22
 70
     1
102
RTVSPropertyOp23
 70
     1
102
RTVSPropertyOp24
 70
     1
102
RTVSPropertyOp25
 70
     1
102
RTVSPropertyOp26
 70
     1
102
RTVSPropertyOp27
 70
     1
102
RTVSPropertyOp28
 70
     1
102
RTVSPropertyOp29
 70
     1
102
RTVSPropertyOp30
 70
     1
102
RTVSPropertyOp31
 70
     1
102
RTVSPropertyOp32
 70
     1
102
RTVSPropertyOp33
 70
     1
102
RTVSPropertyOp34
 70
     1
102
RTVSPropertyOp35
 70
     1
102
RTVSPropertyOp36
 70
     1
102
RTVSPropertyOp37
 70
     1
102
RTVSPropertyOp38
 70
     1
102
RTVSPropertyOp39
 70
     1
102
RTVSPropertyOp40
 70
     1
102
RTVSPropertyOp41
 70
     1
102
RTVSPropertyOp42
 70
     1
102
RTVSPropertyOp43
 70
     1
102
RTVSPropertyOp44
 70
     1
102
RTVSPropertyOp45
 70
     1
102
RTVSPropertyOp46
 70
     1
102
RTVSPropertyOp47
 70
     1
102
RTVSPropertyOp48
 70
     1
102
RTVSPropertyOp49
 70
     1
102
RTVSPropertyOp50
 70
     1
102
RTVSPropertyOp51
 70
     0
102
RTVSPropertyOp52
 70
     0
102
RTVSPropertyOp53
 70
     1
102
RTVSPropertyOp54
 70
     1
102
RTVSPropertyOp55
 70
     1
102
RTVSPropertyOp56
 70
     1
102
RTVSPropertyOp57
 70
     1
102
RTVSPost2010Prop28
280
     0
102
RTVSPost2010PropOp28
 70
     1
102
RTVSPost2010Prop29
280
     1
102
RTVSPost2010PropOp29
 70
     1
102
RTVSPost2010Prop30
280
     1
102
RTVSPost2010PropOp30
 70
     1
102
RTVSPost2010Prop31
280
     0
102
RTVSPost2010PropOp31
 70
     1
102
RTVSPost2010Prop32
280
     0
102
RTVSPost2010PropOp32
 70
     1
102
RTVSPost2010Prop33
280
     0
102
RTVSPost2010PropOp33
 70
     1
102
RTVSPost2010Prop34
280
     0
102
RTVSPost2010PropOp34
 70
     1
102
RTVSPost2010Prop35
280
     0
102
RTVSPost2010PropOp35
 70
     1
102
RTVSPost2010Prop36
280
     0
102
RTVSPost2010PropOp36
 70
     1
102
RTVSPost2010Prop37
 90
       50
102
RTVSPost2010PropOp37
 70
     1
102
RTVSPost2010Prop38
140
0.0
102
RTVSPost2010PropOp38
 70
     1
102
RTVSPost2010Prop39
140
1.0
102
RTVSPost2010PropOp39
 70
     1
102
RTVSPost2010Prop40
 90
        0
102
RTVSPost2010PropOp40
 70
     1
102
RTVSPost2010Prop41ColorIndex
 90
       18
102
RTVSPost2010Prop41ColorRGB
 90
        0
102
RTVSPost2010PropOp41
 70
     1
102
RTVSPost2010Prop42
 90
       50
102
RTVSPost2010PropOp42
 70
     1
102
RTVSPost2010Prop43
 90
        3
102
RTVSPost2010PropOp43
 70
     1
102
RTVSPost2010Prop44ColorIndex
 90
        5
102
RTVSPost2010Prop44ColorRGB
 90
      255
102
RTVSPost2010PropOp44
 70
     1
102
RTVSPost2010Prop45
280
     0
102
RTVSPost2010PropOp45
 70
     1
102
RTVSPost2010Prop46
 90
       50
102
RTVSPost2010PropOp46
 70
     1
102
RTVSPost2010Prop47
 90
       50
102
RTVSPost2010PropOp47
 70
     1
102
RTVSPost2010Prop48
 90
       50
102
RTVSPost2010PropOp48
 70
     1
102
RTVSPost2010Prop49
280
     0
102
RTVSPost2010PropOp49
 70
     1
102
RTVSPost2010Prop50
 90
       50
102
RTVSPost2010PropOp50
 70
     1
102
RTVSPost2010Prop51ColorIndex
 90
      256
102
RTVSPost2010Prop51ColorRGB
 90
-16777216
102
RTVSPost2010PropOp51
 70
     0
102
RTVSPost2010Prop52
140
1.0
102
RTVSPost2010PropOp52
 70
     0
102
RTVSPost2010Prop53
 90
        2
102
RTVSPost2010PropOp53
 70
     1
102
RTVSPost2010Prop54
  1
strokes_ogs.tif
102
RTVSPost2010PropOp54
 70
     1
102
RTVSPost2010Prop55
280
     0
102
RTVSPost2010PropOp55
 70
     1
102
RTVSPost2010Prop56
140
1.0
102
RTVSPost2010PropOp56
 70
     1
102
RTVSPost2010Prop57
140
1.0
102
RTVSPost2010PropOp57
 70
     1
  0
XRECORD
  5
396
102
{ACAD_REACTORS
330
395
102
}
330
395
100
AcDbXrecord
280
     1
102
RTVSPropertyOp0
 70
     1
102
RTVSPropertyOp1
 70
     1
102
RTVSPropertyOp2
 70
     1
102
RTVSPropertyOp3
 70
     1
102
RTVSPropertyOp4
 70
     1
102
RTVSPropertyOp5
 70
     1
102
RTVSPropertyOp6
 70
     1
102
RTVSPropertyOp7
 70
     1
102
RTVSPropertyOp8
 70
     1
102
RTVSPropertyOp9
 70
     1
102
RTVSPropertyOp10
 70
     1
102
RTVSPropertyOp11
 70
     1
102
RTVSPropertyOp12
 70
     1
102
RTVSPropertyOp13
 70
     1
102
RTVSPropertyOp14
 70
     1
102
RTVSPropertyOp15
 70
     1
102
RTVSPropertyOp16
 70
     1
102
RTVSPropertyOp17
 70
     1
102
RTVSPropertyOp18
 70
     1
102
RTVSPropertyOp19
 70
     1
102
RTVSPropertyOp20
 70
     1
102
RTVSPropertyOp21
 70
     1
102
RTVSPropertyOp22
 70
     1
102
RTVSPropertyOp23
 70
     1
102
RTVSPropertyOp24
 70
     1
102
RTVSPropertyOp25
 70
     1
102
RTVSPropertyOp26
 70
     1
102
RTVSPropertyOp27
 70
     1
102
RTVSPropertyOp28
 70
     1
102
RTVSPropertyOp29
 70
     1
102
RTVSPropertyOp30
 70
     1
102
RTVSPropertyOp31
 70
     1
102
RTVSPropertyOp32
 70
     1
102
RTVSPropertyOp33
 70
     1
102
RTVSPropertyOp34
 70
     1
102
RTVSPropertyOp35
 70
     1
102
RTVSPropertyOp36
 70
     1
102
RTVSPropertyOp37
 70
     1
102
RTVSPropertyOp38
 70
     1
102
RTVSPropertyOp39
 70
     1
102
RTVSPropertyOp40
 70
     1
102
RTVSPropertyOp41
 70
     1
102
RTVSPropertyOp42
 70
     1
102
RTVSPropertyOp43
 70
     1
102
RTVSPropertyOp44
 70
     1
102
RTVSPropertyOp45
 70
     1
102
RTVSPropertyOp46
 70
     1
102
RTVSPropertyOp47
 70
     1
102
RTVSPropertyOp48
 70
     1
102
RTVSPropertyOp49
 70
     1
102
RTVSPropertyOp50
 70
     1
102
RTVSPropertyOp51
 70
     0
102
RTVSPropertyOp52
 70
     0
102
RTVSPropertyOp53
 70
     1
102
RTVSPropertyOp54
 70
     1
102
RTVSPropertyOp55
 70
     1
102
RTVSPropertyOp56
 70
     1
102
RTVSPropertyOp57
 70
     1
102
RTVSPost2010Prop28
280
     0
102
RTVSPost2010PropOp28
 70
     1
102
RTVSPost2010Prop29
280
     1
102
RTVSPost2010PropOp29
 70
     1
102
RTVSPost2010Prop30
280
     1
102
RTVSPost2010PropOp30
 70
     1
102
RTVSPost2010Prop31
280
     0
102
RTVSPost2010PropOp31
 70
     1
102
RTVSPost2010Prop32
280
     0
102
RTVSPost2010PropOp32
 70
     1
102
RTVSPost2010Prop33
280
     0
102
RTVSPost2010PropOp33
 70
     1
102
RTVSPost2010Prop34
280
     0
102
RTVSPost2010PropOp34
 70
     1
102
RTVSPost2010Prop35
280
     0
102
RTVSPost2010PropOp35
 70
     1
102
RTVSPost2010Prop36
280
     0
102
RTVSPost2010PropOp36
 70
     1
102
RTVSPost2010Prop37
 90
       50
102
RTVSPost2010PropOp37
 70
     1
102
RTVSPost2010Prop38
140
0.0
102
RTVSPost2010PropOp38
 70
     1
102
RTVSPost2010Prop39
140
1.0
102
RTVSPost2010PropOp39
 70
     1
102
RTVSPost2010Prop40
 90
        0
102
RTVSPost2010PropOp40
 70
     1
102
RTVSPost2010Prop41ColorIndex
 90
       18
102
RTVSPost2010Prop41ColorRGB
 90
        0
102
RTVSPost2010PropOp41
 70
     1
102
RTVSPost2010Prop42
 90
       50
102
RTVSPost2010PropOp42
 70
     1
102
RTVSPost2010Prop43
 90
        3
102
RTVSPost2010PropOp43
 70
     1
102
RTVSPost2010Prop44ColorIndex
 90
        5
102
RTVSPost2010Prop44ColorRGB
 90
      255
102
RTVSPost2010PropOp44
 70
     1
102
RTVSPost2010Prop45
280
     0
102
RTVSPost2010PropOp45
 70
     1
102
RTVSPost2010Prop46
 90
       50
102
RTVSPost2010PropOp46
 70
     1
102
RTVSPost2010Prop47
 90
       50
102
RTVSPost2010PropOp47
 70
     1
102
RTVSPost2010Prop48
 90
       50
102
RTVSPost2010PropOp48
 70
     1
102
RTVSPost2010Prop49
280
     0
102
RTVSPost2010PropOp49
 70
     1
102
RTVSPost2010Prop50
 90
       50
102
RTVSPost2010PropOp50
 70
     1
102
RTVSPost2010Prop51ColorIndex
 90
      256
102
RTVSPost2010Prop51ColorRGB
 90
-16777216
102
RTVSPost2010PropOp51
 70
     0
102
RTVSPost2010Prop52
140
1.0
102
RTVSPost2010PropOp52
 70
     0
102
RTVSPost2010Prop53
 90
        2
102
RTVSPost2010PropOp53
 70
     1
102
RTVSPost2010Prop54
  1
strokes_ogs.tif
102
RTVSPost2010PropOp54
 70
     1
102
RTVSPost2010Prop55
280
     0
102
RTVSPost2010PropOp55
 70
     1
102
RTVSPost2010Prop56
140
1.0
102
RTVSPost2010PropOp56
 70
     1
102
RTVSPost2010Prop57
140
1.0
102
RTVSPost2010PropOp57
 70
     1
  0
XRECORD
  5
39C
102
{ACAD_REACTORS
330
39B
102
}
330
39B
100
AcDbXrecord
280
     1
102
RTVSPropertyOp0
 70
     1
102
RTVSPropertyOp1
 70
     1
102
RTVSPropertyOp2
 70
     1
102
RTVSPropertyOp3
 70
     1
102
RTVSPropertyOp4
 70
     1
102
RTVSPropertyOp5
 70
     1
102
RTVSPropertyOp6
 70
     1
102
RTVSPropertyOp7
 70
     1
102
RTVSPropertyOp8
 70
     1
102
RTVSPropertyOp9
 70
     1
102
RTVSPropertyOp10
 70
     1
102
RTVSPropertyOp11
 70
     1
102
RTVSPropertyOp12
 70
     1
102
RTVSPropertyOp13
 70
     1
102
RTVSPropertyOp14
 70
     1
102
RTVSPropertyOp15
 70
     1
102
RTVSPropertyOp16
 70
     1
102
RTVSPropertyOp17
 70
     1
102
RTVSPropertyOp18
 70
     1
102
RTVSPropertyOp19
 70
     1
102
RTVSPropertyOp20
 70
     1
102
RTVSPropertyOp21
 70
     1
102
RTVSPropertyOp22
 70
     1
102
RTVSPropertyOp23
 70
     1
102
RTVSPropertyOp24
 70
     1
102
RTVSPropertyOp25
 70
     1
102
RTVSPropertyOp26
 70
     1
102
RTVSPropertyOp27
 70
     1
102
RTVSPropertyOp28
 70
     1
102
RTVSPropertyOp29
 70
     1
102
RTVSPropertyOp30
 70
     1
102
RTVSPropertyOp31
 70
     1
102
RTVSPropertyOp32
 70
     1
102
RTVSPropertyOp33
 70
     1
102
RTVSPropertyOp34
 70
     1
102
RTVSPropertyOp35
 70
     1
102
RTVSPropertyOp36
 70
     1
102
RTVSPropertyOp37
 70
     1
102
RTVSPropertyOp38
 70
     1
102
RTVSPropertyOp39
 70
     1
102
RTVSPropertyOp40
 70
     1
102
RTVSPropertyOp41
 70
     1
102
RTVSPropertyOp42
 70
     1
102
RTVSPropertyOp43
 70
     1
102
RTVSPropertyOp44
 70
     1
102
RTVSPropertyOp45
 70
     1
102
RTVSPropertyOp46
 70
     1
102
RTVSPropertyOp47
 70
     1
102
RTVSPropertyOp48
 70
     1
102
RTVSPropertyOp49
 70
     1
102
RTVSPropertyOp50
 70
     1
102
RTVSPropertyOp51
 70
     0
102
RTVSPropertyOp52
 70
     0
102
RTVSPropertyOp53
 70
     1
102
RTVSPropertyOp54
 70
     1
102
RTVSPropertyOp55
 70
     1
102
RTVSPropertyOp56
 70
     1
102
RTVSPropertyOp57
 70
     1
102
RTVSPost2010Prop28
280
     0
102
RTVSPost2010PropOp28
 70
     1
102
RTVSPost2010Prop29
280
     1
102
RTVSPost2010PropOp29
 70
     1
102
RTVSPost2010Prop30
280
     1
102
RTVSPost2010PropOp30
 70
     1
102
RTVSPost2010Prop31
280
     0
102
RTVSPost2010PropOp31
 70
     1
102
RTVSPost2010Prop32
280
     0
102
RTVSPost2010PropOp32
 70
     1
102
RTVSPost2010Prop33
280
     0
102
RTVSPost2010PropOp33
 70
     1
102
RTVSPost2010Prop34
280
     0
102
RTVSPost2010PropOp34
 70
     1
102
RTVSPost2010Prop35
280
     0
102
RTVSPost2010PropOp35
 70
     1
102
RTVSPost2010Prop36
280
     0
102
RTVSPost2010PropOp36
 70
     1
102
RTVSPost2010Prop37
 90
       50
102
RTVSPost2010PropOp37
 70
     1
102
RTVSPost2010Prop38
140
0.0
102
RTVSPost2010PropOp38
 70
     1
102
RTVSPost2010Prop39
140
1.0
102
RTVSPost2010PropOp39
 70
     1
102
RTVSPost2010Prop40
 90
        0
102
RTVSPost2010PropOp40
 70
     1
102
RTVSPost2010Prop41ColorIndex
 90
       18
102
RTVSPost2010Prop41ColorRGB
 90
        0
102
RTVSPost2010PropOp41
 70
     1
102
RTVSPost2010Prop42
 90
       50
102
RTVSPost2010PropOp42
 70
     1
102
RTVSPost2010Prop43
 90
        3
102
RTVSPost2010PropOp43
 70
     1
102
RTVSPost2010Prop44ColorIndex
 90
        5
102
RTVSPost2010Prop44ColorRGB
 90
      255
102
RTVSPost2010PropOp44
 70
     1
102
RTVSPost2010Prop45
280
     0
102
RTVSPost2010PropOp45
 70
     1
102
RTVSPost2010Prop46
 90
       50
102
RTVSPost2010PropOp46
 70
     1
102
RTVSPost2010Prop47
 90
       50
102
RTVSPost2010PropOp47
 70
     1
102
RTVSPost2010Prop48
 90
       50
102
RTVSPost2010PropOp48
 70
     1
102
RTVSPost2010Prop49
280
     0
102
RTVSPost2010PropOp49
 70
     1
102
RTVSPost2010Prop50
 90
       50
102
RTVSPost2010PropOp50
 70
     1
102
RTVSPost2010Prop51ColorIndex
 90
      256
102
RTVSPost2010Prop51ColorRGB
 90
-16777216
102
RTVSPost2010PropOp51
 70
     0
102
RTVSPost2010Prop52
140
1.0
102
RTVSPost2010PropOp52
 70
     0
102
RTVSPost2010Prop53
 90
        2
102
RTVSPost2010PropOp53
 70
     1
102
RTVSPost2010Prop54
  1
strokes_ogs.tif
102
RTVSPost2010PropOp54
 70
     1
102
RTVSPost2010Prop55
280
     0
102
RTVSPost2010PropOp55
 70
     1
102
RTVSPost2010Prop56
140
1.0
102
RTVSPost2010PropOp56
 70
     1
102
RTVSPost2010Prop57
140
1.0
102
RTVSPost2010PropOp57
 70
     1
  0
XRECORD
  5
3B0
102
{ACAD_REACTORS
330
3AF
102
}
330
3AF
100
AcDbXrecord
280
     1
102
RTVSPropertyOp0
 70
     0
102
RTVSPropertyOp1
 70
     0
102
RTVSPropertyOp2
 70
     0
102
RTVSPropertyOp3
 70
     0
102
RTVSPropertyOp4
 70
     0
102
RTVSPropertyOp5
 70
     0
102
RTVSPropertyOp6
 70
     0
102
RTVSPropertyOp7
 70
     0
102
RTVSPropertyOp8
 70
     0
102
RTVSPropertyOp9
 70
     0
102
RTVSPropertyOp10
 70
     0
102
RTVSPropertyOp11
 70
     0
102
RTVSPropertyOp12
 70
     0
102
RTVSPropertyOp13
 70
     0
102
RTVSPropertyOp14
 70
     2
102
RTVSPropertyOp15
 70
     0
102
RTVSPropertyOp16
 70
     0
102
RTVSPropertyOp17
 70
     0
102
RTVSPropertyOp18
 70
     0
102
RTVSPropertyOp19
 70
     0
102
RTVSPropertyOp20
 70
     0
102
RTVSPropertyOp21
 70
     0
102
RTVSPropertyOp22
 70
     0
102
RTVSPropertyOp23
 70
     0
102
RTVSPropertyOp24
 70
     0
102
RTVSPropertyOp25
 70
     0
102
RTVSPropertyOp26
 70
     0
102
RTVSPropertyOp27
 70
     0
102
RTVSPropertyOp28
 70
     0
102
RTVSPropertyOp29
 70
     0
102
RTVSPropertyOp30
 70
     0
102
RTVSPropertyOp31
 70
     0
102
RTVSPropertyOp32
 70
     0
102
RTVSPropertyOp33
 70
     0
102
RTVSPropertyOp34
 70
     0
102
RTVSPropertyOp35
 70
     0
102
RTVSPropertyOp36
 70
     0
102
RTVSPropertyOp37
 70
     0
102
RTVSPropertyOp38
 70
     0
102
RTVSPropertyOp39
 70
     0
102
RTVSPropertyOp40
 70
     0
102
RTVSPropertyOp41
 70
     0
102
RTVSPropertyOp42
 70
     0
102
RTVSPropertyOp43
 70
     0
102
RTVSPropertyOp44
 70
     0
102
RTVSPropertyOp45
 70
     0
102
RTVSPropertyOp46
 70
     0
102
RTVSPropertyOp47
 70
     0
102
RTVSPropertyOp48
 70
     0
102
RTVSPropertyOp49
 70
     0
102
RTVSPropertyOp50
 70
     0
102
RTVSPropertyOp51
 70
     0
102
RTVSPropertyOp52
 70
     0
102
RTVSPropertyOp53
 70
     0
102
RTVSPropertyOp54
 70
     0
102
RTVSPropertyOp55
 70
     0
102
RTVSPropertyOp56
 70
     0
102
RTVSPropertyOp57
 70
     0
102
RTVSPost2010Prop28
280
     0
102
RTVSPost2010PropOp28
 70
     0
102
RTVSPost2010Prop29
280
     1
102
RTVSPost2010PropOp29
 70
     0
102
RTVSPost2010Prop30
280
     1
102
RTVSPost2010PropOp30
 70
     0
102
RTVSPost2010Prop31
280
     0
102
RTVSPost2010PropOp31
 70
     0
102
RTVSPost2010Prop32
280
     0
102
RTVSPost2010PropOp32
 70
     0
102
RTVSPost2010Prop33
280
     0
102
RTVSPost2010PropOp33
 70
     0
102
RTVSPost2010Prop34
280
     0
102
RTVSPost2010PropOp34
 70
     0
102
RTVSPost2010Prop35
280
     0
102
RTVSPost2010PropOp35
 70
     0
102
RTVSPost2010Prop36
280
     0
102
RTVSPost2010PropOp36
 70
     0
102
RTVSPost2010Prop37
 90
       50
102
RTVSPost2010PropOp37
 70
     0
102
RTVSPost2010Prop38
140
0.0
102
RTVSPost2010PropOp38
 70
     0
102
RTVSPost2010Prop39
140
1.0
102
RTVSPost2010PropOp39
 70
     0
102
RTVSPost2010Prop40
 90
        0
102
RTVSPost2010PropOp40
 70
     0
102
RTVSPost2010Prop41ColorIndex
 90
       18
102
RTVSPost2010Prop41ColorRGB
 90
        0
102
RTVSPost2010PropOp41
 70
     0
102
RTVSPost2010Prop42
 90
       50
102
RTVSPost2010PropOp42
 70
     0
102
RTVSPost2010Prop43
 90
        3
102
RTVSPost2010PropOp43
 70
     0
102
RTVSPost2010Prop44ColorIndex
 90
        5
102
RTVSPost2010Prop44ColorRGB
 90
      255
102
RTVSPost2010PropOp44
 70
     0
102
RTVSPost2010Prop45
280
     0
102
RTVSPost2010PropOp45
 70
     0
102
RTVSPost2010Prop46
 90
       50
102
RTVSPost2010PropOp46
 70
     0
102
RTVSPost2010Prop47
 90
       50
102
RTVSPost2010PropOp47
 70
     0
102
RTVSPost2010Prop48
 90
       50
102
RTVSPost2010PropOp48
 70
     0
102
RTVSPost2010Prop49
280
     0
102
RTVSPost2010PropOp49
 70
     0
102
RTVSPost2010Prop50
 90
       50
102
RTVSPost2010PropOp50
 70
     0
102
RTVSPost2010Prop51ColorIndex
 90
      256
102
RTVSPost2010Prop51ColorRGB
 90
-16777216
102
RTVSPost2010PropOp51
 70
     0
102
RTVSPost2010Prop52
140
1.0
102
RTVSPost2010PropOp52
 70
     0
102
RTVSPost2010Prop53
 90
        2
102
RTVSPost2010PropOp53
 70
     0
102
RTVSPost2010Prop54
  1
strokes_ogs.tif
102
RTVSPost2010PropOp54
 70
     0
102
RTVSPost2010Prop55
280
     0
102
RTVSPost2010PropOp55
 70
     0
102
RTVSPost2010Prop56
140
1.0
102
RTVSPost2010PropOp56
 70
     0
102
RTVSPost2010Prop57
140
1.0
102
RTVSPost2010PropOp57
 70
     0
  0
XRECORD
  5
3AA
102
{ACAD_REACTORS
330
3A9
102
}
330
3A9
100
AcDbXrecord
280
     1
102
RTVSPropertyOp0
 70
     1
102
RTVSPropertyOp1
 70
     1
102
RTVSPropertyOp2
 70
     1
102
RTVSPropertyOp3
 70
     1
102
RTVSPropertyOp4
 70
     1
102
RTVSPropertyOp5
 70
     1
102
RTVSPropertyOp6
 70
     1
102
RTVSPropertyOp7
 70
     1
102
RTVSPropertyOp8
 70
     1
102
RTVSPropertyOp9
 70
     1
102
RTVSPropertyOp10
 70
     1
102
RTVSPropertyOp11
 70
     1
102
RTVSPropertyOp12
 70
     1
102
RTVSPropertyOp13
 70
     1
102
RTVSPropertyOp14
 70
     1
102
RTVSPropertyOp15
 70
     1
102
RTVSPropertyOp16
 70
     1
102
RTVSPropertyOp17
 70
     1
102
RTVSPropertyOp18
 70
     1
102
RTVSPropertyOp19
 70
     1
102
RTVSPropertyOp20
 70
     1
102
RTVSPropertyOp21
 70
     1
102
RTVSPropertyOp22
 70
     1
102
RTVSPropertyOp23
 70
     1
102
RTVSPropertyOp24
 70
     1
102
RTVSPropertyOp25
 70
     1
102
RTVSPropertyOp26
 70
     1
102
RTVSPropertyOp27
 70
     1
102
RTVSPropertyOp28
 70
     1
102
RTVSPropertyOp29
 70
     1
102
RTVSPropertyOp30
 70
     1
102
RTVSPropertyOp31
 70
     1
102
RTVSPropertyOp32
 70
     1
102
RTVSPropertyOp33
 70
     1
102
RTVSPropertyOp34
 70
     1
102
RTVSPropertyOp35
 70
     1
102
RTVSPropertyOp36
 70
     1
102
RTVSPropertyOp37
 70
     1
102
RTVSPropertyOp38
 70
     1
102
RTVSPropertyOp39
 70
     1
102
RTVSPropertyOp40
 70
     1
102
RTVSPropertyOp41
 70
     1
102
RTVSPropertyOp42
 70
     1
102
RTVSPropertyOp43
 70
     1
102
RTVSPropertyOp44
 70
     1
102
RTVSPropertyOp45
 70
     1
102
RTVSPropertyOp46
 70
     1
102
RTVSPropertyOp47
 70
     1
102
RTVSPropertyOp48
 70
     1
102
RTVSPropertyOp49
 70
     1
102
RTVSPropertyOp50
 70
     1
102
RTVSPropertyOp51
 70
     0
102
RTVSPropertyOp52
 70
     0
102
RTVSPropertyOp53
 70
     1
102
RTVSPropertyOp54
 70
     1
102
RTVSPropertyOp55
 70
     1
102
RTVSPropertyOp56
 70
     1
102
RTVSPropertyOp57
 70
     1
102
RTVSPost2010Prop28
280
     0
102
RTVSPost2010PropOp28
 70
     1
102
RTVSPost2010Prop29
280
     1
102
RTVSPost2010PropOp29
 70
     1
102
RTVSPost2010Prop30
280
     1
102
RTVSPost2010PropOp30
 70
     1
102
RTVSPost2010Prop31
280
     0
102
RTVSPost2010PropOp31
 70
     1
102
RTVSPost2010Prop32
280
     0
102
RTVSPost2010PropOp32
 70
     1
102
RTVSPost2010Prop33
280
     0
102
RTVSPost2010PropOp33
 70
     1
102
RTVSPost2010Prop34
280
     0
102
RTVSPost2010PropOp34
 70
     1
102
RTVSPost2010Prop35
280
     0
102
RTVSPost2010PropOp35
 70
     1
102
RTVSPost2010Prop36
280
     0
102
RTVSPost2010PropOp36
 70
     1
102
RTVSPost2010Prop37
 90
       50
102
RTVSPost2010PropOp37
 70
     1
102
RTVSPost2010Prop38
140
0.0
102
RTVSPost2010PropOp38
 70
     1
102
RTVSPost2010Prop39
140
1.0
102
RTVSPost2010PropOp39
 70
     1
102
RTVSPost2010Prop40
 90
        0
102
RTVSPost2010PropOp40
 70
     1
102
RTVSPost2010Prop41ColorIndex
 90
       18
102
RTVSPost2010Prop41ColorRGB
 90
        0
102
RTVSPost2010PropOp41
 70
     1
102
RTVSPost2010Prop42
 90
       50
102
RTVSPost2010PropOp42
 70
     1
102
RTVSPost2010Prop43
 90
        3
102
RTVSPost2010PropOp43
 70
     1
102
RTVSPost2010Prop44ColorIndex
 90
        5
102
RTVSPost2010Prop44ColorRGB
 90
      255
102
RTVSPost2010PropOp44
 70
     1
102
RTVSPost2010Prop45
280
     0
102
RTVSPost2010PropOp45
 70
     1
102
RTVSPost2010Prop46
 90
       50
102
RTVSPost2010PropOp46
 70
     1
102
RTVSPost2010Prop47
 90
       50
102
RTVSPost2010PropOp47
 70
     1
102
RTVSPost2010Prop48
 90
       50
102
RTVSPost2010PropOp48
 70
     1
102
RTVSPost2010Prop49
280
     0
102
RTVSPost2010PropOp49
 70
     1
102
RTVSPost2010Prop50
 90
       50
102
RTVSPost2010PropOp50
 70
     1
102
RTVSPost2010Prop51ColorIndex
 90
      256
102
RTVSPost2010Prop51ColorRGB
 90
-16777216
102
RTVSPost2010PropOp51
 70
     0
102
RTVSPost2010Prop52
140
1.0
102
RTVSPost2010PropOp52
 70
     0
102
RTVSPost2010Prop53
 90
        2
102
RTVSPost2010PropOp53
 70
     1
102
RTVSPost2010Prop54
  1
strokes_ogs.tif
102
RTVSPost2010PropOp54
 70
     1
102
RTVSPost2010Prop55
280
     0
102
RTVSPost2010PropOp55
 70
     1
102
RTVSPost2010Prop56
140
1.0
102
RTVSPost2010PropOp56
 70
     1
102
RTVSPost2010Prop57
140
1.0
102
RTVSPost2010PropOp57
 70
     1
  0
XRECORD
  5
3B2
102
{ACAD_REACTORS
330
3B1
102
}
330
3B1
100
AcDbXrecord
280
     1
102
RTVSPropertyOp0
 70
     0
102
RTVSPropertyOp1
 70
     0
102
RTVSPropertyOp2
 70
     0
102
RTVSPropertyOp3
 70
     0
102
RTVSPropertyOp4
 70
     0
102
RTVSPropertyOp5
 70
     0
102
RTVSPropertyOp6
 70
     0
102
RTVSPropertyOp7
 70
     0
102
RTVSPropertyOp8
 70
     0
102
RTVSPropertyOp9
 70
     0
102
RTVSPropertyOp10
 70
     0
102
RTVSPropertyOp11
 70
     0
102
RTVSPropertyOp12
 70
     0
102
RTVSPropertyOp13
 70
     0
102
RTVSPropertyOp14
 70
     2
102
RTVSPropertyOp15
 70
     0
102
RTVSPropertyOp16
 70
     0
102
RTVSPropertyOp17
 70
     0
102
RTVSPropertyOp18
 70
     0
102
RTVSPropertyOp19
 70
     0
102
RTVSPropertyOp20
 70
     0
102
RTVSPropertyOp21
 70
     0
102
RTVSPropertyOp22
 70
     0
102
RTVSPropertyOp23
 70
     0
102
RTVSPropertyOp24
 70
     0
102
RTVSPropertyOp25
 70
     0
102
RTVSPropertyOp26
 70
     0
102
RTVSPropertyOp27
 70
     0
102
RTVSPropertyOp28
 70
     0
102
RTVSPropertyOp29
 70
     0
102
RTVSPropertyOp30
 70
     0
102
RTVSPropertyOp31
 70
     0
102
RTVSPropertyOp32
 70
     0
102
RTVSPropertyOp33
 70
     0
102
RTVSPropertyOp34
 70
     0
102
RTVSPropertyOp35
 70
     0
102
RTVSPropertyOp36
 70
     0
102
RTVSPropertyOp37
 70
     0
102
RTVSPropertyOp38
 70
     0
102
RTVSPropertyOp39
 70
     0
102
RTVSPropertyOp40
 70
     0
102
RTVSPropertyOp41
 70
     0
102
RTVSPropertyOp42
 70
     0
102
RTVSPropertyOp43
 70
     0
102
RTVSPropertyOp44
 70
     0
102
RTVSPropertyOp45
 70
     0
102
RTVSPropertyOp46
 70
     0
102
RTVSPropertyOp47
 70
     0
102
RTVSPropertyOp48
 70
     0
102
RTVSPropertyOp49
 70
     0
102
RTVSPropertyOp50
 70
     0
102
RTVSPropertyOp51
 70
     0
102
RTVSPropertyOp52
 70
     0
102
RTVSPropertyOp53
 70
     0
102
RTVSPropertyOp54
 70
     0
102
RTVSPropertyOp55
 70
     0
102
RTVSPropertyOp56
 70
     0
102
RTVSPropertyOp57
 70
     0
102
RTVSPost2010Prop28
280
     0
102
RTVSPost2010PropOp28
 70
     0
102
RTVSPost2010Prop29
280
     1
102
RTVSPost2010PropOp29
 70
     0
102
RTVSPost2010Prop30
280
     1
102
RTVSPost2010PropOp30
 70
     0
102
RTVSPost2010Prop31
280
     0
102
RTVSPost2010PropOp31
 70
     0
102
RTVSPost2010Prop32
280
     0
102
RTVSPost2010PropOp32
 70
     0
102
RTVSPost2010Prop33
280
     0
102
RTVSPost2010PropOp33
 70
     0
102
RTVSPost2010Prop34
280
     0
102
RTVSPost2010PropOp34
 70
     0
102
RTVSPost2010Prop35
280
     0
102
RTVSPost2010PropOp35
 70
     0
102
RTVSPost2010Prop36
280
     0
102
RTVSPost2010PropOp36
 70
     0
102
RTVSPost2010Prop37
 90
       50
102
RTVSPost2010PropOp37
 70
     0
102
RTVSPost2010Prop38
140
0.0
102
RTVSPost2010PropOp38
 70
     0
102
RTVSPost2010Prop39
140
1.0
102
RTVSPost2010PropOp39
 70
     0
102
RTVSPost2010Prop40
 90
        0
102
RTVSPost2010PropOp40
 70
     0
102
RTVSPost2010Prop41ColorIndex
 90
       18
102
RTVSPost2010Prop41ColorRGB
 90
        0
102
RTVSPost2010PropOp41
 70
     0
102
RTVSPost2010Prop42
 90
       50
102
RTVSPost2010PropOp42
 70
     0
102
RTVSPost2010Prop43
 90
        3
102
RTVSPost2010PropOp43
 70
     0
102
RTVSPost2010Prop44ColorIndex
 90
        5
102
RTVSPost2010Prop44ColorRGB
 90
      255
102
RTVSPost2010PropOp44
 70
     0
102
RTVSPost2010Prop45
280
     0
102
RTVSPost2010PropOp45
 70
     0
102
RTVSPost2010Prop46
 90
       50
102
RTVSPost2010PropOp46
 70
     0
102
RTVSPost2010Prop47
 90
       50
102
RTVSPost2010PropOp47
 70
     0
102
RTVSPost2010Prop48
 90
       50
102
RTVSPost2010PropOp48
 70
     0
102
RTVSPost2010Prop49
280
     0
102
RTVSPost2010PropOp49
 70
     0
102
RTVSPost2010Prop50
 90
       50
102
RTVSPost2010PropOp50
 70
     0
102
RTVSPost2010Prop51ColorIndex
 90
      256
102
RTVSPost2010Prop51ColorRGB
 90
-16777216
102
RTVSPost2010PropOp51
 70
     0
102
RTVSPost2010Prop52
140
1.0
102
RTVSPost2010PropOp52
 70
     0
102
RTVSPost2010Prop53
 90
        2
102
RTVSPost2010PropOp53
 70
     0
102
RTVSPost2010Prop54
  1
strokes_ogs.tif
102
RTVSPost2010PropOp54
 70
     0
102
RTVSPost2010Prop55
280
     0
102
RTVSPost2010PropOp55
 70
     0
102
RTVSPost2010Prop56
140
1.0
102
RTVSPost2010PropOp56
 70
     0
102
RTVSPost2010Prop57
140
1.0
102
RTVSPost2010PropOp57
 70
     0
  0
XRECORD
  5
3A0
102
{ACAD_REACTORS
330
39F
102
}
330
39F
100
AcDbXrecord
280
     1
102
RTVSPropertyOp0
 70
     1
102
RTVSPropertyOp1
 70
     1
102
RTVSPropertyOp2
 70
     1
102
RTVSPropertyOp3
 70
     1
102
RTVSPropertyOp4
 70
     1
102
RTVSPropertyOp5
 70
     1
102
RTVSPropertyOp6
 70
     1
102
RTVSPropertyOp7
 70
     1
102
RTVSPropertyOp8
 70
     1
102
RTVSPropertyOp9
 70
     1
102
RTVSPropertyOp10
 70
     1
102
RTVSPropertyOp11
 70
     1
102
RTVSPropertyOp12
 70
     1
102
RTVSPropertyOp13
 70
     1
102
RTVSPropertyOp14
 70
     1
102
RTVSPropertyOp15
 70
     1
102
RTVSPropertyOp16
 70
     1
102
RTVSPropertyOp17
 70
     1
102
RTVSPropertyOp18
 70
     1
102
RTVSPropertyOp19
 70
     1
102
RTVSPropertyOp20
 70
     1
102
RTVSPropertyOp21
 70
     1
102
RTVSPropertyOp22
 70
     1
102
RTVSPropertyOp23
 70
     1
102
RTVSPropertyOp24
 70
     1
102
RTVSPropertyOp25
 70
     1
102
RTVSPropertyOp26
 70
     1
102
RTVSPropertyOp27
 70
     1
102
RTVSPropertyOp28
 70
     1
102
RTVSPropertyOp29
 70
     1
102
RTVSPropertyOp30
 70
     1
102
RTVSPropertyOp31
 70
     1
102
RTVSPropertyOp32
 70
     1
102
RTVSPropertyOp33
 70
     1
102
RTVSPropertyOp34
 70
     1
102
RTVSPropertyOp35
 70
     1
102
RTVSPropertyOp36
 70
     1
102
RTVSPropertyOp37
 70
     1
102
RTVSPropertyOp38
 70
     1
102
RTVSPropertyOp39
 70
     1
102
RTVSPropertyOp40
 70
     1
102
RTVSPropertyOp41
 70
     1
102
RTVSPropertyOp42
 70
     1
102
RTVSPropertyOp43
 70
     1
102
RTVSPropertyOp44
 70
     1
102
RTVSPropertyOp45
 70
     1
102
RTVSPropertyOp46
 70
     1
102
RTVSPropertyOp47
 70
     1
102
RTVSPropertyOp48
 70
     1
102
RTVSPropertyOp49
 70
     1
102
RTVSPropertyOp50
 70
     1
102
RTVSPropertyOp51
 70
     0
102
RTVSPropertyOp52
 70
     0
102
RTVSPropertyOp53
 70
     1
102
RTVSPropertyOp54
 70
     1
102
RTVSPropertyOp55
 70
     1
102
RTVSPropertyOp56
 70
     1
102
RTVSPropertyOp57
 70
     1
102
RTVSPost2010Prop28
280
     0
102
RTVSPost2010PropOp28
 70
     1
102
RTVSPost2010Prop29
280
     1
102
RTVSPost2010PropOp29
 70
     1
102
RTVSPost2010Prop30
280
     1
102
RTVSPost2010PropOp30
 70
     1
102
RTVSPost2010Prop31
280
     0
102
RTVSPost2010PropOp31
 70
     1
102
RTVSPost2010Prop32
280
     0
102
RTVSPost2010PropOp32
 70
     1
102
RTVSPost2010Prop33
280
     0
102
RTVSPost2010PropOp33
 70
     1
102
RTVSPost2010Prop34
280
     0
102
RTVSPost2010PropOp34
 70
     1
102
RTVSPost2010Prop35
280
     0
102
RTVSPost2010PropOp35
 70
     1
102
RTVSPost2010Prop36
280
     0
102
RTVSPost2010PropOp36
 70
     1
102
RTVSPost2010Prop37
 90
       50
102
RTVSPost2010PropOp37
 70
     1
102
RTVSPost2010Prop38
140
0.0
102
RTVSPost2010PropOp38
 70
     1
102
RTVSPost2010Prop39
140
1.0
102
RTVSPost2010PropOp39
 70
     1
102
RTVSPost2010Prop40
 90
        0
102
RTVSPost2010PropOp40
 70
     1
102
RTVSPost2010Prop41ColorIndex
 90
       18
102
RTVSPost2010Prop41ColorRGB
 90
        0
102
RTVSPost2010PropOp41
 70
     1
102
RTVSPost2010Prop42
 90
       50
102
RTVSPost2010PropOp42
 70
     1
102
RTVSPost2010Prop43
 90
        3
102
RTVSPost2010PropOp43
 70
     1
102
RTVSPost2010Prop44ColorIndex
 90
        5
102
RTVSPost2010Prop44ColorRGB
 90
      255
102
RTVSPost2010PropOp44
 70
     1
102
RTVSPost2010Prop45
280
     0
102
RTVSPost2010PropOp45
 70
     1
102
RTVSPost2010Prop46
 90
       50
102
RTVSPost2010PropOp46
 70
     1
102
RTVSPost2010Prop47
 90
       50
102
RTVSPost2010PropOp47
 70
     1
102
RTVSPost2010Prop48
 90
       50
102
RTVSPost2010PropOp48
 70
     1
102
RTVSPost2010Prop49
280
     0
102
RTVSPost2010PropOp49
 70
     1
102
RTVSPost2010Prop50
 90
       50
102
RTVSPost2010PropOp50
 70
     1
102
RTVSPost2010Prop51ColorIndex
 90
      256
102
RTVSPost2010Prop51ColorRGB
 90
-16777216
102
RTVSPost2010PropOp51
 70
     0
102
RTVSPost2010Prop52
140
1.0
102
RTVSPost2010PropOp52
 70
     0
102
RTVSPost2010Prop53
 90
        2
102
RTVSPost2010PropOp53
 70
     1
102
RTVSPost2010Prop54
  1
strokes_ogs.tif
102
RTVSPost2010PropOp54
 70
     1
102
RTVSPost2010Prop55
280
     0
102
RTVSPost2010PropOp55
 70
     1
102
RTVSPost2010Prop56
140
1.0
102
RTVSPost2010PropOp56
 70
     1
102
RTVSPost2010Prop57
140
1.0
102
RTVSPost2010PropOp57
 70
     1
  0
XRECORD
  5
3BE
102
{ACAD_REACTORS
330
3BD
102
}
330
3BD
100
AcDbXrecord
280
     1
102
RTVSPropertyOp0
 70
     1
102
RTVSPropertyOp1
 70
     1
102
RTVSPropertyOp2
 70
     1
102
RTVSPropertyOp3
 70
     1
102
RTVSPropertyOp4
 70
     1
102
RTVSPropertyOp5
 70
     1
102
RTVSPropertyOp6
 70
     1
102
RTVSPropertyOp7
 70
     1
102
RTVSPropertyOp8
 70
     1
102
RTVSPropertyOp9
 70
     1
102
RTVSPropertyOp10
 70
     1
102
RTVSPropertyOp11
 70
     1
102
RTVSPropertyOp12
 70
     1
102
RTVSPropertyOp13
 70
     1
102
RTVSPropertyOp14
 70
     1
102
RTVSPropertyOp15
 70
     1
102
RTVSPropertyOp16
 70
     1
102
RTVSPropertyOp17
 70
     1
102
RTVSPropertyOp18
 70
     1
102
RTVSPropertyOp19
 70
     1
102
RTVSPropertyOp20
 70
     1
102
RTVSPropertyOp21
 70
     1
102
RTVSPropertyOp22
 70
     1
102
RTVSPropertyOp23
 70
     1
102
RTVSPropertyOp24
 70
     1
102
RTVSPropertyOp25
 70
     1
102
RTVSPropertyOp26
 70
     1
102
RTVSPropertyOp27
 70
     1
102
RTVSPropertyOp28
 70
     1
102
RTVSPropertyOp29
 70
     1
102
RTVSPropertyOp30
 70
     1
102
RTVSPropertyOp31
 70
     1
102
RTVSPropertyOp32
 70
     1
102
RTVSPropertyOp33
 70
     1
102
RTVSPropertyOp34
 70
     1
102
RTVSPropertyOp35
 70
     1
102
RTVSPropertyOp36
 70
     1
102
RTVSPropertyOp37
 70
     1
102
RTVSPropertyOp38
 70
     1
102
RTVSPropertyOp39
 70
     1
102
RTVSPropertyOp40
 70
     1
102
RTVSPropertyOp41
 70
     1
102
RTVSPropertyOp42
 70
     1
102
RTVSPropertyOp43
 70
     1
102
RTVSPropertyOp44
 70
     1
102
RTVSPropertyOp45
 70
     1
102
RTVSPropertyOp46
 70
     1
102
RTVSPropertyOp47
 70
     1
102
RTVSPropertyOp48
 70
     1
102
RTVSPropertyOp49
 70
     1
102
RTVSPropertyOp50
 70
     1
102
RTVSPropertyOp51
 70
     0
102
RTVSPropertyOp52
 70
     0
102
RTVSPropertyOp53
 70
     1
102
RTVSPropertyOp54
 70
     1
102
RTVSPropertyOp55
 70
     1
102
RTVSPropertyOp56
 70
     1
102
RTVSPropertyOp57
 70
     1
102
RTVSPost2010Prop28
280
     0
102
RTVSPost2010PropOp28
 70
     1
102
RTVSPost2010Prop29
280
     1
102
RTVSPost2010PropOp29
 70
     1
102
RTVSPost2010Prop30
280
     1
102
RTVSPost2010PropOp30
 70
     1
102
RTVSPost2010Prop31
280
     0
102
RTVSPost2010PropOp31
 70
     1
102
RTVSPost2010Prop32
280
     0
102
RTVSPost2010PropOp32
 70
     1
102
RTVSPost2010Prop33
280
     0
102
RTVSPost2010PropOp33
 70
     1
102
RTVSPost2010Prop34
280
     0
102
RTVSPost2010PropOp34
 70
     1
102
RTVSPost2010Prop35
280
     0
102
RTVSPost2010PropOp35
 70
     1
102
RTVSPost2010Prop36
280
     0
102
RTVSPost2010PropOp36
 70
     1
102
RTVSPost2010Prop37
 90
       50
102
RTVSPost2010PropOp37
 70
     1
102
RTVSPost2010Prop38
140
0.0
102
RTVSPost2010PropOp38
 70
     1
102
RTVSPost2010Prop39
140
1.0
102
RTVSPost2010PropOp39
 70
     1
102
RTVSPost2010Prop40
 90
        0
102
RTVSPost2010PropOp40
 70
     1
102
RTVSPost2010Prop41ColorIndex
 90
       18
102
RTVSPost2010Prop41ColorRGB
 90
        0
102
RTVSPost2010PropOp41
 70
     1
102
RTVSPost2010Prop42
 90
       50
102
RTVSPost2010PropOp42
 70
     1
102
RTVSPost2010Prop43
 90
        3
102
RTVSPost2010PropOp43
 70
     1
102
RTVSPost2010Prop44ColorIndex
 90
        5
102
RTVSPost2010Prop44ColorRGB
 90
      255
102
RTVSPost2010PropOp44
 70
     1
102
RTVSPost2010Prop45
280
     0
102
RTVSPost2010PropOp45
 70
     1
102
RTVSPost2010Prop46
 90
       50
102
RTVSPost2010PropOp46
 70
     1
102
RTVSPost2010Prop47
 90
       50
102
RTVSPost2010PropOp47
 70
     1
102
RTVSPost2010Prop48
 90
       50
102
RTVSPost2010PropOp48
 70
     1
102
RTVSPost2010Prop49
280
     0
102
RTVSPost2010PropOp49
 70
     1
102
RTVSPost2010Prop50
 90
       50
102
RTVSPost2010PropOp50
 70
     1
102
RTVSPost2010Prop51ColorIndex
 90
      256
102
RTVSPost2010Prop51ColorRGB
 90
-16777216
102
RTVSPost2010PropOp51
 70
     0
102
RTVSPost2010Prop52
140
1.0
102
RTVSPost2010PropOp52
 70
     0
102
RTVSPost2010Prop53
 90
        2
102
RTVSPost2010PropOp53
 70
     1
102
RTVSPost2010Prop54
  1
strokes_ogs.tif
102
RTVSPost2010PropOp54
 70
     1
102
RTVSPost2010Prop55
280
     0
102
RTVSPost2010PropOp55
 70
     1
102
RTVSPost2010Prop56
140
1.0
102
RTVSPost2010PropOp56
 70
     1
102
RTVSPost2010Prop57
140
1.0
102
RTVSPost2010PropOp57
 70
     1
  0
XRECORD
  5
3BC
102
{ACAD_REACTORS
330
3BB
102
}
330
3BB
100
AcDbXrecord
280
     1
102
RTVSPropertyOp0
 70
     1
102
RTVSPropertyOp1
 70
     1
102
RTVSPropertyOp2
 70
     1
102
RTVSPropertyOp3
 70
     1
102
RTVSPropertyOp4
 70
     1
102
RTVSPropertyOp5
 70
     1
102
RTVSPropertyOp6
 70
     1
102
RTVSPropertyOp7
 70
     1
102
RTVSPropertyOp8
 70
     1
102
RTVSPropertyOp9
 70
     1
102
RTVSPropertyOp10
 70
     1
102
RTVSPropertyOp11
 70
     1
102
RTVSPropertyOp12
 70
     1
102
RTVSPropertyOp13
 70
     1
102
RTVSPropertyOp14
 70
     1
102
RTVSPropertyOp15
 70
     1
102
RTVSPropertyOp16
 70
     1
102
RTVSPropertyOp17
 70
     1
102
RTVSPropertyOp18
 70
     1
102
RTVSPropertyOp19
 70
     1
102
RTVSPropertyOp20
 70
     1
102
RTVSPropertyOp21
 70
     1
102
RTVSPropertyOp22
 70
     1
102
RTVSPropertyOp23
 70
     1
102
RTVSPropertyOp24
 70
     1
102
RTVSPropertyOp25
 70
     1
102
RTVSPropertyOp26
 70
     1
102
RTVSPropertyOp27
 70
     1
102
RTVSPropertyOp28
 70
     1
102
RTVSPropertyOp29
 70
     1
102
RTVSPropertyOp30
 70
     1
102
RTVSPropertyOp31
 70
     1
102
RTVSPropertyOp32
 70
     1
102
RTVSPropertyOp33
 70
     1
102
RTVSPropertyOp34
 70
     1
102
RTVSPropertyOp35
 70
     1
102
RTVSPropertyOp36
 70
     1
102
RTVSPropertyOp37
 70
     1
102
RTVSPropertyOp38
 70
     1
102
RTVSPropertyOp39
 70
     1
102
RTVSPropertyOp40
 70
     1
102
RTVSPropertyOp41
 70
     1
102
RTVSPropertyOp42
 70
     1
102
RTVSPropertyOp43
 70
     1
102
RTVSPropertyOp44
 70
     1
102
RTVSPropertyOp45
 70
     1
102
RTVSPropertyOp46
 70
     1
102
RTVSPropertyOp47
 70
     1
102
RTVSPropertyOp48
 70
     1
102
RTVSPropertyOp49
 70
     1
102
RTVSPropertyOp50
 70
     1
102
RTVSPropertyOp51
 70
     0
102
RTVSPropertyOp52
 70
     0
102
RTVSPropertyOp53
 70
     1
102
RTVSPropertyOp54
 70
     1
102
RTVSPropertyOp55
 70
     1
102
RTVSPropertyOp56
 70
     1
102
RTVSPropertyOp57
 70
     1
102
RTVSPost2010Prop28
280
     0
102
RTVSPost2010PropOp28
 70
     1
102
RTVSPost2010Prop29
280
     1
102
RTVSPost2010PropOp29
 70
     1
102
RTVSPost2010Prop30
280
     1
102
RTVSPost2010PropOp30
 70
     1
102
RTVSPost2010Prop31
280
     0
102
RTVSPost2010PropOp31
 70
     1
102
RTVSPost2010Prop32
280
     0
102
RTVSPost2010PropOp32
 70
     1
102
RTVSPost2010Prop33
280
     0
102
RTVSPost2010PropOp33
 70
     1
102
RTVSPost2010Prop34
280
     0
102
RTVSPost2010PropOp34
 70
     1
102
RTVSPost2010Prop35
280
     0
102
RTVSPost2010PropOp35
 70
     1
102
RTVSPost2010Prop36
280
     0
102
RTVSPost2010PropOp36
 70
     1
102
RTVSPost2010Prop37
 90
       50
102
RTVSPost2010PropOp37
 70
     1
102
RTVSPost2010Prop38
140
0.0
102
RTVSPost2010PropOp38
 70
     1
102
RTVSPost2010Prop39
140
1.0
102
RTVSPost2010PropOp39
 70
     1
102
RTVSPost2010Prop40
 90
        0
102
RTVSPost2010PropOp40
 70
     1
102
RTVSPost2010Prop41ColorIndex
 90
       18
102
RTVSPost2010Prop41ColorRGB
 90
        0
102
RTVSPost2010PropOp41
 70
     1
102
RTVSPost2010Prop42
 90
       50
102
RTVSPost2010PropOp42
 70
     1
102
RTVSPost2010Prop43
 90
        3
102
RTVSPost2010PropOp43
 70
     1
102
RTVSPost2010Prop44ColorIndex
 90
        5
102
RTVSPost2010Prop44ColorRGB
 90
      255
102
RTVSPost2010PropOp44
 70
     1
102
RTVSPost2010Prop45
280
     0
102
RTVSPost2010PropOp45
 70
     1
102
RTVSPost2010Prop46
 90
       50
102
RTVSPost2010PropOp46
 70
     1
102
RTVSPost2010Prop47
 90
       50
102
RTVSPost2010PropOp47
 70
     1
102
RTVSPost2010Prop48
 90
       50
102
RTVSPost2010PropOp48
 70
     1
102
RTVSPost2010Prop49
280
     0
102
RTVSPost2010PropOp49
 70
     1
102
RTVSPost2010Prop50
 90
       50
102
RTVSPost2010PropOp50
 70
     1
102
RTVSPost2010Prop51ColorIndex
 90
      256
102
RTVSPost2010Prop51ColorRGB
 90
-16777216
102
RTVSPost2010PropOp51
 70
     0
102
RTVSPost2010Prop52
140
1.0
102
RTVSPost2010PropOp52
 70
     0
102
RTVSPost2010Prop53
 90
        2
102
RTVSPost2010PropOp53
 70
     1
102
RTVSPost2010Prop54
  1
strokes_ogs.tif
102
RTVSPost2010PropOp54
 70
     1
102
RTVSPost2010Prop55
280
     0
102
RTVSPost2010PropOp55
 70
     1
102
RTVSPost2010Prop56
140
1.0
102
RTVSPost2010PropOp56
 70
     1
102
RTVSPost2010Prop57
140
1.0
102
RTVSPost2010PropOp57
 70
     1
  0
XRECORD
  5
3B6
102
{ACAD_REACTORS
330
3B5
102
}
330
3B5
100
AcDbXrecord
280
     1
102
RTVSPropertyOp0
 70
     1
102
RTVSPropertyOp1
 70
     1
102
RTVSPropertyOp2
 70
     1
102
RTVSPropertyOp3
 70
     1
102
RTVSPropertyOp4
 70
     1
102
RTVSPropertyOp5
 70
     1
102
RTVSPropertyOp6
 70
     1
102
RTVSPropertyOp7
 70
     1
102
RTVSPropertyOp8
 70
     1
102
RTVSPropertyOp9
 70
     1
102
RTVSPropertyOp10
 70
     1
102
RTVSPropertyOp11
 70
     1
102
RTVSPropertyOp12
 70
     1
102
RTVSPropertyOp13
 70
     1
102
RTVSPropertyOp14
 70
     1
102
RTVSPropertyOp15
 70
     1
102
RTVSPropertyOp16
 70
     1
102
RTVSPropertyOp17
 70
     1
102
RTVSPropertyOp18
 70
     1
102
RTVSPropertyOp19
 70
     1
102
RTVSPropertyOp20
 70
     1
102
RTVSPropertyOp21
 70
     1
102
RTVSPropertyOp22
 70
     1
102
RTVSPropertyOp23
 70
     1
102
RTVSPropertyOp24
 70
     1
102
RTVSPropertyOp25
 70
     1
102
RTVSPropertyOp26
 70
     1
102
RTVSPropertyOp27
 70
     1
102
RTVSPropertyOp28
 70
     1
102
RTVSPropertyOp29
 70
     1
102
RTVSPropertyOp30
 70
     1
102
RTVSPropertyOp31
 70
     1
102
RTVSPropertyOp32
 70
     1
102
RTVSPropertyOp33
 70
     1
102
RTVSPropertyOp34
 70
     1
102
RTVSPropertyOp35
 70
     1
102
RTVSPropertyOp36
 70
     1
102
RTVSPropertyOp37
 70
     1
102
RTVSPropertyOp38
 70
     1
102
RTVSPropertyOp39
 70
     1
102
RTVSPropertyOp40
 70
     1
102
RTVSPropertyOp41
 70
     1
102
RTVSPropertyOp42
 70
     1
102
RTVSPropertyOp43
 70
     1
102
RTVSPropertyOp44
 70
     1
102
RTVSPropertyOp45
 70
     1
102
RTVSPropertyOp46
 70
     1
102
RTVSPropertyOp47
 70
     1
102
RTVSPropertyOp48
 70
     1
102
RTVSPropertyOp49
 70
     1
102
RTVSPropertyOp50
 70
     1
102
RTVSPropertyOp51
 70
     0
102
RTVSPropertyOp52
 70
     0
102
RTVSPropertyOp53
 70
     1
102
RTVSPropertyOp54
 70
     1
102
RTVSPropertyOp55
 70
     1
102
RTVSPropertyOp56
 70
     1
102
RTVSPropertyOp57
 70
     1
102
RTVSPost2010Prop28
280
     0
102
RTVSPost2010PropOp28
 70
     1
102
RTVSPost2010Prop29
280
     1
102
RTVSPost2010PropOp29
 70
     1
102
RTVSPost2010Prop30
280
     1
102
RTVSPost2010PropOp30
 70
     1
102
RTVSPost2010Prop31
280
     0
102
RTVSPost2010PropOp31
 70
     1
102
RTVSPost2010Prop32
280
     0
102
RTVSPost2010PropOp32
 70
     1
102
RTVSPost2010Prop33
280
     0
102
RTVSPost2010PropOp33
 70
     1
102
RTVSPost2010Prop34
280
     0
102
RTVSPost2010PropOp34
 70
     1
102
RTVSPost2010Prop35
280
     0
102
RTVSPost2010PropOp35
 70
     1
102
RTVSPost2010Prop36
280
     0
102
RTVSPost2010PropOp36
 70
     1
102
RTVSPost2010Prop37
 90
       50
102
RTVSPost2010PropOp37
 70
     1
102
RTVSPost2010Prop38
140
0.0
102
RTVSPost2010PropOp38
 70
     1
102
RTVSPost2010Prop39
140
1.0
102
RTVSPost2010PropOp39
 70
     1
102
RTVSPost2010Prop40
 90
        0
102
RTVSPost2010PropOp40
 70
     1
102
RTVSPost2010Prop41ColorIndex
 90
       18
102
RTVSPost2010Prop41ColorRGB
 90
        0
102
RTVSPost2010PropOp41
 70
     1
102
RTVSPost2010Prop42
 90
       50
102
RTVSPost2010PropOp42
 70
     1
102
RTVSPost2010Prop43
 90
        3
102
RTVSPost2010PropOp43
 70
     1
102
RTVSPost2010Prop44ColorIndex
 90
        5
102
RTVSPost2010Prop44ColorRGB
 90
      255
102
RTVSPost2010PropOp44
 70
     1
102
RTVSPost2010Prop45
280
     0
102
RTVSPost2010PropOp45
 70
     1
102
RTVSPost2010Prop46
 90
       50
102
RTVSPost2010PropOp46
 70
     1
102
RTVSPost2010Prop47
 90
       50
102
RTVSPost2010PropOp47
 70
     1
102
RTVSPost2010Prop48
 90
       50
102
RTVSPost2010PropOp48
 70
     1
102
RTVSPost2010Prop49
280
     0
102
RTVSPost2010PropOp49
 70
     1
102
RTVSPost2010Prop50
 90
       50
102
RTVSPost2010PropOp50
 70
     1
102
RTVSPost2010Prop51ColorIndex
 90
      256
102
RTVSPost2010Prop51ColorRGB
 90
-16777216
102
RTVSPost2010PropOp51
 70
     0
102
RTVSPost2010Prop52
140
1.0
102
RTVSPost2010PropOp52
 70
     0
102
RTVSPost2010Prop53
 90
        2
102
RTVSPost2010PropOp53
 70
     1
102
RTVSPost2010Prop54
  1
strokes_ogs.tif
102
RTVSPost2010PropOp54
 70
     1
102
RTVSPost2010Prop55
280
     0
102
RTVSPost2010PropOp55
 70
     1
102
RTVSPost2010Prop56
140
1.0
102
RTVSPost2010PropOp56
 70
     1
102
RTVSPost2010Prop57
140
1.0
102
RTVSPost2010PropOp57
 70
     1
  0
XRECORD
  5
3B8
102
{ACAD_REACTORS
330
3B7
102
}
330
3B7
100
AcDbXrecord
280
     1
102
RTVSPropertyOp0
 70
     1
102
RTVSPropertyOp1
 70
     1
102
RTVSPropertyOp2
 70
     1
102
RTVSPropertyOp3
 70
     1
102
RTVSPropertyOp4
 70
     1
102
RTVSPropertyOp5
 70
     1
102
RTVSPropertyOp6
 70
     1
102
RTVSPropertyOp7
 70
     1
102
RTVSPropertyOp8
 70
     1
102
RTVSPropertyOp9
 70
     1
102
RTVSPropertyOp10
 70
     1
102
RTVSPropertyOp11
 70
     1
102
RTVSPropertyOp12
 70
     1
102
RTVSPropertyOp13
 70
     1
102
RTVSPropertyOp14
 70
     1
102
RTVSPropertyOp15
 70
     1
102
RTVSPropertyOp16
 70
     1
102
RTVSPropertyOp17
 70
     1
102
RTVSPropertyOp18
 70
     1
102
RTVSPropertyOp19
 70
     1
102
RTVSPropertyOp20
 70
     1
102
RTVSPropertyOp21
 70
     1
102
RTVSPropertyOp22
 70
     1
102
RTVSPropertyOp23
 70
     1
102
RTVSPropertyOp24
 70
     1
102
RTVSPropertyOp25
 70
     1
102
RTVSPropertyOp26
 70
     1
102
RTVSPropertyOp27
 70
     1
102
RTVSPropertyOp28
 70
     1
102
RTVSPropertyOp29
 70
     1
102
RTVSPropertyOp30
 70
     1
102
RTVSPropertyOp31
 70
     1
102
RTVSPropertyOp32
 70
     1
102
RTVSPropertyOp33
 70
     1
102
RTVSPropertyOp34
 70
     1
102
RTVSPropertyOp35
 70
     1
102
RTVSPropertyOp36
 70
     1
102
RTVSPropertyOp37
 70
     1
102
RTVSPropertyOp38
 70
     1
102
RTVSPropertyOp39
 70
     1
102
RTVSPropertyOp40
 70
     1
102
RTVSPropertyOp41
 70
     1
102
RTVSPropertyOp42
 70
     1
102
RTVSPropertyOp43
 70
     1
102
RTVSPropertyOp44
 70
     1
102
RTVSPropertyOp45
 70
     1
102
RTVSPropertyOp46
 70
     1
102
RTVSPropertyOp47
 70
     1
102
RTVSPropertyOp48
 70
     1
102
RTVSPropertyOp49
 70
     1
102
RTVSPropertyOp50
 70
     1
102
RTVSPropertyOp51
 70
     0
102
RTVSPropertyOp52
 70
     0
102
RTVSPropertyOp53
 70
     1
102
RTVSPropertyOp54
 70
     1
102
RTVSPropertyOp55
 70
     1
102
RTVSPropertyOp56
 70
     1
102
RTVSPropertyOp57
 70
     1
102
RTVSPost2010Prop28
280
     0
102
RTVSPost2010PropOp28
 70
     1
102
RTVSPost2010Prop29
280
     1
102
RTVSPost2010PropOp29
 70
     1
102
RTVSPost2010Prop30
280
     1
102
RTVSPost2010PropOp30
 70
     1
102
RTVSPost2010Prop31
280
     0
102
RTVSPost2010PropOp31
 70
     1
102
RTVSPost2010Prop32
280
     0
102
RTVSPost2010PropOp32
 70
     1
102
RTVSPost2010Prop33
280
     0
102
RTVSPost2010PropOp33
 70
     1
102
RTVSPost2010Prop34
280
     0
102
RTVSPost2010PropOp34
 70
     1
102
RTVSPost2010Prop35
280
     0
102
RTVSPost2010PropOp35
 70
     1
102
RTVSPost2010Prop36
280
     0
102
RTVSPost2010PropOp36
 70
     1
102
RTVSPost2010Prop37
 90
       50
102
RTVSPost2010PropOp37
 70
     1
102
RTVSPost2010Prop38
140
0.0
102
RTVSPost2010PropOp38
 70
     1
102
RTVSPost2010Prop39
140
1.0
102
RTVSPost2010PropOp39
 70
     1
102
RTVSPost2010Prop40
 90
        0
102
RTVSPost2010PropOp40
 70
     1
102
RTVSPost2010Prop41ColorIndex
 90
       18
102
RTVSPost2010Prop41ColorRGB
 90
        0
102
RTVSPost2010PropOp41
 70
     1
102
RTVSPost2010Prop42
 90
       50
102
RTVSPost2010PropOp42
 70
     1
102
RTVSPost2010Prop43
 90
        3
102
RTVSPost2010PropOp43
 70
     1
102
RTVSPost2010Prop44ColorIndex
 90
        5
102
RTVSPost2010Prop44ColorRGB
 90
      255
102
RTVSPost2010PropOp44
 70
     1
102
RTVSPost2010Prop45
280
     0
102
RTVSPost2010PropOp45
 70
     1
102
RTVSPost2010Prop46
 90
       50
102
RTVSPost2010PropOp46
 70
     1
102
RTVSPost2010Prop47
 90
       50
102
RTVSPost2010PropOp47
 70
     1
102
RTVSPost2010Prop48
 90
       50
102
RTVSPost2010PropOp48
 70
     1
102
RTVSPost2010Prop49
280
     0
102
RTVSPost2010PropOp49
 70
     1
102
RTVSPost2010Prop50
 90
       50
102
RTVSPost2010PropOp50
 70
     1
102
RTVSPost2010Prop51ColorIndex
 90
      256
102
RTVSPost2010Prop51ColorRGB
 90
-16777216
102
RTVSPost2010PropOp51
 70
     0
102
RTVSPost2010Prop52
140
1.0
102
RTVSPost2010PropOp52
 70
     0
102
RTVSPost2010Prop53
 90
        2
102
RTVSPost2010PropOp53
 70
     1
102
RTVSPost2010Prop54
  1
strokes_ogs.tif
102
RTVSPost2010PropOp54
 70
     1
102
RTVSPost2010Prop55
280
     0
102
RTVSPost2010PropOp55
 70
     1
102
RTVSPost2010Prop56
140
1.0
102
RTVSPost2010PropOp56
 70
     1
102
RTVSPost2010Prop57
140
1.0
102
RTVSPost2010PropOp57
 70
     1
  0
XRECORD
  5
3A8
102
{ACAD_REACTORS
330
3A7
102
}
330
3A7
100
AcDbXrecord
280
     1
102
RTVSPropertyOp0
 70
     1
102
RTVSPropertyOp1
 70
     1
102
RTVSPropertyOp2
 70
     1
102
RTVSPropertyOp3
 70
     1
102
RTVSPropertyOp4
 70
     1
102
RTVSPropertyOp5
 70
     1
102
RTVSPropertyOp6
 70
     1
102
RTVSPropertyOp7
 70
     1
102
RTVSPropertyOp8
 70
     1
102
RTVSPropertyOp9
 70
     1
102
RTVSPropertyOp10
 70
     1
102
RTVSPropertyOp11
 70
     1
102
RTVSPropertyOp12
 70
     1
102
RTVSPropertyOp13
 70
     1
102
RTVSPropertyOp14
 70
     1
102
RTVSPropertyOp15
 70
     1
102
RTVSPropertyOp16
 70
     1
102
RTVSPropertyOp17
 70
     1
102
RTVSPropertyOp18
 70
     1
102
RTVSPropertyOp19
 70
     1
102
RTVSPropertyOp20
 70
     1
102
RTVSPropertyOp21
 70
     1
102
RTVSPropertyOp22
 70
     1
102
RTVSPropertyOp23
 70
     1
102
RTVSPropertyOp24
 70
     1
102
RTVSPropertyOp25
 70
     1
102
RTVSPropertyOp26
 70
     1
102
RTVSPropertyOp27
 70
     1
102
RTVSPropertyOp28
 70
     1
102
RTVSPropertyOp29
 70
     1
102
RTVSPropertyOp30
 70
     1
102
RTVSPropertyOp31
 70
     1
102
RTVSPropertyOp32
 70
     1
102
RTVSPropertyOp33
 70
     1
102
RTVSPropertyOp34
 70
     1
102
RTVSPropertyOp35
 70
     1
102
RTVSPropertyOp36
 70
     1
102
RTVSPropertyOp37
 70
     1
102
RTVSPropertyOp38
 70
     1
102
RTVSPropertyOp39
 70
     1
102
RTVSPropertyOp40
 70
     1
102
RTVSPropertyOp41
 70
     1
102
RTVSPropertyOp42
 70
     1
102
RTVSPropertyOp43
 70
     1
102
RTVSPropertyOp44
 70
     1
102
RTVSPropertyOp45
 70
     1
102
RTVSPropertyOp46
 70
     1
102
RTVSPropertyOp47
 70
     1
102
RTVSPropertyOp48
 70
     1
102
RTVSPropertyOp49
 70
     1
102
RTVSPropertyOp50
 70
     1
102
RTVSPropertyOp51
 70
     0
102
RTVSPropertyOp52
 70
     0
102
RTVSPropertyOp53
 70
     1
102
RTVSPropertyOp54
 70
     1
102
RTVSPropertyOp55
 70
     1
102
RTVSPropertyOp56
 70
     1
102
RTVSPropertyOp57
 70
     1
102
RTVSPost2010Prop28
280
     0
102
RTVSPost2010PropOp28
 70
     1
102
RTVSPost2010Prop29
280
     1
102
RTVSPost2010PropOp29
 70
     1
102
RTVSPost2010Prop30
280
     1
102
RTVSPost2010PropOp30
 70
     1
102
RTVSPost2010Prop31
280
     0
102
RTVSPost2010PropOp31
 70
     1
102
RTVSPost2010Prop32
280
     0
102
RTVSPost2010PropOp32
 70
     1
102
RTVSPost2010Prop33
280
     0
102
RTVSPost2010PropOp33
 70
     1
102
RTVSPost2010Prop34
280
     0
102
RTVSPost2010PropOp34
 70
     1
102
RTVSPost2010Prop35
280
     0
102
RTVSPost2010PropOp35
 70
     1
102
RTVSPost2010Prop36
280
     0
102
RTVSPost2010PropOp36
 70
     1
102
RTVSPost2010Prop37
 90
       50
102
RTVSPost2010PropOp37
 70
     1
102
RTVSPost2010Prop38
140
0.0
102
RTVSPost2010PropOp38
 70
     1
102
RTVSPost2010Prop39
140
1.0
102
RTVSPost2010PropOp39
 70
     1
102
RTVSPost2010Prop40
 90
        0
102
RTVSPost2010PropOp40
 70
     1
102
RTVSPost2010Prop41ColorIndex
 90
       18
102
RTVSPost2010Prop41ColorRGB
 90
        0
102
RTVSPost2010PropOp41
 70
     1
102
RTVSPost2010Prop42
 90
       50
102
RTVSPost2010PropOp42
 70
     1
102
RTVSPost2010Prop43
 90
        3
102
RTVSPost2010PropOp43
 70
     1
102
RTVSPost2010Prop44ColorIndex
 90
        5
102
RTVSPost2010Prop44ColorRGB
 90
      255
102
RTVSPost2010PropOp44
 70
     1
102
RTVSPost2010Prop45
280
     0
102
RTVSPost2010PropOp45
 70
     1
102
RTVSPost2010Prop46
 90
       50
102
RTVSPost2010PropOp46
 70
     1
102
RTVSPost2010Prop47
 90
       50
102
RTVSPost2010PropOp47
 70
     1
102
RTVSPost2010Prop48
 90
       50
102
RTVSPost2010PropOp48
 70
     1
102
RTVSPost2010Prop49
280
     0
102
RTVSPost2010PropOp49
 70
     1
102
RTVSPost2010Prop50
 90
       50
102
RTVSPost2010PropOp50
 70
     1
102
RTVSPost2010Prop51ColorIndex
 90
      256
102
RTVSPost2010Prop51ColorRGB
 90
-16777216
102
RTVSPost2010PropOp51
 70
     0
102
RTVSPost2010Prop52
140
1.0
102
RTVSPost2010PropOp52
 70
     0
102
RTVSPost2010Prop53
 90
        2
102
RTVSPost2010PropOp53
 70
     1
102
RTVSPost2010Prop54
  1
strokes_ogs.tif
102
RTVSPost2010PropOp54
 70
     1
102
RTVSPost2010Prop55
280
     0
102
RTVSPost2010PropOp55
 70
     1
102
RTVSPost2010Prop56
140
1.0
102
RTVSPost2010PropOp56
 70
     1
102
RTVSPost2010Prop57
140
1.0
102
RTVSPost2010PropOp57
 70
     1
  0
XRECORD
  5
39A
102
{ACAD_REACTORS
330
399
102
}
330
399
100
AcDbXrecord
280
     1
102
RTVSPropertyOp0
 70
     1
102
RTVSPropertyOp1
 70
     1
102
RTVSPropertyOp2
 70
     1
102
RTVSPropertyOp3
 70
     1
102
RTVSPropertyOp4
 70
     1
102
RTVSPropertyOp5
 70
     1
102
RTVSPropertyOp6
 70
     1
102
RTVSPropertyOp7
 70
     1
102
RTVSPropertyOp8
 70
     1
102
RTVSPropertyOp9
 70
     1
102
RTVSPropertyOp10
 70
     1
102
RTVSPropertyOp11
 70
     1
102
RTVSPropertyOp12
 70
     1
102
RTVSPropertyOp13
 70
     1
102
RTVSPropertyOp14
 70
     1
102
RTVSPropertyOp15
 70
     1
102
RTVSPropertyOp16
 70
     1
102
RTVSPropertyOp17
 70
     1
102
RTVSPropertyOp18
 70
     1
102
RTVSPropertyOp19
 70
     1
102
RTVSPropertyOp20
 70
     1
102
RTVSPropertyOp21
 70
     1
102
RTVSPropertyOp22
 70
     1
102
RTVSPropertyOp23
 70
     1
102
RTVSPropertyOp24
 70
     1
102
RTVSPropertyOp25
 70
     1
102
RTVSPropertyOp26
 70
     1
102
RTVSPropertyOp27
 70
     1
102
RTVSPropertyOp28
 70
     1
102
RTVSPropertyOp29
 70
     1
102
RTVSPropertyOp30
 70
     1
102
RTVSPropertyOp31
 70
     1
102
RTVSPropertyOp32
 70
     1
102
RTVSPropertyOp33
 70
     1
102
RTVSPropertyOp34
 70
     1
102
RTVSPropertyOp35
 70
     1
102
RTVSPropertyOp36
 70
     1
102
RTVSPropertyOp37
 70
     1
102
RTVSPropertyOp38
 70
     1
102
RTVSPropertyOp39
 70
     1
102
RTVSPropertyOp40
 70
     1
102
RTVSPropertyOp41
 70
     1
102
RTVSPropertyOp42
 70
     1
102
RTVSPropertyOp43
 70
     1
102
RTVSPropertyOp44
 70
     1
102
RTVSPropertyOp45
 70
     1
102
RTVSPropertyOp46
 70
     1
102
RTVSPropertyOp47
 70
     1
102
RTVSPropertyOp48
 70
     1
102
RTVSPropertyOp49
 70
     1
102
RTVSPropertyOp50
 70
     1
102
RTVSPropertyOp51
 70
     0
102
RTVSPropertyOp52
 70
     0
102
RTVSPropertyOp53
 70
     1
102
RTVSPropertyOp54
 70
     1
102
RTVSPropertyOp55
 70
     1
102
RTVSPropertyOp56
 70
     1
102
RTVSPropertyOp57
 70
     1
102
RTVSPost2010Prop28
280
     0
102
RTVSPost2010PropOp28
 70
     1
102
RTVSPost2010Prop29
280
     1
102
RTVSPost2010PropOp29
 70
     1
102
RTVSPost2010Prop30
280
     1
102
RTVSPost2010PropOp30
 70
     1
102
RTVSPost2010Prop31
280
     0
102
RTVSPost2010PropOp31
 70
     1
102
RTVSPost2010Prop32
280
     0
102
RTVSPost2010PropOp32
 70
     1
102
RTVSPost2010Prop33
280
     0
102
RTVSPost2010PropOp33
 70
     1
102
RTVSPost2010Prop34
280
     0
102
RTVSPost2010PropOp34
 70
     1
102
RTVSPost2010Prop35
280
     0
102
RTVSPost2010PropOp35
 70
     1
102
RTVSPost2010Prop36
280
     0
102
RTVSPost2010PropOp36
 70
     1
102
RTVSPost2010Prop37
 90
       50
102
RTVSPost2010PropOp37
 70
     1
102
RTVSPost2010Prop38
140
0.0
102
RTVSPost2010PropOp38
 70
     1
102
RTVSPost2010Prop39
140
1.0
102
RTVSPost2010PropOp39
 70
     1
102
RTVSPost2010Prop40
 90
        0
102
RTVSPost2010PropOp40
 70
     1
102
RTVSPost2010Prop41ColorIndex
 90
       18
102
RTVSPost2010Prop41ColorRGB
 90
        0
102
RTVSPost2010PropOp41
 70
     1
102
RTVSPost2010Prop42
 90
       50
102
RTVSPost2010PropOp42
 70
     1
102
RTVSPost2010Prop43
 90
        3
102
RTVSPost2010PropOp43
 70
     1
102
RTVSPost2010Prop44ColorIndex
 90
        5
102
RTVSPost2010Prop44ColorRGB
 90
      255
102
RTVSPost2010PropOp44
 70
     1
102
RTVSPost2010Prop45
280
     0
102
RTVSPost2010PropOp45
 70
     1
102
RTVSPost2010Prop46
 90
       50
102
RTVSPost2010PropOp46
 70
     1
102
RTVSPost2010Prop47
 90
       50
102
RTVSPost2010PropOp47
 70
     1
102
RTVSPost2010Prop48
 90
       50
102
RTVSPost2010PropOp48
 70
     1
102
RTVSPost2010Prop49
280
     0
102
RTVSPost2010PropOp49
 70
     1
102
RTVSPost2010Prop50
 90
       50
102
RTVSPost2010PropOp50
 70
     1
102
RTVSPost2010Prop51ColorIndex
 90
      256
102
RTVSPost2010Prop51ColorRGB
 90
-16777216
102
RTVSPost2010PropOp51
 70
     0
102
RTVSPost2010Prop52
140
1.0
102
RTVSPost2010PropOp52
 70
     0
102
RTVSPost2010Prop53
 90
        2
102
RTVSPost2010PropOp53
 70
     1
102
RTVSPost2010Prop54
  1
strokes_ogs.tif
102
RTVSPost2010PropOp54
 70
     1
102
RTVSPost2010Prop55
280
     0
102
RTVSPost2010PropOp55
 70
     1
102
RTVSPost2010Prop56
140
1.0
102
RTVSPost2010PropOp56
 70
     1
102
RTVSPost2010Prop57
140
1.0
102
RTVSPost2010PropOp57
 70
     1
  0
XRECORD
  5
3BA
102
{ACAD_REACTORS
330
3B9
102
}
330
3B9
100
AcDbXrecord
280
     1
102
RTVSPropertyOp0
 70
     1
102
RTVSPropertyOp1
 70
     1
102
RTVSPropertyOp2
 70
     1
102
RTVSPropertyOp3
 70
     1
102
RTVSPropertyOp4
 70
     1
102
RTVSPropertyOp5
 70
     1
102
RTVSPropertyOp6
 70
     1
102
RTVSPropertyOp7
 70
     1
102
RTVSPropertyOp8
 70
     1
102
RTVSPropertyOp9
 70
     1
102
RTVSPropertyOp10
 70
     1
102
RTVSPropertyOp11
 70
     1
102
RTVSPropertyOp12
 70
     1
102
RTVSPropertyOp13
 70
     1
102
RTVSPropertyOp14
 70
     1
102
RTVSPropertyOp15
 70
     1
102
RTVSPropertyOp16
 70
     1
102
RTVSPropertyOp17
 70
     1
102
RTVSPropertyOp18
 70
     1
102
RTVSPropertyOp19
 70
     1
102
RTVSPropertyOp20
 70
     1
102
RTVSPropertyOp21
 70
     1
102
RTVSPropertyOp22
 70
     1
102
RTVSPropertyOp23
 70
     1
102
RTVSPropertyOp24
 70
     1
102
RTVSPropertyOp25
 70
     1
102
RTVSPropertyOp26
 70
     1
102
RTVSPropertyOp27
 70
     1
102
RTVSPropertyOp28
 70
     1
102
RTVSPropertyOp29
 70
     1
102
RTVSPropertyOp30
 70
     1
102
RTVSPropertyOp31
 70
     1
102
RTVSPropertyOp32
 70
     1
102
RTVSPropertyOp33
 70
     1
102
RTVSPropertyOp34
 70
     1
102
RTVSPropertyOp35
 70
     1
102
RTVSPropertyOp36
 70
     1
102
RTVSPropertyOp37
 70
     1
102
RTVSPropertyOp38
 70
     1
102
RTVSPropertyOp39
 70
     1
102
RTVSPropertyOp40
 70
     1
102
RTVSPropertyOp41
 70
     1
102
RTVSPropertyOp42
 70
     1
102
RTVSPropertyOp43
 70
     1
102
RTVSPropertyOp44
 70
     1
102
RTVSPropertyOp45
 70
     1
102
RTVSPropertyOp46
 70
     1
102
RTVSPropertyOp47
 70
     1
102
RTVSPropertyOp48
 70
     1
102
RTVSPropertyOp49
 70
     1
102
RTVSPropertyOp50
 70
     1
102
RTVSPropertyOp51
 70
     0
102
RTVSPropertyOp52
 70
     0
102
RTVSPropertyOp53
 70
     1
102
RTVSPropertyOp54
 70
     1
102
RTVSPropertyOp55
 70
     1
102
RTVSPropertyOp56
 70
     1
102
RTVSPropertyOp57
 70
     1
102
RTVSPost2010Prop28
280
     0
102
RTVSPost2010PropOp28
 70
     1
102
RTVSPost2010Prop29
280
     1
102
RTVSPost2010PropOp29
 70
     1
102
RTVSPost2010Prop30
280
     1
102
RTVSPost2010PropOp30
 70
     1
102
RTVSPost2010Prop31
280
     0
102
RTVSPost2010PropOp31
 70
     1
102
RTVSPost2010Prop32
280
     0
102
RTVSPost2010PropOp32
 70
     1
102
RTVSPost2010Prop33
280
     0
102
RTVSPost2010PropOp33
 70
     1
102
RTVSPost2010Prop34
280
     0
102
RTVSPost2010PropOp34
 70
     1
102
RTVSPost2010Prop35
280
     0
102
RTVSPost2010PropOp35
 70
     1
102
RTVSPost2010Prop36
280
     0
102
RTVSPost2010PropOp36
 70
     1
102
RTVSPost2010Prop37
 90
       50
102
RTVSPost2010PropOp37
 70
     1
102
RTVSPost2010Prop38
140
0.0
102
RTVSPost2010PropOp38
 70
     1
102
RTVSPost2010Prop39
140
1.0
102
RTVSPost2010PropOp39
 70
     1
102
RTVSPost2010Prop40
 90
        0
102
RTVSPost2010PropOp40
 70
     1
102
RTVSPost2010Prop41ColorIndex
 90
       18
102
RTVSPost2010Prop41ColorRGB
 90
        0
102
RTVSPost2010PropOp41
 70
     1
102
RTVSPost2010Prop42
 90
       50
102
RTVSPost2010PropOp42
 70
     1
102
RTVSPost2010Prop43
 90
        3
102
RTVSPost2010PropOp43
 70
     1
102
RTVSPost2010Prop44ColorIndex
 90
        5
102
RTVSPost2010Prop44ColorRGB
 90
      255
102
RTVSPost2010PropOp44
 70
     1
102
RTVSPost2010Prop45
280
     0
102
RTVSPost2010PropOp45
 70
     1
102
RTVSPost2010Prop46
 90
       50
102
RTVSPost2010PropOp46
 70
     1
102
RTVSPost2010Prop47
 90
       50
102
RTVSPost2010PropOp47
 70
     1
102
RTVSPost2010Prop48
 90
       50
102
RTVSPost2010PropOp48
 70
     1
102
RTVSPost2010Prop49
280
     0
102
RTVSPost2010PropOp49
 70
     1
102
RTVSPost2010Prop50
 90
       50
102
RTVSPost2010PropOp50
 70
     1
102
RTVSPost2010Prop51ColorIndex
 90
      256
102
RTVSPost2010Prop51ColorRGB
 90
-16777216
102
RTVSPost2010PropOp51
 70
     0
102
RTVSPost2010Prop52
140
1.0
102
RTVSPost2010PropOp52
 70
     0
102
RTVSPost2010Prop53
 90
        2
102
RTVSPost2010PropOp53
 70
     1
102
RTVSPost2010Prop54
  1
strokes_ogs.tif
102
RTVSPost2010PropOp54
 70
     1
102
RTVSPost2010Prop55
280
     0
102
RTVSPost2010PropOp55
 70
     1
102
RTVSPost2010Prop56
140
1.0
102
RTVSPost2010PropOp56
 70
     1
102
RTVSPost2010Prop57
140
1.0
102
RTVSPost2010PropOp57
 70
     1
  0
ENDSEC
  0
EOF
